osu file format v14

[General]
AudioFilename: Kimi no Iru Machi OP - Sentimental Love (TV Size).mp3
AudioLeadIn: 1500
PreviewTime: 59752
Countdown: 0
SampleSet: Soft
StackLeniency: 0.7
Mode: 0
LetterboxInBreaks: 0
WidescreenStoryboard: 1

[Editor]
DistanceSpacing: 1
BeatDivisor: 4
GridSize: 4
TimelineZoom: 1.9

[Metadata]
Title:Sentimental Love (TV Size)
TitleUnicode:センチメンタルラブ (TV Size)
Artist:mimimemeMIMI
ArtistUnicode:みみめめMIMI
Creator:noz1995
Version:Insane
Source:君のいる町
Tags:OP a town where you live Kimi no Iru Machi opening
BeatmapID:711866
BeatmapSetID:319855

[Difficulty]
HPDrainRate:7
CircleSize:4
OverallDifficulty:7
ApproachRate:8.4
SliderMultiplier:2
SliderTickRate:1

[Events]
//Background and Video events
0,0,"Kimi_no_Iru_Machi_OVA.jpg",0,0
//Break Periods
//Storyboard Layer 0 (Background)
//Storyboard Layer 1 (Fail)
//Storyboard Layer 2 (Pass)
//Storyboard Layer 3 (Foreground)
//Storyboard Sound Samples

[TimingPoints]
1274,434.782608695652,4,2,1,35,1,0
1274,-133.333333333333,4,2,1,35,0,0
11708,-133.333333333333,4,2,1,20,0,0
12142,-133.333333333333,4,2,1,25,0,0
12577,-133.333333333333,4,2,1,30,0,0
13013,-133.333333333333,4,2,1,35,0,0
13447,-100,4,2,1,40,0,0
15187,-100,4,2,1,65,0,0
21273,-100,4,2,1,35,0,0
22143,-133.333333333333,4,2,1,45,0,0
44752,-111.111111111111,4,2,1,55,0,0
53013,-111.111111111111,4,2,1,25,0,0
53447,-111.111111111111,4,2,1,55,0,0
60404,-95.2380952380952,4,2,1,65,0,1
73882,-95.2380952380952,4,2,1,65,0,0
74317,-95.2380952380952,4,2,1,65,0,1
88230,-133.333333333333,4,2,1,25,0,0
89100,-133.333333333333,4,2,1,5,0,0

[Colours]
Combo1 : 0,255,0
Combo2 : 0,0,255
Combo3 : 255,255,0
Combo4 : 255,0,0
Combo5 : 0,255,255

[HitObjects]
372,288,1274,6,0,P|424:224|376:152,1,150.000005722046,2|2,0:0|0:0,0:0:0:0:
278,210,1926,2,0,L|352:220,1,75.0000028610231,2|2,0:0|0:0,0:0:0:0:
244,124,2360,2,0,L|170:114,1,75.0000028610231,2|2,0:0|0:0,0:0:0:0:
64,88,2795,1,2,0:0:0:0:
64,88,3013,6,0,P|72:196|120:212,1,150.000005722046,2|2,0:0|0:0,0:0:0:0:
166,191,3665,2,0,P|148:159|116:140,1,75.0000028610231,2|2,0:0|0:0,0:0:0:0:
244,220,4100,2,0,P|263:252|294:271,1,75.0000028610231,2|2,0:0|0:0,0:0:0:0:
316,200,4534,1,2,0:0:0:0:
344,104,4752,1,2,0:0:0:0:
344,104,5187,6,0,P|304:64|188:84,2,150.000005722046,2|2|2,0:0|0:0|0:0,0:0:0:0:
112,316,6491,2,0,P|92:256|128:176,1,150.000005722046,2|2,0:0|0:0,0:0:0:0:
200,256,7143,1,2,0:0:0:0:
275,332,7360,2,0,P|307:266|288:196,1,150.000005722046,2|2,0:0|0:0,0:0:0:0:
88,60,8230,6,0,P|158:82|235:70,1,150.000005722046,2|2,0:0|0:0,0:0:0:0:
352,44,8882,1,2,0:0:0:0:
408,184,9100,2,0,P|346:193|307:168,1,75.0000028610231,2|2,0:0|0:0,0:0:0:0:
148,184,9534,2,0,P|209:197|235:234,1,75.0000028610231,2|2,0:0|0:0,0:0:0:0:
344,296,9969,6,0,P|404:288|452:232,2,112.500004291535,2|2|2,0:0|0:0|0:0,0:0:0:0:
228,296,10839,1,2,0:0:0:0:
128,248,11056,1,2,0:0:0:0:
64,152,11273,2,0,P|56:96|72:52,1,75.0000028610231,2|2,0:0|0:0,0:0:0:0:
160,108,11708,5,8,0:0:0:0:
212,184,11926,1,8,0:0:0:0:
234,92,12143,1,8,0:0:0:0:
283,208,12360,1,10,0:0:0:0:
308,76,12578,1,10,0:0:0:0:
354,233,12795,1,10,0:0:0:0:
380,60,13013,1,8,0:0:0:0:
425,258,13230,1,8,0:0:0:0:
454,44,13447,1,4,0:0:0:0:
454,44,14317,6,0,P|480:152|452:248,1,200
352,308,14969,1,2,0:0:0:0:
352,308,15078,1,2,0:0:0:0:
352,308,15187,6,0,P|300:260|236:276,1,100,2|0,0:0|0:0,0:0:0:0:
112,224,15621,2,0,P|164:272|228:256,1,100,2|0,0:0|0:0,0:0:0:0:
184,196,16056,1,2,0:0:0:0:
44,136,16273,1,0,0:0:0:0:
60,284,16491,1,8,0:0:0:0:
132,48,16708,5,0,0:0:0:0:
132,48,16817,1,0,0:0:0:0:
132,48,16926,2,0,P|224:40|264:60,1,100,2|0,0:0|0:0,0:0:0:0:
424,108,17360,2,0,L|320:116,1,100,2|0,0:0|0:0,0:0:0:0:
255,206,17795,2,0,L|327:202,2,50,2|0|0,0:0|0:0|0:0,0:0:0:0:
124,172,18230,2,0,P|120:240|152:292,1,100,10|0,0:0|0:0,0:0:0:0:
256,308,18665,5,2,0:0:0:0:
304,204,18882,1,0,0:0:0:0:
260,92,19100,2,0,P|200:68|152:96,1,100,2|0,0:0|0:0,0:0:0:0:
48,156,19534,1,2,0:0:0:0:
48,156,19643,1,0,0:0:0:0:
48,156,19752,1,0,0:0:0:0:
144,220,19969,1,8,0:0:0:0:
131,337,20187,1,0,0:0:0:0:
131,337,20295,1,0,0:0:0:0:
131,337,20404,6,0,P|83:326|48:292,1,100,2|0,0:0|0:0,0:0:0:0:
144,220,20839,1,2,0:0:0:0:
261,202,21056,2,0,B|285:166|237:142|261:102,1,100,2|0,0:0|0:0,0:0:0:0:
269,63,21382,1,0,0:0:0:0:
304,35,21491,1,0,0:0:0:0:
348,28,21600,1,0,0:0:0:0:
392,39,21708,1,10,0:0:0:0:
425,68,21817,1,0,0:0:0:0:
435,112,21926,1,0,0:0:0:0:
417,152,22034,1,0,0:0:0:0:
384,184,22143,6,0,P|356:232|368:280,1,75.0000028610231,12|0,0:0|0:0,0:0:0:0:
440,336,22578,2,0,P|468:288|456:240,1,75.0000028610231,2|0,0:0|0:0,0:0:0:0:
384,184,23013,1,2,0:0:0:0:
256,164,23230,2,0,L|164:188,1,75.0000028610231,0|2,0:0|0:0,0:0:0:0:
72,216,23665,1,0,0:0:0:0:
144,48,23882,6,0,P|184:68|212:108,1,75.0000028610231,2|0,0:0|0:0,0:0:0:0:
162,260,24317,2,0,P|142:291|108:308,1,75.0000028610231,2|0,0:0|0:0,0:0:0:0:
72,216,24752,1,2,0:0:0:0:
176,176,24969,2,0,P|224:196|236:232,1,75.0000028610231,0|2,0:0|0:0,0:0:0:0:
276,336,25404,1,0,0:0:0:0:
176,176,25621,5,2,0:0:0:0:
176,176,25839,2,0,P|188:112|212:96,1,75.0000028610231,0|2,0:0|0:0,0:0:0:0:
380,92,26273,2,0,P|368:156|344:172,1,75.0000028610231,0|2,0:0|0:0,0:0:0:0:
288,72,26708,2,0,L|204:52,1,75.0000028610231,0|2,0:0|0:0,0:0:0:0:
364,160,27143,2,0,L|400:172,2,37.5000014305115,0|0|2,0:0|0:0|0:0,0:0:0:0:
448,272,27578,1,0,0:0:0:0:
356,312,27795,1,2,0:0:0:0:
272,212,28013,2,0,L|260:285,2,75.0000028610231,8|2|0,0:0|0:0|0:0,0:0:0:0:
180,128,28665,1,2,0:0:0:0:
68,140,28882,1,8,0:0:0:0:
68,140,28991,1,8,0:0:0:0:
68,140,29100,6,0,P|72:96|108:48,1,75.0000028610231,2|0,0:0|0:0,0:0:0:0:
180,220,29534,2,0,P|176:264|140:312,1,75.0000028610231,2|0,0:0|0:0,0:0:0:0:
180,128,29969,2,0,P|216:96|256:88,1,75.0000028610231,2|0,0:0|0:0,0:0:0:0:
380,124,30404,1,2,0:0:0:0:
256,188,30621,1,0,0:0:0:0:
376,284,30839,6,0,L|464:256,1,75.0000028610231
344,80,31273,1,0,0:0:0:0:
332,196,31491,1,2,0:0:0:0:
216,48,31708,2,0,P|168:56|128:84,1,75.0000028610231,2|0,0:0|0:0,0:0:0:0:
64,224,32143,1,2,0:0:0:0:
172,172,32360,1,0,0:0:0:0:
280,268,32578,6,0,P|252:324|224:340,1,75.0000028610231,2|0,0:0|0:0,0:0:0:0:
172,172,33013,2,0,P|232:144|268:144,1,75.0000028610231,2|0,0:0|0:0,0:0:0:0:
348,239,33448,2,0,P|288:267|252:267,1,75.0000028610231,2|0,0:0|0:0,0:0:0:0:
172,172,33882,1,2,0:0:0:0:
348,239,34100,1,8,0:0:0:0:
224,216,34317,5,0,0:0:0:0:
360,144,34535,1,2,0:0:0:0:
200,80,34752,1,2,0:0:0:0:
268,152,34969,1,2,0:0:0:0:
104,149,35187,6,0,P|144:173|180:169,1,75.0000028610231,2|0,0:0|0:0,0:0:0:0:
268,68,35621,1,8,0:0:0:0:
360,144,35839,1,8,0:0:0:0:
360,144,35947,1,8,0:0:0:0:
360,144,36056,6,0,P|396:184|436:196,1,75.0000028610231,2|0,0:0|0:0,0:0:0:0:
448,316,36491,2,0,P|400:344|348:344,1,75.0000028610231,2|0,0:0|0:0,0:0:0:0:
268,304,36926,1,2,0:0:0:0:
132,288,37143,2,0,L|194:235,1,75.0000028610231,0|2,0:0|0:0,0:0:0:0:
72,148,37578,5,0,0:0:0:0:
189,239,37795,1,2,0:0:0:0:
68,256,38013,1,0,0:0:0:0:
208,116,38230,1,2,0:0:0:0:
340,244,38447,1,0,0:0:0:0:
392,188,38665,2,0,P|348:168|292:188,1,75.0000028610231,2|0,0:0|0:0,0:0:0:0:
228,256,39100,1,2,0:0:0:0:
142,246,39317,6,0,P|154:210|188:180,1,75.0000028610231,8|2,0:0|0:0,0:0:0:0:
262,333,39752,2,0,P|225:340|181:325,1,75.0000028610231,0|2,0:0|0:0,0:0:0:0:
277,186,40187,2,0,P|301:214|310:259,1,75.0000028610231,0|2,0:0|0:0,0:0:0:0:
228,256,40621,1,0,0:0:0:0:
272,100,40839,1,2,0:0:0:0:
180,188,41056,2,0,P|144:212|88:200,1,75.0000028610231,2|2,0:0|0:0,0:0:0:0:
100,72,41491,2,0,L|128:152,1,75.0000028610231,2|2,0:0|0:0,0:0:0:0:
216,296,41926,6,0,P|276:236|256:152,1,150.000005722046,8|8,0:0|0:0,0:0:0:0:
192,88,42578,1,2,0:0:0:0:
320,56,42795,1,8,0:0:0:0:
320,56,42904,1,8,0:0:0:0:
320,56,43013,6,0,L|400:112,1,75.0000028610231,2|2,0:0|0:0,0:0:0:0:
466,252,43447,1,2,0:0:0:0:
307,178,43665,1,2,0:0:0:0:
479,145,43882,1,2,0:0:0:0:
360,273,44100,1,2,0:0:0:0:
256,260,44317,6,0,P|216:256|172:268,1,75.0000028610231,8|0,0:0|0:0,0:0:0:0:
72,296,44752,1,10,0:0:0:0:
224,348,44969,1,10,0:0:0:0:
205,184,45187,1,10,0:0:0:0:
48,104,45404,2,0,P|72:72|152:60,1,89.9999972534181,8|2,0:0|0:0,0:0:0:0:
292,168,45839,2,0,P|248:184|200:184,1,89.9999972534181,8|2,0:0|0:0,0:0:0:0:
264,80,46273,1,0,0:0:0:0:
448,168,46491,6,0,P|440:248|336:304,1,179.999994506836,4|2,0:0|0:0,0:0:0:0:
292,168,47143,2,0,P|184:140|100:196,1,179.999994506836,2|2,0:0|0:0,0:0:0:0:
32,264,47795,1,2,0:0:0:0:
136,328,48013,1,8,0:0:0:0:
168,284,48121,1,8,0:0:0:0:
212,256,48230,2,0,P|256:244|320:292,1,89.9999972534181,10|0,0:0|0:0,0:0:0:0:
252,320,48665,1,0,0:0:0:0:
196,172,48882,6,0,P|204:128|240:92,1,89.9999972534181,2|2,0:0|0:0,0:0:0:0:
304,176,49317,1,8,0:0:0:0:
360,176,49426,1,8,0:0:0:0:
412,156,49534,2,2,P|436:112|428:72,1,89.9999972534181,10|2,0:0|0:0,0:0:0:0:
312,100,49969,6,0,P|268:184|304:268,1,179.999994506836,4|2,0:0|0:0,0:0:0:0:
144,344,50621,2,0,P|188:260|152:176,1,179.999994506836,2|2,0:0|0:0,0:0:0:0:
76,256,51273,1,8,0:0:0:0:
244,328,51491,5,10,0:0:0:0:
88,36,51926,1,10,0:0:0:0:
296,232,52360,1,10,0:0:0:0:
264,64,52795,1,10,0:0:0:0:
264,64,53013,6,0,L|304:72,5,29.9999990844727,8|0|0|0|0|0,0:0|0:0|0:0|0:0|0:0|0:0,0:0:0:0:
324,88,53447,6,0,P|384:128|388:256,1,179.999994506836,2|2,0:0|0:0,0:0:0:0:
236,224,54100,1,2,0:0:0:0:
132,300,54317,2,0,P|157:337|198:353,1,89.9999972534181,10|2,0:0|0:0,0:0:0:0:
284,292,54752,1,8,0:0:0:0:
120,208,54969,1,0,0:0:0:0:
208,88,55187,2,0,P|256:132|276:184,1,89.9999972534181,10|2,0:0|0:0,0:0:0:0:
352,312,55621,5,8,0:0:0:0:
352,204,55839,2,0,P|388:176|448:188,1,89.9999972534181,2|8,0:0|0:0,0:0:0:0:
451,339,56273,2,0,L|416:256,1,89.9999972534181,2|8,0:0|0:0,0:0:0:0:
356,100,56708,1,2,0:0:0:0:
228,80,56926,6,0,P|228:112|260:180,1,89.9999972534181,10|0,0:0|0:0,0:0:0:0:
384,236,57360,2,0,P|352:264|292:272,1,89.9999972534181,10|0,0:0|0:0,0:0:0:0:
144,240,57795,2,0,P|176:212|236:204,1,89.9999972534181,10|0,0:0|0:0,0:0:0:0:
320,160,58230,2,0,P|320:204|300:252,1,89.9999972534181,10|0,0:0|0:0,0:0:0:0:
200,296,58665,5,0,0:0:0:0:
230,266,58773,1,0,0:0:0:0:
270,257,58882,1,0,0:0:0:0:
312,262,58991,1,0,0:0:0:0:
354,261,59099,5,0,0:0:0:0:
393,245,59208,1,0,0:0:0:0:
419,213,59317,1,0,0:0:0:0:
428,172,59425,1,0,0:0:0:0:
416,132,59534,5,0,0:0:0:0:
382,109,59643,1,0,0:0:0:0:
340,110,59751,1,0,0:0:0:0:
300,123,59860,1,0,0:0:0:0:
260,135,59969,5,0,0:0:0:0:
218,133,60078,1,0,0:0:0:0:
180,116,60186,1,0,0:0:0:0:
142,98,60295,1,0,0:0:0:0:
101,103,60404,6,0,P|64:188|180:240,1,209.999993591309,4|2,0:0|0:0,0:0:0:0:
244,188,61056,2,0,P|208:172|128:176,1,104.999996795654,2|0,0:0|0:0,0:0:0:0:
260,300,61491,2,0,P|296:316|376:312,1,104.999996795654,2|0,0:0|0:0,0:0:0:0:
424,192,61926,1,2,0:0:0:0:
336,72,62143,6,0,P|240:40|116:64,1,209.999993591309,4|2,0:0|0:0,0:0:0:0:
60,160,62795,2,0,P|64:207|116:256,1,104.999996795654,2|0,0:0|0:0,0:0:0:0:
244,336,63230,2,0,P|205:257|166:243,1,104.999996795654,2|8,0:0|0:0,0:0:0:0:
60,160,63665,1,0,0:0:0:0:
250,172,63882,2,0,P|222:236|154:252,1,104.999996795654,2|0,0:0|0:0,0:0:0:0:
116,124,64317,6,0,P|148:60|196:40,1,104.999996795654,2|0,0:0|0:0,0:0:0:0:
388,64,64752,2,0,P|356:128|308:148,1,104.999996795654
240,256,65187,2,0,P|289:274|339:262,1,104.999996795654,8|0,0:0|0:0,0:0:0:0:
292,144,65621,6,0,P|248:88|92:112,1,209.999993591309,2|8,0:0|0:0,0:0:0:0:
44,204,66273,1,0,0:0:0:0:
184,184,66491,1,8,0:0:0:0:
184,184,66600,1,0,0:0:0:0:
184,184,66708,1,0,0:0:0:0:
180,304,66926,2,0,P|228:244|288:252,1,104.999996795654,8|0,0:0|0:0,0:0:0:0:
309,168,67360,6,0,P|340:263|268:332,1,209.999993591309,4|8,0:0|0:0,0:0:0:0:
108,284,68013,1,2,0:0:0:0:
108,284,68230,2,0,P|124:208|156:180,1,104.999996795654,2|0,0:0|0:0,0:0:0:0:
256,116,68665,2,0,P|220:72|152:64,1,104.999996795654,2|0,0:0|0:0,0:0:0:0:
88,160,69100,2,4,P|132:232|224:252,2,157.499995193482,2|2|2,0:0|0:0|0:0,0:0:0:0:
204,136,69969,1,0,0:0:0:0:
368,92,70187,2,0,P|348:140|296:160,1,104.999996795654,0|8,0:0|0:0,0:0:0:0:
284,76,70621,1,0,0:0:0:0:
224,232,70839,6,0,P|252:276|316:292,1,104.999996795654,4|0,0:0|0:0,0:0:0:0:
436,236,71273,1,2,0:0:0:0:
320,192,71491,2,0,B|276:216|220:224|220:224|192:272|136:292,1,209.999993591309,2|2,0:0|0:0,0:0:0:0:
36,264,72143,1,10,0:0:0:0:
84,132,72360,1,0,0:0:0:0:
208,96,72578,2,0,P|280:96|336:72,1,104.999996795654,4|0,0:0|0:0,0:0:0:0:
424,40,73013,1,0,0:0:0:0:
476,152,73230,2,0,B|485:207|447:249|447:249|432:304|362:324,1,209.999993591309,0|0,0:0|0:0,0:0:0:0:
256,328,73882,1,8,0:0:0:0:
218,318,73991,1,0,0:0:0:0:
180,308,74100,1,0,0:0:0:0:
142,298,74208,1,0,0:0:0:0:
104,288,74317,6,0,L|112:156,1,104.999996795654,4|0,0:0|0:0,0:0:0:0:
160,72,74752,1,2,0:0:0:0:
264,116,74969,2,0,P|224:168|168:176,1,104.999996795654,0|2,0:0|0:0,0:0:0:0:
236,36,75404,2,0,P|312:44|344:104,1,104.999996795654,0|8,0:0|0:0,0:0:0:0:
368,224,75839,1,0,0:0:0:0:
484,188,76056,6,0,P|452:132|408:112,1,104.999996795654,4|0,0:0|0:0,0:0:0:0:
359,288,76491,1,2,0:0:0:0:
400,356,76708,2,0,P|436:284|416:236,1,104.999996795654,2|0,0:0|0:0,0:0:0:0:
256,304,77143,2,0,L|359:289,1,104.999996795654,2|8,0:0|0:0,0:0:0:0:
236,184,77578,1,0,0:0:0:0:
112,280,77795,5,2,0:0:0:0:
112,280,78013,1,0,0:0:0:0:
96,120,78230,1,2,0:0:0:0:
96,120,78447,1,0,0:0:0:0:
200,48,78665,2,0,P|196:120|220:176,1,104.999996795654,2|0,0:0|0:0,0:0:0:0:
292,272,79100,2,0,P|296:200|272:144,1,104.999996795654,10|0,0:0|0:0,0:0:0:0:
408,28,79534,6,0,P|376:96|416:232,1,209.999993591309,4|0,0:0|0:0,0:0:0:0:
464,324,80187,1,0,0:0:0:0:
359,285,80404,1,8,0:0:0:0:
359,285,80513,1,8,0:0:0:0:
359,285,80621,2,0,P|306:248|246:288,1,104.999996795654,8|8,0:0|0:0,0:0:0:0:
292,348,81056,1,2,0:0:0:0:
271,258,81273,6,0,P|144:232|168:144,1,209.999993591309,4|8,0:0|0:0,0:0:0:0:
268,124,81926,2,0,P|245:185|207:206,1,104.999996795654,2|0,0:0|0:0,0:0:0:0:
164,104,82360,1,2,0:0:0:0:
304,20,82578,1,8,0:0:0:0:
416,128,82795,1,0,0:0:0:0:
432,52,83013,6,0,P|352:80|364:180,2,157.499995193482,2|2|2,0:0|0:0|0:0,0:0:0:0:
380,256,83882,1,2,0:0:0:0:
380,256,83991,1,2,0:0:0:0:
380,256,84100,2,0,P|340:308|272:304,1,104.999996795654,2|8,0:0|0:0,0:0:0:0:
216,224,84534,1,0,0:0:0:0:
47,231,84752,6,0,P|67:283|111:307,1,104.999996795654,4|0,0:0|0:0,0:0:0:0:
224,276,85187,1,8,0:0:0:0:
196,176,85404,2,0,P|180:96|36:100,1,209.999993591309
47,231,86056,2,0,P|95:199|106:146,1,104.999996795654,8|0,0:0|0:0,0:0:0:0:
162,241,86491,5,6,0:0:0:0:
286,268,86708,1,8,0:0:0:0:
348,158,86926,1,10,0:0:0:0:
264,65,87143,1,10,0:0:0:0:
149,116,87360,5,2,0:0:0:0:
154,167,87468,1,0,0:0:0:0:
198,187,87577,1,0,0:0:0:0:
247,170,87686,1,0,0:0:0:0:
297,152,87794,1,2,0:0:0:0:
349,153,87903,1,0,0:0:0:0:
383,190,88012,1,0,0:0:0:0:
380,241,88120,1,0,0:0:0:0:
340,264,88230,6,0,B|285:204|200:384|64:204,1,300.000011444092,14|0,0:0|0:0,0:0:0:0:
