osu file format v14

[General]
AudioFilename: Kimi no Iru Machi OP - Sentimental Love (TV Size).mp3
AudioLeadIn: 1500
PreviewTime: 59752
Countdown: 0
SampleSet: Soft
StackLeniency: 0.7
Mode: 0
LetterboxInBreaks: 0
WidescreenStoryboard: 1

[Editor]
DistanceSpacing: 1
BeatDivisor: 4
GridSize: 4
TimelineZoom: 2

[Metadata]
Title:Sentimental Love (TV Size)
TitleUnicode:センチメンタルラブ (TV Size)
Artist:mimimemeMIMI
ArtistUnicode:みみめめMIMI
Creator:noz1995
Version:Hard
Source:君のいる町
Tags:OP a town where you live Kimi no Iru Machi opening
BeatmapID:711865
BeatmapSetID:319855

[Difficulty]
HPDrainRate:5
CircleSize:4
OverallDifficulty:5
ApproachRate:7
SliderMultiplier:1.6
SliderTickRate:1

[Events]
//Background and Video events
0,0,"Kimi_no_Iru_Machi_OVA.jpg",0,0
//Break Periods
//Storyboard Layer 0 (Background)
//Storyboard Layer 1 (Fail)
//Storyboard Layer 2 (Pass)
//Storyboard Layer 3 (Foreground)
//Storyboard Sound Samples

[TimingPoints]
1274,434.782608695652,4,2,1,35,1,0
1274,-133.333333333333,4,2,1,35,0,0
11708,-133.333333333333,4,2,1,45,0,0
13447,-133.333333333333,4,2,1,35,0,0
15187,-100,4,2,1,65,0,0
21273,-100,4,2,1,25,0,0
22143,-133.333333333333,4,2,1,45,0,0
44752,-111.111111111111,4,2,1,55,0,0
53013,-111.111111111111,4,2,1,25,0,0
53447,-111.111111111111,4,2,1,55,0,0
58665,-111.111111111111,4,2,1,25,0,0
59534,-95.2380952380952,4,2,1,25,0,0
60404,-95.2380952380952,4,2,1,65,0,1
73882,-95.2380952380952,4,2,1,65,0,0
74317,-95.2380952380952,4,2,1,65,0,1
87360,-95.2380952380952,4,2,1,25,0,1
88230,-133.333333333333,4,2,1,45,0,0
89100,-133.333333333333,4,2,1,5,0,0

[Colours]
Combo1 : 0,255,0
Combo2 : 0,0,255
Combo3 : 255,255,0
Combo4 : 255,0,0
Combo5 : 0,255,255

[HitObjects]
96,56,1274,2,0,P|140:36|216:64,1,120.000004577637,2|2,0:0|0:0,0:0:0:0:
276,96,1926,2,0,P|320:116|396:88,1,120.000004577637,2|2,0:0|0:0,0:0:0:0:
144,128,2795,1,2,0:0:0:0:
192,192,3013,6,0,B|232:216|280:172|308:201,1,120.000004577637,2|2,0:0|0:0,0:0:0:0:
340,272,3665,2,0,P|410:301|460:284,2,120.000004577637,2|2|2,0:0|0:0|0:0,0:0:0:0:
307,200,4752,5,2,0:0:0:0:
192,124,5187,2,0,P|248:72|312:72,2,120.000004577637,2|2|2,0:0|0:0|0:0,0:0:0:0:
48,88,6491,2,0,P|48:168|84:220,1,120.000004577637,2|2,0:0|0:0,0:0:0:0:
124,256,7143,1,2,0:0:0:0:
204,260,7360,2,0,B|248:240|260:324|312:300,1,120.000004577637,2|2,0:0|0:0,0:0:0:0:
452,100,8230,6,0,P|432:152|356:200,1,120.000004577637,2|2,0:0|0:0,0:0:0:0:
308,196,8882,1,2,0:0:0:0:
272,124,9100,2,0,P|216:96|144:96,1,120.000004577637,2|2,0:0|0:0,0:0:0:0:
100,148,9752,1,2,0:0:0:0:
112,228,9969,2,0,B|132:284|188:304,2,90.0000034332276,2|2|2,0:0|0:0|0:0,0:0:0:0:
304,288,11056,2,0,P|400:244|412:216,1,120.000004577637,2|2,0:0|0:0,0:0:0:0:
408,140,11708,5,8,0:0:0:0:
408,140,11926,1,8,0:0:0:0:
320,104,12143,1,8,0:0:0:0:
320,104,12360,1,8,0:0:0:0:
276,188,12578,1,8,0:0:0:0:
276,188,12795,1,8,0:0:0:0:
180,152,13013,1,8,0:0:0:0:
180,152,13230,1,8,0:0:0:0:
92,208,13447,6,0,P|152:252|220:244,1,120.000004577637,4|2,0:0|0:0,0:0:0:0:
324,244,14317,1,2,0:0:0:0:
324,244,14752,2,0,P|340:192|340:168,1,60.0000022888184,2|8,0:0|0:0,0:0:0:0:
336,172,15078,1,8,0:0:0:0:
328,160,15187,6,0,B|308:136|268:152|248:120,1,80,8|0,0:0|0:0,0:0:0:0:
268,28,15621,2,0,P|220:32|172:80,2,80,2|0|0,0:0|0:0|0:0,0:0:0:0:
376,48,16273,1,0,0:0:0:0:
456,120,16491,1,10,0:0:0:0:
448,216,16708,1,0,0:0:0:0:
448,228,16817,1,0,0:0:0:0:
448,240,16926,6,0,P|432:288|396:312,1,80
348,192,17360,2,0,P|364:152|404:120,2,80,10|0|0,0:0|0:0|0:0,0:0:0:0:
348,208,17904,2,0,P|336:264|264:312,1,120,0|10,0:0|0:0,0:0:0:0:
240,208,18447,1,8,0:0:0:0:
240,208,18665,6,0,P|200:240|184:296,1,80
145,355,19100,1,10,0:0:0:0:
145,355,19317,2,0,P|116:340|92:284,1,80
88,284,19643,2,0,P|100:220|160:164,1,120,0|10,0:0|0:0,0:0:0:0:
232,108,20187,1,0,0:0:0:0:
244,104,20295,1,0,0:0:0:0:
256,100,20404,6,0,P|304:88|368:104,1,80
452,128,20839,2,0,B|480:184|452:224,1,80,10|0,0:0|0:0,0:0:0:0:
384,284,21273,2,0,L|340:304,7,40
304,288,22143,6,0,P|224:296|168:280,1,120.000004577637,2|2,0:0|0:0,0:0:0:0:
124,84,23013,2,0,B|160:60|200:104|240:80,1,120.000004577637,2|2,0:0|0:0,0:0:0:0:
340,100,23665,1,0,0:0:0:0:
412,36,23882,6,0,P|432:96|420:144,1,90.0000034332276,2|0,0:0|0:0,0:0:0:0:
408,148,24317,2,0,P|436:184|448:220,2,60.0000022888184,2|0|2,0:0|0:0|0:0,0:0:0:0:
308,88,24969,2,0,P|264:92|236:120,1,60.0000022888184,0|2,0:0|0:0,0:0:0:0:
304,188,25404,1,0,0:0:0:0:
380,244,25621,5,2,0:0:0:0:
320,320,25839,1,0,0:0:0:0:
240,260,26056,2,0,P|208:260|164:288,1,60.0000022888184,2|0,0:0|0:0,0:0:0:0:
104,348,26491,2,0,P|136:348|180:320,1,60.0000022888184,2|0,0:0|0:0,0:0:0:0:
148,208,26926,2,0,P|136:184|112:152,1,60.0000022888184,2|0,0:0|0:0,0:0:0:0:
135,63,27360,6,0,P|175:59|215:67,1,60.0000022888184,2|0,0:0|0:0,0:0:0:0:
248,135,27795,1,2,0:0:0:0:
328,83,28013,1,8,0:0:0:0:
268,15,28230,1,2,0:0:0:0:
195,62,28447,1,0,0:0:0:0:
148,136,28665,2,0,P|128:184|124:216,1,60.0000022888184,2|8,0:0|0:0,0:0:0:0:
124,204,28991,1,8,0:0:0:0:
124,216,29100,6,0,B|152:280|192:212|244:280,1,120.000004577637,2|2,0:0|0:0,0:0:0:0:
312,324,29752,1,0,0:0:0:0:
412,320,29969,2,0,P|408:292|388:252,1,60.0000022888184,2|0,0:0|0:0,0:0:0:0:
344,176,30404,1,2,0:0:0:0:
420,112,30621,1,0,0:0:0:0:
344,176,30839,6,0,P|276:176|228:152,1,120.000004577637,2|2,0:0|0:0,0:0:0:0:
148,76,31491,1,0,0:0:0:0:
36,64,31708,2,0,B|36:124|36:124|92:184,1,120.000004577637,2|2,0:0|0:0,0:0:0:0:
184,168,32360,1,0,0:0:0:0:
276,232,32578,6,0,P|312:232|352:220,1,60.0000022888184,2|0,0:0|0:0,0:0:0:0:
436,172,33013,2,0,P|400:136|368:120,1,60.0000022888184,2|0,0:0|0:0,0:0:0:0:
313,56,33447,2,0,P|337:31|368:24,2,60.0000022888184,2|0|2,0:0|0:0|0:0,0:0:0:0:
348,152,34100,1,8,0:0:0:0:
424,220,34317,2,0,P|384:252|352:256,1,60.0000022888184,2|0,0:0|0:0,0:0:0:0:
280,256,34752,1,2,0:0:0:0:
180,264,34969,2,0,P|188:304|220:328,2,60.0000022888184,2|2|2,0:0|0:0|0:0,0:0:0:0:
168,164,35621,1,2,0:0:0:0:
208,80,35839,1,8,0:0:0:0:
208,80,35947,1,8,0:0:0:0:
208,80,36056,6,0,P|264:68|324:92,1,120.000004577637,2|2,0:0|0:0,0:0:0:0:
408,164,36708,2,0,P|372:192|336:196,1,60.0000022888184,0|2,0:0|0:0,0:0:0:0:
260,152,37143,2,0,P|247:181|263:225,1,60.0000022888184,0|2,0:0|0:0,0:0:0:0:
304,292,37578,1,0,0:0:0:0:
392,256,37795,1,2,0:0:0:0:
309,195,38013,2,0,P|280:196|248:211,1,60.0000022888184,0|2,0:0|0:0,0:0:0:0:
144,272,38447,6,0,P|173:271|205:256,1,60.0000022888184,0|2,0:0|0:0,0:0:0:0:
152,176,38882,1,0,0:0:0:0:
236,136,39100,1,2,0:0:0:0:
316,56,39317,2,0,P|272:56|240:76,1,60.0000022888184,8|2,0:0|0:0,0:0:0:0:
156,56,39752,2,0,P|164:108|184:132,1,60.0000022888184,0|2,0:0|0:0,0:0:0:0:
104,184,40187,2,0,P|148:216|176:216,1,60.0000022888184,0|2,0:0|0:0,0:0:0:0:
284,224,40621,2,0,P|240:192|212:192,1,60.0000022888184,0|2,0:0|0:0,0:0:0:0:
212,268,41056,1,0,0:0:0:0:
164,144,41273,1,2,0:0:0:0:
148,48,41491,6,0,P|196:52|216:72,1,60.0000022888184,0|2,0:0|0:0,0:0:0:0:
316,120,41926,2,0,P|268:116|248:96,1,60.0000022888184,8|0,0:0|0:0,0:0:0:0:
300,48,42360,1,8,0:0:0:0:
296,192,42578,1,0,0:0:0:0:
348,268,42795,1,8,0:0:0:0:
348,268,42904,1,0,0:0:0:0:
348,268,43013,6,0,B|292:284|292:284|224:256,1,120.000004577637,2|2,0:0|0:0,0:0:0:0:
168,184,43665,1,0,0:0:0:0:
96,176,43882,2,0,P|108:140|144:120,1,60.0000022888184,2|0,0:0|0:0,0:0:0:0:
244,96,44317,1,10,0:0:0:0:
244,96,44752,5,2,0:0:0:0:
304,227,44969,1,2,0:0:0:0:
168,184,45187,1,2,0:0:0:0:
200,312,45404,2,0,P|163:315|57:252,1,143.999995605469
24,184,46056,2,0,P|64:168|112:192,1,71.9999978027344,8|2,0:0|0:0,0:0:0:0:
168,184,46491,5,4,0:0:0:0:
408,216,46926,1,2,0:0:0:0:
408,216,47143,2,0,P|376:148|284:144,1,143.999995605469
324,216,47795,1,0,0:0:0:0:
256,308,48013,1,2,0:0:0:0:
256,308,48121,1,2,0:0:0:0:
256,308,48230,6,0,P|200:292|176:256,1,71.9999978027344,8|0,0:0|0:0,0:0:0:0:
156,192,48665,1,0,0:0:0:0:
96,140,48882,2,0,P|152:112|184:120,1,71.9999978027344,2|0,0:0|0:0,0:0:0:0:
260,104,49317,1,2,0:0:0:0:
260,104,49426,1,2,0:0:0:0:
260,104,49534,2,0,P|302:101|333:77,1,71.9999978027344,8|0,0:0|0:0,0:0:0:0:
412,28,49969,5,2,0:0:0:0:
412,28,50404,1,2,0:0:0:0:
444,124,50621,2,0,P|448:176|432:216,1,71.9999978027344,2|0,0:0|0:0,0:0:0:0:
348,248,51056,2,0,P|340:204|360:152,1,71.9999978027344,2|0,0:0|0:0,0:0:0:0:
444,124,51491,5,8,0:0:0:0:
248,28,51926,1,8,0:0:0:0:
40,112,52360,1,8,0:0:0:0:
244,212,52795,1,8,0:0:0:0:
244,296,53013,2,0,L|272:316,5,23.9999992675781
300,304,53447,6,0,P|388:284|444:220,1,143.999995605469,2|2,0:0|0:0,0:0:0:0:
480,164,54100,1,2,0:0:0:0:
424,80,54317,2,2,P|372:72|344:104,1,71.9999978027344,8|2,0:0|0:0,0:0:0:0:
228,160,54752,2,2,P|280:168|312:144,1,71.9999978027344,8|2,0:0|0:0,0:0:0:0:
396,148,55187,5,8,0:0:0:0:
104,256,55621,1,2,0:0:0:0:
104,256,55839,2,0,B|58:200|58:200|69:107,2,143.999995605469,2|2|2,0:0|0:0|0:0,0:0:0:0:
204,228,56926,6,0,P|240:172|236:136,1,71.9999978027344,8|2,0:0|0:0,0:0:0:0:
176,76,57360,2,0,P|140:132|144:168,1,71.9999978027344,8|2,0:0|0:0,0:0:0:0:
240,168,57795,2,0,P|288:160|316:116,1,71.9999978027344,8|2,0:0|0:0,0:0:0:0:
316,40,58230,2,0,P|252:56|236:76,1,71.9999978027344,8|2,0:0|0:0,0:0:0:0:
172,156,58665,6,0,L|192:196,3,35.9999989013672
184,236,59100,2,0,L|220:264,3,35.9999989013672,2|2|2|2,0:0|0:0|0:0|0:0,0:0:0:0:
232,296,59534,2,0,L|296:296,3,41.9999987182618,2|2|8|8,0:0|0:0|0:0|0:0,0:0:0:0:
312,320,59969,2,0,L|352:288,3,41.9999987182618,8|8|8|8,0:0|0:0|0:0|0:0,0:0:0:0:
363,258,60404,6,0,B|308:212|432:156|332:88,1,167.999994873047,4|2,0:0|0:0,0:0:0:0:
248,40,61056,2,0,P|180:48|152:88,1,83.9999974365235
68,136,61491,2,0,P|100:160|172:140,1,83.9999974365235,2|8,0:0|0:0,0:0:0:0:
232,128,61926,1,0,0:0:0:0:
128,88,62143,6,0,P|132:172|220:240,1,167.999994873047,4|2,0:0|0:0,0:0:0:0:
304,256,62795,2,0,P|280:312|228:344,1,83.9999974365235,2|0,0:0|0:0,0:0:0:0:
272,188,63230,2,0,P|284:132|328:104,1,83.9999974365235,2|8,0:0|0:0,0:0:0:0:
352,180,63665,1,0,0:0:0:0:
384,256,63882,6,0,P|424:220|432:173,1,83.9999974365235,2|0,0:0|0:0,0:0:0:0:
304,256,64317,2,0,P|264:292|256:352,1,83.9999974365235,2|0,0:0|0:0,0:0:0:0:
344,336,64752,1,2,0:0:0:0:
456,288,64969,1,0,0:0:0:0:
396,204,65187,2,0,P|360:168|340:124,1,83.9999974365235,10|0,0:0|0:0,0:0:0:0:
412,80,65621,2,0,P|300:60|260:108,1,167.999994873047,2|10,0:0|0:0,0:0:0:0:
244,196,66273,1,0,0:0:0:0:
176,276,66491,2,0,L|188:320,2,41.9999987182618,8|0|2,0:0|0:0|0:0,0:0:0:0:
88,200,66926,1,2,0:0:0:0:
156,112,67143,1,0,0:0:0:0:
156,112,67360,6,0,B|224:80|260:184|336:104,1,167.999994873047,4|10,0:0|0:0,0:0:0:0:
408,120,68013,1,0,0:0:0:0:
347,48,68230,2,0,P|321:82|317:138,1,83.9999974365235,2|0,0:0|0:0,0:0:0:0:
404,204,68665,2,0,P|376:256|336:276,1,83.9999974365235,2|0,0:0|0:0,0:0:0:0:
244,300,69100,6,0,P|160:284|116:224,2,125.999996154785,2|2|2,0:0|0:0|0:0,0:0:0:0:
220,192,69969,1,2,0:0:0:0:
160,112,70187,2,0,P|213:91|264:116,1,83.9999974365235,0|10,0:0|0:0,0:0:0:0:
340,140,70621,1,0,0:0:0:0:
340,140,70839,6,0,P|268:196|200:136,1,167.999994873047,2|2,0:0|0:0,0:0:0:0:
212,68,71491,2,0,P|256:100|272:132,1,83.9999974365235,0|2,0:0|0:0,0:0:0:0:
292,264,71926,2,0,P|248:296|192:292,1,83.9999974365235,0|10,0:0|0:0,0:0:0:0:
204,188,72360,5,0,0:0:0:0:
124,108,72578,2,0,P|96:160|128:272,1,167.999994873047,2|2,0:0|0:0,0:0:0:0:
232,292,73230,2,0,P|300:280|324:264,1,83.9999974365235,0|2,0:0|0:0,0:0:0:0:
384,160,73665,2,0,P|332:160|292:176,1,83.9999974365235,0|10,0:0|0:0,0:0:0:0:
292,180,73991,1,2,0:0:0:0:
280,188,74100,1,2,0:0:0:0:
264,192,74208,1,2,0:0:0:0:
248,196,74317,6,0,P|188:188|128:76,1,167.999994873047,6|0,0:0|0:0,0:0:0:0:
224,108,74969,2,0,L|116:272,1,167.999994873047
204,316,75621,1,10,0:0:0:0:
272,248,75839,1,0,0:0:0:0:
283,154,76056,6,0,P|351:199|356:280,1,167.999994873047,2|2,0:0|0:0,0:0:0:0:
272,248,76708,2,2,L|448:148,1,167.999994873047,2|0,0:0|0:0,0:0:0:0:
408,64,77360,1,8,0:0:0:0:
320,104,77578,1,2,0:0:0:0:
232,48,77795,6,0,P|208:96|224:148,1,83.9999974365235,10|2,0:0|0:0,0:0:0:0:
132,188,78230,2,0,P|196:204|236:184,1,83.9999974365235,2|2,0:0|0:0,0:0:0:0:
276,288,78665,2,0,P|292:268|284:188,1,83.9999974365235,2|0,0:0|0:0,0:0:0:0:
356,124,79100,2,0,P|316:112|248:140,1,83.9999974365235,10|2,0:0|0:0,0:0:0:0:
180,116,79534,2,0,P|188:232|236:256,1,167.999994873047,10|0,0:0|0:0,0:0:0:0:
324,248,80187,1,0,0:0:0:0:
292,164,80404,2,0,L|248:168,2,41.9999987182618,2|2|2,0:0|0:0|0:0,0:0:0:0:
336,72,80839,2,0,P|392:56|436:88,1,83.9999974365235
380,136,81273,5,4,0:0:0:0:
240,324,81708,1,8,0:0:0:0:
240,324,81926,2,0,P|220:284|176:268,1,83.9999974365235,2|2,0:0|0:0,0:0:0:0:
60,228,82360,2,0,P|92:276|144:280,1,83.9999974365235,2|10,0:0|0:0,0:0:0:0:
144,204,82795,1,0,0:0:0:0:
216,156,83013,2,0,P|132:116|80:148,2,125.999996154785,2|0|2,0:0|0:0|0:0,0:0:0:0:
264,244,83882,1,2,0:0:0:0:
328,172,84100,1,0,0:0:0:0:
416,240,84317,1,10,0:0:0:0:
404,120,84534,1,0,0:0:0:0:
404,120,84752,6,0,P|320:76|248:128,1,167.999994873047,2|2,0:0|0:0,0:0:0:0:
328,172,85404,1,0,0:0:0:0:
344,292,85621,1,2,0:0:0:0:
256,248,85839,1,0,0:0:0:0:
185,181,86056,2,0,P|160:223|164:276,2,83.9999974365235,10|0|8,0:0|0:0|0:0,0:0:0:0:
272,128,86708,5,8,0:0:0:0:
368,132,86926,1,8,0:0:0:0:
284,48,87143,1,8,0:0:0:0:
176,72,87360,2,0,L|144:108,7,41.9999987182618,2|0|0|0|2|2|2|2,0:0|0:0|0:0|0:0|0:0|0:0|0:0|0:0,0:0:0:0:
112,136,88230,6,0,B|66:141|27:181|52:246|117:271|157:232|162:186,1,240.000009155274,2|0,0:0|0:0,0:0:0:0:
