osu file format v14

[General]
AudioFilename: Kimi no Iru Machi OP - Sentimental Love (TV Size).mp3
AudioLeadIn: 1500
PreviewTime: 59752
Countdown: 0
SampleSet: Soft
StackLeniency: 0.7
Mode: 0
LetterboxInBreaks: 0
WidescreenStoryboard: 1

[Editor]
DistanceSpacing: 1
BeatDivisor: 2
GridSize: 4
TimelineZoom: 1

[Metadata]
Title:Sentimental Love (TV Size)
TitleUnicode:センチメンタルラブ (TV Size)
Artist:mimimemeMIMI
ArtistUnicode:みみめめMIMI
Creator:noz1995
Version:Easy
Source:君のいる町
Tags:OP a town where you live Kimi no Iru Machi opening
BeatmapID:711864
BeatmapSetID:319855

[Difficulty]
HPDrainRate:2
CircleSize:3
OverallDifficulty:2
ApproachRate:3
SliderMultiplier:0.8
SliderTickRate:1

[Events]
//Background and Video events
0,0,"Kimi_no_Iru_Machi_OVA.jpg",0,0
//Break Periods
//Storyboard Layer 0 (Background)
//Storyboard Layer 1 (Fail)
//Storyboard Layer 2 (Pass)
//Storyboard Layer 3 (Foreground)
//Storyboard Sound Samples

[TimingPoints]
1274,434.782608695652,4,2,1,35,1,0
11708,-100,4,2,1,45,0,0
13447,-100,4,2,1,35,0,0
15187,-100,4,2,1,65,0,0
22143,-100,4,2,1,45,0,0
44752,-100,4,2,1,55,0,0
60404,-100,4,2,1,65,0,1
73882,-100,4,2,1,65,0,0
74317,-100,4,2,1,65,0,1
88230,-100,4,2,1,45,0,0
89100,-100,4,2,1,5,0,0

[Colours]
Combo1 : 0,255,0
Combo2 : 0,0,255
Combo3 : 255,255,0
Combo4 : 255,0,0
Combo5 : 0,255,255

[HitObjects]
180,164,1274,6,0,P|127:114|128:48,2,120,2|2|2,0:0|0:0|0:0,0:0:0:0:
256,192,3013,2,0,P|328:204|364:252,2,120,2|2|2,0:0|0:0|0:0,0:0:0:0:
192,240,4752,5,2,0:0:0:0:
116,220,5187,2,0,P|88:172|100:120,2,80,2|2|2,0:0|0:0|0:0,0:0:0:0:
168,160,6491,2,0,P|256:108|320:160,1,160,2|2,0:0|0:0,0:0:0:0:
244,188,7795,1,2,0:0:0:0:
324,204,8230,6,0,P|376:152|348:68,1,160,2|2,0:0|0:0,0:0:0:0:
299,129,9534,1,2,0:0:0:0:
244,188,9969,2,0,P|220:252|256:324,2,120,2|2|2,0:0|0:0|0:0,0:0:0:0:
312,144,11708,5,8,0:0:0:0:
248,96,12143,1,8,0:0:0:0:
181,140,12578,1,8,0:0:0:0:
205,215,13013,1,8,0:0:0:0:
284,215,13447,1,4,0:0:0:0:
428,284,14317,6,0,L|348:208,1,80
308,176,15187,6,0,P|313:128|292:84,1,80,4|0,0:0|0:0,0:0:0:0:
232,144,16056,1,0,0:0:0:0:
184,212,16491,1,8,0:0:0:0:
248,264,16926,2,0,P|288:276|344:256,2,80,2|0|2,0:0|0:0|0:0,0:0:0:0:
164,280,18230,1,10,0:0:0:0:
96,240,18665,6,0,P|88:184|112:136,1,80,2|2,0:0|0:0,0:0:0:0:
160,112,19534,1,2,0:0:0:0:
232,148,19969,1,10,0:0:0:0:
304,116,20404,1,0,0:0:0:0:
380,144,20839,1,2,0:0:0:0:
396,224,21273,2,0,P|380:264|336:280,1,80,2|8,0:0|0:0,0:0:0:0:
268,288,22143,5,4,0:0:0:0:
200,240,22578,2,0,P|172:180|240:120,1,160,2|2,0:0|0:0,0:0:0:0:
308,96,23882,2,0,P|356:76|408:20,2,120,2|2|2,0:0|0:0|0:0,0:0:0:0:
296,176,25621,6,0,P|324:220|372:228,1,80,2|2,0:0|0:0,0:0:0:0:
428,228,26491,2,0,P|404:288|376:304,1,80,2|2,0:0|0:0,0:0:0:0:
316,308,27360,1,2,0:0:0:0:
236,304,27795,2,0,B|200:288|200:288|164:220,1,80,2|10,0:0|0:0,0:0:0:0:
168,172,28665,1,2,0:0:0:0:
228,120,29100,6,0,P|276:116|336:132,2,80,2|2|2,0:0|0:0|0:0,0:0:0:0:
144,140,30404,1,2,0:0:0:0:
88,200,30839,1,2,0:0:0:0:
92,280,31273,2,0,P|140:304|196:292,1,80,2|2,0:0|0:0,0:0:0:0:
236,260,32143,1,2,0:0:0:0:
308,304,32578,6,0,P|408:288|424:208,1,160,2|2,0:0|0:0,0:0:0:0:
348,236,33882,2,0,B|312:212|312:212|312:148,1,80,0|10,0:0|0:0,0:0:0:0:
276,104,34752,1,2,0:0:0:0:
192,96,35187,2,0,P|132:104|104:144,1,80,2|2,0:0|0:0,0:0:0:0:
88,192,36056,6,0,P|124:288|196:284,1,160,6|2,0:0|0:0,0:0:0:0:
248,272,37360,1,2,0:0:0:0:
328,248,37795,2,0,P|356:212|336:152,1,80,2|0,0:0|0:0,0:0:0:0:
300,116,38665,1,2,0:0:0:0:
220,120,39100,1,2,0:0:0:0:
140,112,39534,6,0,B|137:146|148:165|168:183|168:183|162:215|172:240|204:256,1,160,2|2,0:0|0:0,0:0:0:0:
276,272,40839,2,0,L|356:196,1,80,2|2,0:0|0:0,0:0:0:0:
414,216,41708,2,0,L|478:280,2,80,2|2|2,0:0|0:0|0:0,0:0:0:0:
412,136,43013,5,2,0:0:0:0:
340,100,43447,1,2,0:0:0:0:
260,88,43882,1,2,0:0:0:0:
180,104,44317,1,2,0:0:0:0:
112,152,44752,2,0,P|88:228|104:284,2,120,6|2|2,0:0|0:0|0:0,0:0:0:0:
180,104,46491,6,0,P|104:68|60:88,2,120,4|2|2,0:0|0:0|0:0,0:0:0:0:
232,168,48230,2,0,P|316:200|364:176,2,120,2|2|2,0:0|0:0|0:0,0:0:0:0:
180,104,49969,5,4,0:0:0:0:
64,124,50621,2,0,P|108:164|120:208,1,80,2|2,0:0|0:0,0:0:0:0:
124,264,51491,2,0,P|172:244|196:200,1,80,8|8,0:0|0:0,0:0:0:0:
272,212,52360,2,0,P|256:172|192:140,1,80,8|8,0:0|0:0,0:0:0:0:
296,52,53447,6,0,B|332:28|368:132|424:84,2,120,4|2|8,0:0|0:0|0:0,0:0:0:0:
216,52,55187,2,0,B|180:28|144:132|88:84,2,120,4|2|2,0:0|0:0|0:0,0:0:0:0:
292,80,56926,5,8,0:0:0:0:
300,160,57360,1,8,0:0:0:0:
224,188,57795,1,8,0:0:0:0:
264,256,58230,1,8,0:0:0:0:
196,300,58665,2,0,P|264:336|340:280,1,160,2|2,0:0|0:0,0:0:0:0:
264,256,59969,1,2,0:0:0:0:
192,220,60404,6,0,P|140:244|124:336,2,120,4|2|8,0:0|0:0|0:0,0:0:0:0:
266,187,62143,2,0,P|268:248|224:296,2,120,6|0|8,0:0|0:0|0:0,0:0:0:0:
196,144,63882,5,2,0:0:0:0:
160,72,64317,2,0,P|120:120|120:164,2,80,2|2|10,0:0|0:0|0:0,0:0:0:0:
240,72,65621,2,0,B|272:96|277:122|279:142|279:142|296:172|360:192,1,160,2|10,0:0|0:0,0:0:0:0:
420,200,66926,1,0,0:0:0:0:
384,272,67360,6,0,P|340:288|284:292,1,80,4|8,0:0|0:0,0:0:0:0:
244,240,68230,1,2,0:0:0:0:
160,240,68665,1,2,0:0:0:0:
88,200,69100,2,0,P|76:160|124:76,2,120,10|2|10,0:0|0:0|0:0,0:0:0:0:
160,240,70839,5,0,0:0:0:0:
156,156,71273,2,0,P|204:128|264:136,2,80,2|2|10,0:0|0:0|0:0,0:0:0:0:
88,200,72578,1,0,0:0:0:0:
40,268,73013,2,0,P|60:312|116:336,2,80,2|2|10,0:0|0:0|0:0,0:0:0:0:
8,192,74317,5,4,0:0:0:0:
52,120,74752,2,0,P|124:92|212:144,1,160,2|10,0:0|0:0,0:0:0:0:
244,192,76056,1,0,0:0:0:0:
296,128,76491,2,0,P|367:96|440:124,1,160,2|10,0:0|0:0,0:0:0:0:
500,184,77795,5,2,0:0:0:0:
424,220,78230,2,0,B|392:244|416:268|360:304,1,80,8|0,0:0|0:0,0:0:0:0:
308,320,79100,1,10,0:0:0:0:
236,276,79534,2,0,B|212:232|248:168|208:116,1,160,2|0,0:0|0:0,0:0:0:0:
144,76,80839,5,10,0:0:0:0:
100,144,81273,2,0,P|52:168|0:152,2,80,4|8|2,0:0|0:0|0:0,0:0:0:0:
44,88,82578,1,10,0:0:0:0:
112,44,83013,2,0,P|192:28|260:40,2,120,2|2|10,0:0|0:0|0:0,0:0:0:0:
44,88,84752,6,0,P|47:173|100:208,2,120,2|2|10,0:0|0:0|0:0,0:0:0:0:
116,128,86491,2,8,P|144:164|144:232,1,80,10|8,0:0|0:0,0:0:0:0:
156,276,87360,1,2,0:0:0:0:
236,280,87795,1,2,0:0:0:0:
304,240,88230,2,0,B|335:237|357:214|346:163|295:152|272:174|270:206,1,160
