osu file format v12

[General]
AudioFilename: mimimememimi.mp3
AudioLeadIn: 0
PreviewTime: 87941
Countdown: 0
SampleSet: Soft
StackLeniency: 0.7
Mode: 0
LetterboxInBreaks: 1
WidescreenStoryboard: 1

[Editor]
Bookmarks: 108593,272289
DistanceSpacing: 1.2
BeatDivisor: 4
GridSize: 4

[Metadata]
Title:Sentimental Love
TitleUnicode:センチメンタルラブ
Artist:mimimemeMIMI
ArtistUnicode:みみめめMIMI
Creator:[ Yuki ]
Version:Hard
Source:Kimi no Iru Machi
Tags:
BeatmapID:342930
BeatmapSetID:137135

[Difficulty]
HPDrainRate:5
CircleSize:4
OverallDifficulty:6
ApproachRate:7
SliderMultiplier:1.4
SliderTickRate:1

[Events]
//Background and Video events
0,0,"BG.jpg",0,0
//Break Periods
2,116837,129650
2,212289,224215
2,234898,240519
//Storyboard Layer 0 (Background)
//Storyboard Layer 1 (Fail)
//Storyboard Layer 2 (Pass)
//Storyboard Layer 3 (Foreground)
//Storyboard Sound Samples
//Background Colour Transformations
3,100,163,162,255

[TimingPoints]
985,434.782608695652,4,2,1,40,1,0
4463,-200,4,2,1,40,0,0
4680,-100,4,2,1,40,0,0
4898,-133.333333333333,4,2,1,40,0,0
5115,-100,4,2,1,40,0,0
5767,-80,4,2,1,40,0,0
5984,-100,4,2,1,40,0,0
38376,-100,4,2,2,60,0,0
38484,-100,4,2,1,60,0,0
43593,-100,4,2,2,60,0,0
43702,-100,4,2,1,60,0,0
71419,-100,4,2,2,65,0,0
71528,-100,4,2,1,70,0,0
74898,-100,4,2,1,65,0,0
79898,-100,4,2,1,45,0,0
81311,-100,4,2,1,65,0,0
88811,-100,4,2,1,75,0,1
92289,-200,4,2,1,75,0,1
92506,-100,4,2,1,75,0,1
92724,-133.333333333333,4,2,1,75,0,1
92941,-100,4,2,1,75,0,1
93593,-80,4,2,1,75,0,1
93811,-100,4,2,1,75,0,1
106202,-200,4,2,1,75,0,1
106419,-100,4,2,1,75,0,1
106637,-133.333333333333,4,2,1,75,0,1
106854,-100,4,2,1,75,0,1
107506,-80,4,2,1,75,0,1
107724,-100,4,2,1,75,0,1
116637,-100,4,2,1,65,0,0
130550,-100,4,2,1,60,0,0
137506,-100,4,2,2,60,0,0
137615,-100,4,2,1,60,0,0
153158,-100,4,2,1,65,0,0
167071,-100,4,2,1,70,0,1
194898,-100,4,2,1,50,0,0
197071,-100,4,2,1,60,0,0
208811,-100,4,2,1,40,0,0
211854,-100,4,2,1,5,0,0
225115,-100,4,2,1,40,0,0
231202,-133.333333333333,4,2,1,40,0,0
234463,-100,4,2,1,5,0,0
241419,-100,4,2,1,60,0,0
248811,-100,4,2,1,70,0,1
252289,-200,4,2,1,70,0,1
252506,-100,4,2,1,70,0,1
252724,-133.333333333333,4,2,1,70,0,1
252941,-100,4,2,1,70,0,1
253593,-80,4,2,1,70,0,1
253811,-100,4,2,1,70,0,1
262724,-100,4,2,1,65,0,0

[Colours]
Combo1 : 0,255,128
Combo2 : 128,255,255
Combo3 : 255,128,255

[HitObjects]
320,80,550,1,2,0:0:0:0:
320,80,985,6,0,P|348:142|410:170,1,140,2|0,0:0|0:0,0:0:0:0:
404,88,1637,2,0,L|305:186,1,140
168,284,2506,1,0,0:0:0:0:
168,284,2724,6,0,L|168:144,1,140,2|0,0:0|0:0,0:0:0:0:
232,200,3376,2,0,P|168:224|103:200,1,140
252,280,4245,1,0,0:0:0:0:
252,280,4463,6,0,L|288:280,1,35,2|0,0:0|0:0,0:0:0:0:
352,228,4898,6,0,L|352:176,1,52.5000020027161
292,116,5332,6,0,L|220:116,1,70,2|0,0:0|0:0,0:0:0:0:
164,176,5767,6,0,L|164:264,1,87.5
236,308,6202,6,0,L|376:308,1,140,2|0,0:0|0:0,0:0:0:0:
456,340,6854,2,0,P|464:304|456:272,1,70
376,124,7506,2,0,P|368:160|376:192,1,70
452,160,7941,6,0,L|312:160,1,140,2|0,0:0|0:0,0:0:0:0:
240,116,8593,1,0,0:0:0:0:
232,200,8811,2,0,P|206:265|144:287,1,140,2|0,0:0|0:0,0:0:0:0:
144,204,9463,1,0,0:0:0:0:
144,204,9680,6,0,L|40:204,2,105,2|0|0,0:0|0:0|0:0,0:0:0:0:
116,124,10550,2,0,L|44:124,2,70,0|0|2,0:0|0:0|0:0,0:0:0:0:
200,136,11202,1,0,0:0:0:0:
200,136,11419,6,0,L|224:203,1,70
295,244,11854,2,0,L|362:219,1,70
384,139,12289,2,0,L|359:71,1,70
288,29,12724,2,0,L|220:53,1,70
140,72,13158,5,4,0:0:0:0:
140,72,14028,2,0,P|84:156|140:236,1,210.000008010865
308,320,15550,5,8,0:0:0:0:
308,320,15658,1,8,0:0:0:0:
308,320,15767,2,0,P|373:294|395:232,1,140,4|8,0:0|0:0,0:0:0:0:
312,236,16419,2,0,L|312:96,1,140
256,32,17071,1,8,0:0:0:0:
200,96,17289,5,0,0:0:0:0:
200,96,17398,1,0,0:0:0:0:
200,96,17506,2,0,P|208:129|200:163,1,70,2|0,0:0|0:0,0:0:0:0:
100,252,17941,2,0,P|91:218|99:184,1,70,8|0,0:0|0:0,0:0:0:0:
200,272,18376,2,0,P|208:305|200:339,1,70,2|0,0:0|0:0,0:0:0:0:
124,308,18811,2,0,L|264:308,1,140,8|2,0:0|0:0,0:0:0:0:
320,244,19463,5,0,0:0:0:0:
380,304,19680,1,8,0:0:0:0:
408,224,19898,2,0,P|416:154|470:117,1,140
492,200,20550,1,8,0:0:0:0:
352,108,20767,5,0,0:0:0:0:
352,108,20876,1,0,0:0:0:0:
352,108,20984,2,0,P|331:80|300:64,1,70,2|0,0:0|0:0,0:0:0:0:
176,88,21419,2,0,P|197:116|228:132,1,70,8|0,0:0|0:0,0:0:0:0:
304,168,21854,6,0,L|331:191,3,35,2|0|0|0,0:0|0:0|0:0|0:0,0:0:0:0:
320,224,22289,2,0,L|332:257,3,35
316,288,22724,6,0,P|251:315|192:287,1,140,4|8,0:0|0:0,0:0:0:0:
108,184,23376,2,0,P|172:156|231:184,1,140
280,116,24028,1,8,0:0:0:0:
316,192,24245,5,0,0:0:0:0:
316,192,24354,1,0,0:0:0:0:
316,192,24463,2,0,P|384:204|456:192,2,140,2|8|2,0:0|0:0|0:0,0:0:0:0:
232,184,25550,2,0,L|160:184,1,70,0|8,0:0|0:0,0:0:0:0:
100,124,25984,5,0,0:0:0:0:
100,124,26093,1,0,0:0:0:0:
100,124,26202,2,0,P|72:188|100:247,1,140,2|8,0:0|0:0,0:0:0:0:
184,260,26854,2,0,L|324:260,1,140
400,224,27506,1,8,0:0:0:0:
328,180,27724,5,0,0:0:0:0:
328,180,27832,1,0,0:0:0:0:
328,180,27941,2,0,P|336:110|390:73,1,140,2|8,0:0|0:0,0:0:0:0:
412,156,28593,1,0,0:0:0:0:
328,180,28811,6,0,L|292:180,3,35,2|0|0|0,0:0|0:0|0:0|0:0,0:0:0:0:
268,156,29245,2,0,L|234:143,3,35
204,128,29680,6,0,P|171:120|137:128,1,70,2|0,0:0|0:0,0:0:0:0:
64,240,30115,2,0,P|97:248|131:240,1,70
208,204,30550,1,2,0:0:0:0:
284,240,30767,2,0,L|356:240,2,70
208,204,31419,2,0,P|180:140|208:81,1,140,2|0,0:0|0:0,0:0:0:0:
268,140,32071,2,0,L|408:140,1,140
468,200,32724,5,0,0:0:0:0:
408,260,32941,2,0,L|336:260,1,70
260,228,33376,2,0,P|252:261|260:295,2,70
324,172,34028,2,0,P|332:139|324:105,1,70,2|0,0:0|0:0,0:0:0:0:
248,140,34463,2,0,L|176:140,1,70
108,92,34898,5,2,0:0:0:0:
100,176,35115,2,0,P|82:204|52:223,2,70,0|0|8,0:0|0:0|0:0,0:0:0:0:
20,148,35767,1,0,0:0:0:0:
148,248,35984,2,0,L|218:248,1,70
320,344,36419,5,0,0:0:0:0:
320,344,36528,1,0,0:0:0:0:
320,344,36637,2,0,L|248:344,1,70,2|0,0:0|0:0,0:0:0:0:
352,248,37071,2,0,L|422:248,1,70
480,308,37506,2,0,P|508:244|480:184,1,140,2|0,0:0|0:0,0:0:0:0:
436,112,38158,5,0,0:0:0:0:
388,180,38376,2,0,P|320:192|248:180,1,140,6|0,0:0|0:0,0:0:0:0:
196,116,39028,1,0,0:0:0:0:
152,188,39245,2,0,L|152:260,1,70,2|0,0:0|0:0,0:0:0:0:
220,308,39680,1,0,0:0:0:0:
276,244,39898,2,0,P|344:232|416:244,2,140
220,308,40984,6,0,L|148:308,1,70,4|0,0:0|0:0,0:0:0:0:
76,272,41419,2,0,P|68:305|76:339,2,70,0|8|0,0:0|0:0|0:0,0:0:0:0:
144,224,42071,1,0,0:0:0:0:
212,176,42289,2,0,P|220:143|212:109,1,70,0|4,0:0|0:0,0:0:0:0:
336,84,42724,2,0,P|328:51|336:17,2,70,0|4|0,0:0|0:0|0:0,0:0:0:0:
412,52,43376,5,0,0:0:0:0:
412,52,43484,1,0,0:0:0:0:
412,52,43593,2,0,P|440:116|412:176,2,140,6|0|2,0:0|0:0|0:0,0:0:0:0:
352,112,44680,1,0,0:0:0:0:
412,176,44898,2,0,L|412:248,1,70
476,300,45332,2,0,P|412:328|352:300,1,140,2|0,0:0|0:0,0:0:0:0:
268,318,45984,5,0,0:0:0:0:
222,248,46202,1,2,0:0:0:0:
279,181,46419,1,0,0:0:0:0:
355,214,46637,1,0,0:0:0:0:
352,300,46854,2,0,P|360:333|352:367,1,70,8|0,0:0|0:0,0:0:0:0:
476,300,47289,2,0,P|468:267|476:233,1,70
355,145,47724,2,0,P|363:178|355:212,1,70
279,181,48158,6,0,L|207:181,2,70
355,145,48811,1,2,0:0:0:0:
344,60,49028,1,0,0:0:0:0:
260,48,49245,1,0,0:0:0:0:
220,124,49463,1,8,0:0:0:0:
279,181,49680,2,0,P|287:214|279:248,2,70,0|4|0,0:0|0:0|0:0,0:0:0:0:
200,216,50332,5,8,0:0:0:0:
200,216,50441,1,0,0:0:0:0:
200,216,50550,2,0,P|192:249|200:283,1,70,4|0,0:0|0:0,0:0:0:0:
264,340,50984,2,0,P|200:368|140:340,1,140,8|2,0:0|0:0,0:0:0:0:
112,260,51637,2,0,L|112:188,1,70,0|8,0:0|0:0,0:0:0:0:
60,124,52071,5,0,0:0:0:0:
144,116,52289,2,0,B|165:82|207:92|252:110|275:68,1,140,0|8,0:0|0:0,0:0:0:0:
204,24,52941,2,0,P|199:93|246:140,1,140
320,180,53593,1,8,0:0:0:0:
248,224,53811,2,0,P|220:288|248:348,1,140
308,288,54463,2,0,L|168:288,1,140,8|0,0:0|0:0,0:0:0:0:
88,320,55115,6,0,P|80:287|88:253,1,70,0|8,0:0|0:0,0:0:0:0:
160,208,55550,2,0,P|216:166|222:100,2,140,2|2|0,0:0|0:0|0:0,0:0:0:0:
140,124,56637,2,0,L|114:98,2,35
272,216,57071,6,0,P|340:228|412:216,2,140,8|2|8,0:0|0:0|0:0,0:0:0:0:
64,328,58376,2,0,P|132:316|204:328,1,140,0|8,0:0|0:0,0:0:0:0:
412,216,59245,2,0,P|344:228|272:216,1,140,2|8,0:0|0:0,0:0:0:0:
220,152,59898,5,0,0:0:0:0:
184,228,60115,2,0,P|156:292|184:352,1,140,0|8,0:0|0:0,0:0:0:0:
244,292,60767,2,0,L|384:292,1,140,2|0,0:0|0:0,0:0:0:0:
460,324,61419,2,0,P|468:291|460:257,1,70,8|0,0:0|0:0,0:0:0:0:
384,144,61854,2,0,P|376:177|384:211,1,70
460,180,62289,5,8,0:0:0:0:
460,180,62506,2,0,P|468:147|460:113,1,70,2|0,0:0|0:0,0:0:0:0:
392,64,62941,2,0,L|320:64,1,70,2|8,0:0|0:0,0:0:0:0:
256,116,63376,1,0,0:0:0:0:
176,140,63593,2,0,L|108:115,1,70
200,216,64028,2,0,L|175:283,1,70,8|0,0:0|0:0,0:0:0:0:
280,196,64463,6,0,L|420:196,1,140,0|8,0:0|0:0,0:0:0:0:
440,280,65115,2,0,L|300:280,1,140
220,248,65767,1,8,0:0:0:0:
220,332,65984,2,0,P|154:306|132:244,1,140,2|0,0:0|0:0,0:0:0:0:
176,172,66637,1,8,0:0:0:0:
260,172,66854,6,0,P|288:154|307:124,2,70
228,96,67506,2,0,L|177:45,1,70,8|0,0:0|0:0,0:0:0:0:
260,172,67941,1,2,0:0:0:0:
260,172,68158,2,0,L|310:222,1,70,0|8,0:0|0:0,0:0:0:0:
340,300,68593,2,0,P|368:282|387:252,2,70
268,256,69245,5,8,0:0:0:0:
264,340,69463,2,0,P|198:314|176:252,1,140,2|0,0:0|0:0,0:0:0:0:
168,168,70115,1,8,0:0:0:0:
248,196,70332,2,0,P|313:170|335:108,1,140,2|0,0:0|0:0,0:0:0:0:
252,112,70984,1,8,0:0:0:0:
252,112,71202,1,0,0:0:0:0:
172,84,71419,6,0,L|100:84,1,70,6|0,0:0|0:0,0:0:0:0:
76,164,71854,2,0,L|4:164,2,70,8|0|2,0:0|0:0|0:0,0:0:0:0:
120,236,72506,1,0,0:0:0:0:
120,236,72724,2,0,L|260:236,1,140
316,172,73376,5,0,0:0:0:0:
316,172,73593,1,0,0:0:0:0:
372,236,73811,2,0,P|344:300|372:360,1,140,2|0,0:0|0:0,0:0:0:0:
432,300,74463,1,0,0:0:0:0:
432,300,74680,1,0,0:0:0:0:
460,220,74898,6,0,P|434:154|372:132,1,140,4|0,0:0|0:0,0:0:0:0:
376,216,75550,2,0,L|236:216,1,140,2|0,0:0|0:0,0:0:0:0:
172,160,76202,1,0,0:0:0:0:
144,240,76419,5,0,0:0:0:0:
144,240,76528,1,0,0:0:0:0:
144,240,76637,2,0,P|169:305|231:327,1,140,4|0,0:0|0:0,0:0:0:0:
232,244,77289,2,0,L|372:244,1,140
397,239,77832,1,0,0:0:0:0:
419,225,77941,1,4,0:0:0:0:
433,203,78050,1,0,0:0:0:0:
437,177,78158,1,0,0:0:0:0:
430,152,78267,1,0,0:0:0:0:
416,132,78376,6,0,P|351:106|304:53,1,140,4|0,0:0|0:0,0:0:0:0:
240,108,79028,2,0,L|240:248,1,140
168,292,79680,1,0,0:0:0:0:
168,292,79898,5,4,0:0:0:0:
320,220,80332,1,4,0:0:0:0:
172,140,80767,1,4,0:0:0:0:
320,60,81202,1,4,0:0:0:0:
320,60,81419,6,0,L|346:86,3,35,2|0|0|0,0:0|0:0|0:0|0:0,0:0:0:0:
344,120,81854,2,0,L|344:192,1,70,4|0,0:0|0:0,0:0:0:0:
380,264,82289,2,0,P|347:272|313:264,1,70,8|0,0:0|0:0,0:0:0:0:
236,228,82724,5,2,0:0:0:0:
236,228,82941,1,0,0:0:0:0:
152,220,83159,1,8,0:0:0:0:
152,220,83376,1,0,0:0:0:0:
76,256,83593,1,2,0:0:0:0:
76,256,83810,1,0,0:0:0:0:
32,184,84028,6,0,P|24:151|32:117,1,70,8|0,0:0|0:0,0:0:0:0:
104,156,84463,2,0,L|176:156,2,70,0|0|8,0:0|0:0|0:0,0:0:0:0:
32,116,85115,1,0,0:0:0:0:
104,76,85332,6,0,L|244:76,3,140,8|8|8|8,0:0|0:0|0:0|0:0,0:0:0:0:
320,40,86854,1,2,0:0:0:0:
364,112,87071,6,0,L|389:137,3,35,2|0|0|0,0:0|0:0|0:0|0:0,0:0:0:0:
372,168,87506,2,0,L|392:197,3,35,2|0|0|0,0:0|0:0|0:0|0:0,0:0:0:0:
372,224,87941,6,0,L|387:256,3,35,2|0|0|0,0:0|0:0|0:0|0:0,0:0:0:0:
360,280,88376,2,0,L|369:314,3,35,2|0|0|0,0:0|0:0|0:0|0:0,0:0:0:0:
344,340,88811,6,0,P|280:368|220:340,1,140,4|0,0:0|0:0,0:0:0:0:
136,332,89463,2,0,P|128:262|74:224,1,140
56,308,90115,1,0,0:0:0:0:
56,308,90332,1,0,0:0:0:0:
136,332,90550,6,0,P|144:262|198:224,1,140
216,308,91202,2,0,L|94:238,1,140
112,156,91854,1,0,0:0:0:0:
112,156,92071,1,0,0:0:0:0:
180,92,92289,6,0,L|216:92,1,35
292,164,92724,6,0,L|240:164,1,52.5000020027161
144,236,93158,6,0,L|216:236,1,70
328,308,93593,6,0,L|240:308,1,87.5
144,236,94028,6,0,P|102:179|36:174,1,140
60,92,94680,2,0,L|132:92,1,70
160,108,95006,2,0,L|232:108,1,70
260,124,95332,5,0,0:0:0:0:
336,88,95550,1,0,0:0:0:0:
332,172,95767,2,0,P|340:205|332:239,1,70
304,260,96093,2,0,L|304:294,1,35
136,320,96637,6,0,P|103:328|69:320,1,70
112,248,97071,2,0,P|145:240|179:248,1,70
224,320,97506,2,0,P|272:336|324:320,2,105
272,252,98376,2,0,L|272:180,2,70
356,240,99028,5,0,0:0:0:0:
356,240,99245,2,0,L|356:100,1,140
420,156,99898,2,0,P|356:184|296:156,1,140
232,100,100550,1,0,0:0:0:0:
232,100,100767,1,0,0:0:0:0:
208,180,100984,6,0,P|182:245|120:267,1,140
124,184,101637,2,0,P|172:234|166:300,1,140
244,332,102289,6,0,L|280:332,3,35
308,312,102724,2,0,P|372:284|432:312,1,140
308,312,103376,2,0,P|300:242|246:204,1,140
228,288,104028,1,0,0:0:0:0:
228,288,104245,1,0,0:0:0:0:
168,228,104463,6,0,P|176:158|230:120,1,140
312,120,105115,2,0,L|452:120,1,140
504,188,105767,1,0,0:0:0:0:
504,188,105984,1,0,0:0:0:0:
448,244,106202,6,0,L|412:244,1,35
424,172,106637,6,0,L|372:172,1,52.5000020027161
396,100,107071,6,0,L|324:100,1,70
368,28,107506,6,0,L|280:28,1,87.5
240,104,107941,6,0,P|198:161|132:166,1,140
156,84,108593,1,0,0:0:0:0:
72,104,108811,2,0,L|36:104,2,35
240,104,109245,6,0,L|312:104,1,70
372,44,109680,2,0,P|400:108|372:168,1,140
428,232,110332,1,0,0:0:0:0:
344,248,110550,2,0,L|204:248,1,140
132,204,111202,5,0,0:0:0:0:
208,168,111419,2,0,L|312:168,2,105
236,88,112289,2,0,L|308:88,2,70
152,100,112941,1,0,0:0:0:0:
208,168,113158,6,0,P|236:232|208:292,1,140
148,232,113811,2,0,L|288:232,1,140
364,200,114463,2,0,P|372:233|364:267,1,70
292,312,114898,5,0,0:0:0:0:
212,284,115115,1,0,0:0:0:0:
212,284,115332,1,0,0:0:0:0:
140,328,115550,1,0,0:0:0:0:
72,276,115767,2,0,L|32:276,2,35
100,196,116202,2,0,L|60:196,3,35
32,184,116637,5,0,0:0:0:0:
252,268,130550,6,0,L|288:330,1,70
175,288,130984,2,0,L|112:324,1,70
155,212,131419,1,0,0:0:0:0:
155,212,131637,1,0,0:0:0:0:
231,191,131854,2,0,L|293:155,1,70
336,228,132289,6,0,P|400:256|460:228,1,140
400,168,132941,2,0,P|336:140|276:168,1,140
248,248,133593,1,0,0:0:0:0:
192,184,133811,2,0,P|122:175|64:137,1,140
132,88,134463,6,0,P|165:96|199:88,1,70
260,28,134898,2,0,P|292:37|318:61,1,70
392,24,135332,2,0,P|405:54|403:89,1,70
352,156,135767,2,0,P|381:172|416:173,1,70
280,120,136202,2,0,P|272:153|280:187,1,70
236,260,136637,1,0,0:0:0:0:
236,260,136745,1,0,0:0:0:0:
236,260,136854,1,0,0:0:0:0:
176,320,137071,6,0,P|144:333|110:331,1,70
124,248,137506,2,0,P|90:250|58:236,1,70
108,168,137941,2,0,P|75:158|49:134,1,70
172,48,138376,2,0,P|140:63|120:91,1,70
196,128,138811,2,0,P|211:159|239:179,1,70
284,108,139245,6,0,L|424:108,1,140
424,108,139898,1,0,0:0:0:0:
368,44,140115,2,0,P|340:108|368:168,1,140
300,220,140767,2,0,P|236:192|176:220,1,140
236,280,141419,5,0,0:0:0:0:
236,280,141637,1,0,0:0:0:0:
316,304,141854,1,0,0:0:0:0:
316,304,142072,1,0,0:0:0:0:
380,248,142289,2,0,P|413:256|447:248,1,70
412,172,142724,1,0,0:0:0:0:
412,172,142941,2,0,P|344:160|301:107,1,140
384,88,143593,5,0,0:0:0:0:
384,88,143702,1,0,0:0:0:0:
384,88,143811,1,0,0:0:0:0:
252,168,144028,2,0,L|180:168,1,70,0|0,0:0|0:0,0:0:0:0:
124,104,144463,2,0,P|96:168|124:228,1,140
124,228,145115,1,0,0:0:0:0:
252,168,145332,1,0,0:0:0:0:
252,168,145550,6,0,L|180:168,1,70,0|0,0:0|0:0,0:0:0:0:
100,168,145984,2,0,P|128:236|192:244,1,140
272,244,146637,1,0,0:0:0:0:
228,316,146854,2,0,B|276:344|324:316|324:316|364:316,1,140
372,232,147506,6,0,L|444:232,1,70,0|0,0:0|0:0,0:0:0:0:
325,156,147941,2,0,L|360:96,1,70,0|0,0:0|0:0,0:0:0:0:
445,95,148376,2,0,L|480:156,1,70,0|0,0:0|0:0,0:0:0:0:
372,232,148811,2,0,L|337:292,1,70,0|0,0:0|0:0,0:0:0:0:
208,264,149245,2,0,L|142:287,1,70,0|0,0:0|0:0,0:0:0:0:
68,248,149680,1,0,0:0:0:0:
132,192,149898,2,0,P|120:124|67:81,2,140
192,252,150984,6,0,L|332:252,1,140
396,196,151637,1,0,0:0:0:0:
316,168,151854,1,0,0:0:0:0:
316,168,152071,2,0,P|263:124|252:57,1,140
336,76,152724,6,0,L|372:76,3,35
412,64,153158,2,0,P|440:128|412:188,1,140
332,216,153811,2,0,L|192:216,1,140
120,172,154463,1,0,0:0:0:0:
192,128,154680,5,0,0:0:0:0:
192,128,154789,1,0,0:0:0:0:
192,128,154898,2,0,L|332:128,1,140
392,68,155550,2,0,P|420:132|392:192,1,140
364,212,156093,1,0,0:0:0:0:
364,212,156202,1,0,0:0:0:0:
404,288,156419,5,0,0:0:0:0:
404,288,156528,1,0,0:0:0:0:
404,288,156637,2,0,B|377:317|337:300|296:275|266:312,1,140
200,348,157289,2,0,P|131:354|76:314,1,140
152,276,157941,1,0,0:0:0:0:
152,276,158158,5,0,0:0:0:0:
364,212,158593,1,0,0:0:0:0:
184,80,159028,1,0,0:0:0:0:
184,80,159463,6,0,L|256:80,1,70
328,120,159898,1,0,0:0:0:0:
184,164,160115,2,0,L|254:164,1,70
328,204,160550,5,0,0:0:0:0:
328,204,160767,1,0,0:0:0:0:
256,248,160984,1,0,0:0:0:0:
256,248,161201,1,0,0:0:0:0:
172,244,161419,1,0,0:0:0:0:
172,244,161636,1,0,0:0:0:0:
104,192,161854,1,0,0:0:0:0:
104,192,162071,1,0,0:0:0:0:
96,276,162289,5,0,0:0:0:0:
96,276,162506,2,0,P|147:320|214:312,1,140
284,264,163158,2,0,L|356:264,1,70
348,180,163593,2,0,P|417:172|455:118,1,140
296,64,164463,2,0,P|226:71|188:126,1,140
272,148,165115,1,0,0:0:0:0:
208,204,165332,6,0,L|172:210,3,35
140,224,165767,2,0,L|119:253,3,35,0|0|0|0,3:0|0:0|0:0|0:0,0:0:0:0:
128,288,166202,6,0,L|134:323,3,35,0|0|0|0,3:0|0:0|0:0|0:0,0:0:0:0:
168,336,166637,2,0,L|197:356,3,35,0|0|0|0,3:0|0:0|0:0|0:0,0:0:0:0:
232,348,167071,6,0,P|301:340|339:286,1,140
255,267,167724,2,0,P|216:212|148:205,1,140
172,288,168376,2,0,P|139:296|105:288,1,70
68,212,168811,6,0,P|40:148|68:88,1,140
128,148,169463,2,0,P|176:100|244:105,1,140
204,180,170115,1,0,0:0:0:0:
204,180,170332,1,0,0:0:0:0:
288,256,170550,6,0,P|321:264|355:256,1,70,0|0,0:0|0:0,0:0:0:0:
357,121,170984,2,0,P|333:146|324:180,1,70,0|0,0:0|0:0,0:0:0:0:
408,184,171419,2,0,P|436:120|408:60,1,140
240,60,172289,6,0,P|212:124|240:184,1,140
300,244,172941,1,0,0:0:0:0:
220,268,173158,2,0,L|184:268,2,35
284,324,173593,2,0,L|356:324,1,70
440,324,174028,6,0,P|468:260|440:200,1,140
356,200,174680,1,0,0:0:0:0:
356,200,174898,2,0,L|216:200,1,140
144,156,175550,1,0,0:0:0:0:
60,140,175767,2,0,P|85:91|130:69,2,105
88,220,176637,2,0,P|78:252|54:278,2,70
4,208,177289,5,0,0:0:0:0:
4,208,177506,2,0,L|125:278,1,140
172,348,178158,2,0,P|236:320|296:348,1,140
360,292,178811,1,0,0:0:0:0:
360,292,179028,5,0,0:0:0:0:
356,208,179245,2,0,P|290:182|268:120,1,140
188,92,179898,2,0,L|188:232,1,140
264,268,180550,5,0,0:0:0:0:
264,268,180658,1,0,0:0:0:0:
264,268,180767,1,0,0:0:0:0:
264,268,180876,1,0,0:0:0:0:
264,268,180984,2,0,P|289:202|351:180,1,140
412,240,181637,2,0,P|440:176|412:116,1,140
328,100,182289,2,0,P|296:90|270:66,1,70
200,112,182724,6,0,P|243:164|311:175,1,140
392,152,183376,2,0,P|420:216|392:276,1,140
332,216,184028,1,0,0:0:0:0:
332,216,184245,1,0,0:0:0:0:
268,272,184463,6,0,P|235:264|201:272,1,70
272,144,184898,2,0,P|281:176|305:202,1,70
156,200,185332,2,0,P|179:175|189:141,1,70
104,132,185767,1,0,0:0:0:0:
104,132,186202,6,0,P|67:191|86:254,1,140
152,308,186854,1,0,0:0:0:0:
228,271,187071,2,0,P|264:214|245:149,1,140
176,200,187724,1,0,0:0:0:0:
176,200,187941,2,0,L|314:219,2,140
376,68,189245,5,0,0:0:0:0:
376,68,189680,2,0,L|428:158,2,105
300,108,190550,2,0,L|300:144,2,35
224,68,190984,2,0,L|188:130,1,70
120,176,191419,6,0,L|120:316,1,140
200,288,192071,2,0,L|340:288,1,140
416,320,192724,2,0,P|424:287|416:253,1,70,0|0,0:0|0:0,0:0:0:0:
348,204,193158,5,0,0:0:0:0:
304,132,193376,1,0,0:0:0:0:
304,132,193593,1,0,0:0:0:0:
220,136,193811,1,0,0:0:0:0:
264,208,194028,2,0,P|200:236|140:208,1,140
108,192,194571,2,0,L|72:192,3,35
256,192,195006,12,0,196637,0:0:0:0:
80,128,197071,6,0,L|116:190,1,70
172,252,197506,6,0,L|172:288,2,35
232,192,197941,1,0,0:0:0:0:
312,168,198158,1,0,0:0:0:0:
312,168,198267,1,0,0:0:0:0:
312,168,198376,2,0,P|345:158|370:134,1,70
300,88,198811,2,0,P|269:71|234:70,1,70
176,132,199245,6,0,P|143:140|109:132,2,70
144,56,199898,1,0,0:0:0:0:
144,56,200006,1,0,0:0:0:0:
144,56,200115,2,0,L|144:196,1,140
88,260,200767,1,0,0:0:0:0:
168,288,200984,6,0,L|203:294,3,35
236,284,201419,2,0,L|271:277,3,35
292,252,201854,6,0,P|325:243|359:252,1,70
375,367,202289,2,0,P|346:349|328:320,1,70
320,176,202724,2,0,P|299:148|268:132,1,70
248,212,203158,1,0,0:0:0:0:
184,156,203376,1,0,0:0:0:0:
184,156,203484,1,0,0:0:0:0:
184,156,203593,2,0,P|158:90|96:68,1,140
100,152,204245,6,0,L|100:224,1,70
128,244,204571,2,0,L|128:316,1,70
100,336,204898,1,0,0:0:0:0:
236,240,205332,6,0,L|271:179,1,70
317,106,205767,1,0,0:0:0:0:
338,271,205984,6,0,L|337:201,1,70
341,115,206419,1,0,0:0:0:0:
232,132,206637,6,0,P|166:106|144:44,1,140
128,212,207506,2,0,P|193:237|215:299,1,140
384,292,208376,1,0,0:0:0:0:
296,172,208593,1,0,0:0:0:0:
296,172,208702,1,0,0:0:0:0:
296,172,208811,1,0,0:0:0:0:
256,192,208919,12,0,211854,0:0:0:0:
160,128,225115,6,0,P|132:192|160:252,1,140
232,296,225767,1,0,0:0:0:0:
304,252,225985,1,0,0:0:0:0:
304,252,226094,1,0,0:0:0:0:
304,252,226202,2,0,P|332:188|304:128,1,140
200,128,226854,6,0,P|172:192|200:252,1,140
272,296,227506,1,0,0:0:0:0:
344,252,227724,2,0,P|372:188|344:128,1,140
272,84,228376,1,0,0:0:0:0:
200,128,228593,2,0,L|128:128,2,70
276,168,229245,1,0,0:0:0:0:
276,168,229463,2,0,L|326:218,1,70
276,168,230984,5,0,0:0:0:0:
276,168,231202,2,0,L|352:244,1,105.000004005432
256,192,231745,12,0,234463,0:0:0:0:
380,136,241419,5,0,0:0:0:0:
380,136,241854,2,0,P|370:168|346:194,1,70
312,204,242180,2,0,L|295:233,1,35
128,260,242724,2,0,L|200:260,1,70
128,336,243158,2,0,L|200:336,1,70
272,296,243593,6,0,P|320:276|339:228,2,105
256,212,244463,2,0,P|223:202|197:178,1,70
268,132,244898,2,0,P|240:111|224:80,1,70
308,64,245332,5,0,0:0:0:0:
308,64,245550,1,0,0:0:0:0:
352,136,245767,1,0,0:0:0:0:
352,136,245984,1,0,0:0:0:0:
324,216,246202,1,0,0:0:0:0:
324,216,246419,1,0,0:0:0:0:
240,228,246637,1,0,0:0:0:0:
240,228,246854,1,0,0:0:0:0:
180,288,247071,6,0,P|116:260|56:288,1,140
116,348,247724,2,0,L|116:244,1,105
100,212,248158,2,0,L|100:176,5,35
112,136,248811,6,0,P|176:108|236:136,1,140
300,192,249463,2,0,P|236:220|176:192,1,140
236,136,250115,2,0,P|264:118|283:88,1,70,0|0,0:0|0:0,0:0:0:0:
204,60,250550,6,0,L|302:158,1,140
276,292,251202,2,0,L|177:193,1,140
104,152,251854,1,0,0:0:0:0:
104,152,252071,1,0,0:0:0:0:
48,220,252289,6,0,L|48:256,1,35
120,244,252724,6,0,L|137:292,1,52.5000020027161
200,248,253158,6,0,L|246:303,1,70
276,224,253593,6,0,L|352:268,1,87.5
336,172,254028,6,0,L|473:196,1,140
504,276,254680,1,0,0:0:0:0:
424,304,254898,2,0,L|388:297,2,35
504,276,255332,2,0,L|504:204,1,70
428,168,255767,6,0,P|402:102|340:80,1,140
344,164,256419,1,0,0:0:0:0:
344,164,256637,2,0,L|204:164,1,140
148,100,257289,1,0,0:0:0:0:
88,160,257506,2,0,P|71:212|87:259,2,105
152,212,258376,2,0,L|224:212,2,70
76,248,259028,5,0,0:0:0:0:
152,284,259245,2,0,L|292:284,1,140
376,284,259898,2,0,P|404:220|376:160,1,140
320,224,260550,2,0,L|248:224,1,70
184,172,260984,5,0,0:0:0:0:
120,116,261202,1,0,0:0:0:0:
120,116,261419,1,0,0:0:0:0:
48,160,261637,1,0,0:0:0:0:
72,240,261854,2,0,L|62:274,2,35
156,252,262289,2,0,L|165:286,3,35
204,304,262724,6,0,P|265:332|327:304,2,140,0|0|0,0:0|0:0|0:0,0:0:0:0:
264,244,263811,2,0,L|264:172,1,70
336,76,264245,1,0,0:0:0:0:
336,76,264354,1,0,0:0:0:0:
336,76,264462,2,0,P|363:137|335:199,1,140
264,244,265115,1,0,0:0:0:0:
188,208,265332,2,0,P|160:146|188:84,1,140
248,144,265984,5,0,0:0:0:0:
248,144,266202,2,0,L|320:144,2,70
188,208,266854,2,0,P|124:236|64:208,1,140
124,148,267506,1,0,0:0:0:0:
188,92,267724,1,0,0:0:0:0:
188,92,267832,1,0,0:0:0:0:
188,92,267941,2,0,L|255:67,1,70
304,136,268376,2,0,L|376:136,1,70
428,200,268811,6,0,L|428:236,3,35
400,256,269245,2,0,L|387:289,3,35
348,304,269680,2,0,L|208:304,2,140
312,228,270767,2,0,L|240:228,1,70
160,236,271201,1,0,0:0:0:0:
160,236,271310,1,0,0:0:0:0:
160,236,271419,2,0,P|185:170|248:152,1,140
308,88,272071,1,0,0:0:0:0:
308,88,272289,2,0,P|336:149|308:211,1,140
248,152,272940,5,0,0:0:0:0:
192,88,273158,2,0,L|120:88,2,70
248,152,273810,2,0,L|388:152,1,140
472,148,274462,1,0,0:0:0:0:
436,224,274680,1,0,0:0:0:0:
436,224,274788,1,0,0:0:0:0:
436,224,274898,2,0,P|418:252|388:271,1,70
336,336,275332,2,0,P|303:344|269:336,1,70
208,276,275767,6,0,L|176:258,3,35
172,224,276202,2,0,L|148:196,3,35
156,156,276637,5,0,0:0:0:0:
