osu file format v14

[General]
AudioFilename: MimimemeMIMI - CANDY MAGIC.mp3
AudioLeadIn: 0
PreviewTime: 51263
Countdown: 0
SampleSet: Normal
StackLeniency: 0.7
Mode: 1
LetterboxInBreaks: 0
WidescreenStoryboard: 0

[Editor]
DistanceSpacing: 1.2
BeatDivisor: 4
GridSize: 32
TimelineZoom: 1

[Metadata]
Title:CANDY MAGIC
TitleUnicode:CANDY MAGIC
Artist:mimimemeMIMI
ArtistUnicode:みみめめMIMI
Creator:newyams99
Version:Oni
Source:山田くんと7人の魔女
Tags:yamada kun and the seven witches yamajo ending ed Yamada-kun to 7-nin no Majo yuka takao yuki
BeatmapID:706729
BeatmapSetID:317208

[Difficulty]
HPDrainRate:5
CircleSize:2
OverallDifficulty:5
ApproachRate:5
SliderMultiplier:1.4
SliderTickRate:1

[Events]
//Background and Video events
0,0,"Yamada-kun and the 7 Witches.jpg",0,0
//Break Periods
//Storyboard Layer 0 (Background)
//Storyboard Layer 1 (Fail)
//Storyboard Layer 2 (Pass)
//Storyboard Layer 3 (Foreground)
//Storyboard Sound Samples

[TimingPoints]
1388,375,4,1,0,100,1,0
1388,-100,4,1,0,40,0,0
7388,-100,4,1,0,70,0,0
22388,-100,4,1,0,40,0,0
33638,-100,4,1,0,70,0,0
52388,-100,4,1,0,70,0,1
81263,-100,4,1,0,70,0,0
82200,-100,4,1,0,50,0,0
83138,600,4,1,0,40,1,0
83138,-62.5,4,1,0,40,0,0
83738,612.244897959184,4,1,0,30,1,0
83738,-61.3496932515337,4,1,0,30,0,0
84350,681.818181818182,4,1,0,20,1,0
84350,-54.9450549450549,4,1,0,20,0,0

[HitObjects]
256,192,1388,5,2,0:0:0:0:
256,192,1763,1,0,0:0:0:0:
256,192,2138,1,2,0:0:0:0:
256,192,2513,1,0,0:0:0:0:
256,192,2888,1,2,0:0:0:0:
256,192,3638,1,0,0:0:0:0:
256,192,4388,1,2,0:0:0:0:
256,192,4763,1,0,0:0:0:0:
256,192,5138,1,2,0:0:0:0:
256,192,5513,1,0,0:0:0:0:
256,192,5888,1,2,0:0:0:0:
256,192,6638,1,2,0:0:0:0:
256,192,7013,1,0,0:0:0:0:
256,192,7388,1,0,0:0:0:0:
256,192,7575,1,2,0:0:0:0:
256,192,7763,1,0,0:0:0:0:
256,192,7950,1,0,0:0:0:0:
256,192,8138,1,2,0:0:0:0:
256,192,8325,1,0,0:0:0:0:
256,192,8513,1,0,0:0:0:0:
256,192,8700,1,2,0:0:0:0:
256,192,8888,1,4,0:0:0:0:
256,192,9075,1,4,0:0:0:0:
256,192,9263,1,4,0:0:0:0:
256,192,9638,1,0,0:0:0:0:
256,192,9825,1,2,0:0:0:0:
256,192,10013,1,0,0:0:0:0:
256,192,10200,1,2,0:0:0:0:
256,192,10388,1,4,0:0:0:0:
256,192,10763,1,2,0:0:0:0:
256,192,10950,1,0,0:0:0:0:
256,192,11138,1,0,0:0:0:0:
256,192,11325,1,0,0:0:0:0:
256,192,11513,1,2,0:0:0:0:
256,192,11888,1,0,0:0:0:0:
256,192,12263,1,2,0:0:0:0:
256,192,12638,1,0,0:0:0:0:
256,192,12825,1,0,0:0:0:0:
256,192,12919,1,0,0:0:0:0:
256,192,13013,1,2,0:0:0:0:
256,192,13200,1,2,0:0:0:0:
256,192,13388,1,0,0:0:0:0:
256,192,13763,1,2,0:0:0:0:
256,192,13950,1,0,0:0:0:0:
256,192,14138,1,0,0:0:0:0:
256,192,14325,1,2,0:0:0:0:
256,192,14419,1,2,0:0:0:0:
256,192,14513,1,0,0:0:0:0:
256,192,14888,1,0,0:0:0:0:
256,192,15263,1,0,0:0:0:0:
256,192,15450,1,2,0:0:0:0:
256,192,15638,1,0,0:0:0:0:
256,192,15825,1,0,0:0:0:0:
256,192,16013,1,2,0:0:0:0:
256,192,16106,1,0,0:0:0:0:
256,192,16200,1,0,0:0:0:0:
256,192,16388,1,6,0:0:0:0:
256,192,16575,1,0,0:0:0:0:
256,192,16763,1,0,0:0:0:0:
256,192,16950,1,6,0:0:0:0:
256,192,17138,1,0,0:0:0:0:
256,192,17325,1,0,0:0:0:0:
256,192,17513,1,6,0:0:0:0:
256,192,17888,1,0,0:0:0:0:
256,192,18075,1,6,0:0:0:0:
256,192,18263,1,0,0:0:0:0:
256,192,18450,1,0,0:0:0:0:
256,192,18638,1,6,0:0:0:0:
256,192,18825,1,0,0:0:0:0:
256,192,18919,1,0,0:0:0:0:
256,192,19013,1,2,0:0:0:0:
256,192,19388,1,4,0:0:0:0:
256,192,19575,1,0,0:0:0:0:
256,192,19763,1,0,0:0:0:0:
256,192,19950,1,0,0:0:0:0:
256,192,20138,1,2,0:0:0:0:
256,192,20325,1,0,0:0:0:0:
256,192,20513,1,0,0:0:0:0:
256,192,20700,1,0,0:0:0:0:
256,192,20888,1,2,0:0:0:0:
256,192,21075,1,0,0:0:0:0:
256,192,21263,1,0,0:0:0:0:
256,192,21450,1,0,0:0:0:0:
256,192,21638,1,0,0:0:0:0:
256,192,21731,1,0,0:0:0:0:
256,192,21825,1,2,0:0:0:0:
256,192,21919,1,2,0:0:0:0:
256,192,22013,1,0,0:0:0:0:
256,192,22106,1,2,0:0:0:0:
256,192,22200,1,2,0:0:0:0:
256,192,22294,1,2,0:0:0:0:
256,192,22388,1,0,0:0:0:0:
256,192,23138,1,0,0:0:0:0:
256,192,23888,1,0,0:0:0:0:
256,192,24263,1,2,0:0:0:0:
256,192,24638,1,0,0:0:0:0:
256,192,25388,1,0,0:0:0:0:
256,192,26138,1,0,0:0:0:0:
256,192,26888,1,0,0:0:0:0:
256,192,27263,1,2,0:0:0:0:
256,192,27638,1,0,0:0:0:0:
256,192,28388,1,2,0:0:0:0:
256,192,28950,1,0,0:0:0:0:
256,192,29138,1,0,0:0:0:0:
256,192,29513,1,2,0:0:0:0:
256,192,29888,1,2,0:0:0:0:
256,192,30450,1,0,0:0:0:0:
256,192,30638,1,2,0:0:0:0:
256,192,31013,1,0,0:0:0:0:
256,192,31388,1,2,0:0:0:0:
256,192,32138,1,2,0:0:0:0:
256,192,32888,1,0,0:0:0:0:
256,192,33075,1,2,0:0:0:0:
256,192,33263,1,2,0:0:0:0:
256,192,33356,1,2,0:0:0:0:
256,192,33450,1,2,0:0:0:0:
256,192,33638,1,4,0:0:0:0:
256,192,33825,1,4,0:0:0:0:
256,192,34200,1,0,0:0:0:0:
256,192,34294,1,0,0:0:0:0:
256,192,34388,1,2,0:0:0:0:
256,192,34575,1,0,0:0:0:0:
256,192,34950,1,2,0:0:0:0:
256,192,35325,1,2,0:0:0:0:
256,192,35419,1,2,0:0:0:0:
256,192,35513,1,0,0:0:0:0:
256,192,35700,1,2,0:0:0:0:
256,192,35888,1,0,0:0:0:0:
256,192,36075,1,0,0:0:0:0:
256,192,36450,1,2,0:0:0:0:
256,192,36825,1,0,0:0:0:0:
256,192,36919,1,0,0:0:0:0:
256,192,37013,1,2,0:0:0:0:
256,192,37200,1,2,0:0:0:0:
256,192,37388,1,0,0:0:0:0:
256,192,37763,1,0,0:0:0:0:
256,192,37951,1,2,0:0:0:0:
256,192,38325,1,0,0:0:0:0:
256,192,38513,1,2,0:0:0:0:
256,192,38700,1,0,0:0:0:0:
256,192,38794,1,0,0:0:0:0:
256,192,38888,1,2,0:0:0:0:
256,192,39263,1,2,0:0:0:0:
256,192,39450,1,2,0:0:0:0:
256,192,39638,1,0,0:0:0:0:
256,192,39825,1,0,0:0:0:0:
256,192,40013,1,2,0:0:0:0:
256,192,40200,1,0,0:0:0:0:
256,192,40294,1,0,0:0:0:0:
256,192,40388,1,2,0:0:0:0:
256,192,40763,1,0,0:0:0:0:
256,192,40950,1,2,0:0:0:0:
256,192,41138,1,0,0:0:0:0:
256,192,41513,1,2,0:0:0:0:
256,192,41700,1,0,0:0:0:0:
256,192,41888,1,2,0:0:0:0:
256,192,42263,1,0,0:0:0:0:
256,192,42450,1,2,0:0:0:0:
256,192,42638,1,0,0:0:0:0:
256,192,42825,1,0,0:0:0:0:
256,192,43013,1,2,0:0:0:0:
256,192,43388,1,2,0:0:0:0:
256,192,43575,1,0,0:0:0:0:
256,192,43763,1,0,0:0:0:0:
256,192,43950,1,2,0:0:0:0:
256,192,44138,1,0,0:0:0:0:
256,192,44325,1,0,0:0:0:0:
256,192,44513,1,2,0:0:0:0:
256,192,44700,1,0,0:0:0:0:
256,192,44794,1,0,0:0:0:0:
256,192,44888,1,2,0:0:0:0:
256,192,45263,1,2,0:0:0:0:
256,192,45450,1,0,0:0:0:0:
256,192,45544,1,0,0:0:0:0:
256,192,45638,1,2,0:0:0:0:
256,192,45825,1,0,0:0:0:0:
256,192,45919,1,0,0:0:0:0:
256,192,46013,1,2,0:0:0:0:
256,192,46106,1,0,0:0:0:0:
256,192,46200,1,0,0:0:0:0:
256,192,46294,1,0,0:0:0:0:
256,192,46388,1,2,0:0:0:0:
256,192,47138,1,2,0:0:0:0:
256,192,47700,1,2,0:0:0:0:
256,192,47888,1,0,0:0:0:0:
256,192,48263,1,0,0:0:0:0:
256,192,48638,1,2,0:0:0:0:
256,192,48825,1,2,0:0:0:0:
256,192,49013,1,0,0:0:0:0:
256,192,49200,1,0,0:0:0:0:
256,192,49388,1,2,0:0:0:0:
256,192,49763,1,0,0:0:0:0:
256,192,50138,1,2,0:0:0:0:
256,192,50513,1,0,0:0:0:0:
256,192,50888,1,6,0:0:0:0:
256,192,51075,1,6,0:0:0:0:
256,192,51263,1,0,0:0:0:0:
256,192,51450,1,0,0:0:0:0:
256,192,51638,1,2,0:0:0:0:
256,192,51731,1,2,0:0:0:0:
256,192,51825,1,0,0:0:0:0:
256,192,51919,1,0,0:0:0:0:
256,192,52013,1,2,0:0:0:0:
256,192,52106,1,0,0:0:0:0:
256,192,52200,1,0,0:0:0:0:
256,192,52294,1,0,0:0:0:0:
256,192,52388,1,2,0:0:0:0:
256,192,52763,1,2,0:0:0:0:
256,192,52950,1,2,0:0:0:0:
256,192,53138,1,0,0:0:0:0:
256,192,53325,1,0,0:0:0:0:
256,192,53419,1,0,0:0:0:0:
256,192,53513,1,2,0:0:0:0:
256,192,53700,1,0,0:0:0:0:
256,192,53888,1,2,0:0:0:0:
256,192,54263,1,0,0:0:0:0:
256,192,54450,1,0,0:0:0:0:
256,192,54638,1,2,0:0:0:0:
256,192,54825,1,0,0:0:0:0:
256,192,54919,1,0,0:0:0:0:
256,192,55013,1,2,0:0:0:0:
256,192,55200,1,2,0:0:0:0:
256,192,55388,1,0,0:0:0:0:
256,192,55763,1,2,0:0:0:0:
256,192,55950,1,2,0:0:0:0:
256,192,56138,1,0,0:0:0:0:
256,192,56325,1,0,0:0:0:0:
256,192,56419,1,0,0:0:0:0:
256,192,56513,1,2,0:0:0:0:
256,192,56700,1,0,0:0:0:0:
256,192,56794,1,0,0:0:0:0:
256,192,56888,1,2,0:0:0:0:
256,192,57263,1,0,0:0:0:0:
256,192,57450,1,2,0:0:0:0:
256,192,57638,1,2,0:0:0:0:
256,192,57825,1,0,0:0:0:0:
256,192,57919,1,0,0:0:0:0:
256,192,58013,1,2,0:0:0:0:
256,192,58201,1,2,0:0:0:0:
256,192,58388,1,0,0:0:0:0:
256,192,58763,1,2,0:0:0:0:
256,192,58950,1,0,0:0:0:0:
256,192,59044,1,0,0:0:0:0:
256,192,59138,1,0,0:0:0:0:
256,192,59325,1,0,0:0:0:0:
256,192,59513,1,2,0:0:0:0:
256,192,59700,1,0,0:0:0:0:
256,192,59794,1,0,0:0:0:0:
256,192,59888,1,2,0:0:0:0:
256,192,60263,1,2,0:0:0:0:
256,192,60450,1,0,0:0:0:0:
256,192,60638,1,2,0:0:0:0:
256,192,60825,1,0,0:0:0:0:
256,192,60919,1,0,0:0:0:0:
256,192,61013,1,2,0:0:0:0:
256,192,61200,1,0,0:0:0:0:
256,192,61575,1,2,0:0:0:0:
256,192,61763,1,0,0:0:0:0:
256,192,62138,1,0,0:0:0:0:
256,192,62513,1,0,0:0:0:0:
256,192,62888,1,2,0:0:0:0:
256,192,63263,1,2,0:0:0:0:
256,192,63388,1,0,0:0:0:0:
256,192,63513,1,0,0:0:0:0:
256,192,63638,1,2,0:0:0:0:
256,192,63763,1,0,0:0:0:0:
256,192,63888,1,0,0:0:0:0:
256,192,64013,1,2,0:0:0:0:
256,192,64138,1,0,0:0:0:0:
256,192,64263,1,0,0:0:0:0:
256,192,64388,1,6,0:0:0:0:
256,192,64763,1,0,0:0:0:0:
256,192,64950,1,0,0:0:0:0:
256,192,65138,1,2,0:0:0:0:
256,192,65325,1,0,0:0:0:0:
256,192,65513,1,0,0:0:0:0:
256,192,65700,1,0,0:0:0:0:
256,192,65794,1,0,0:0:0:0:
256,192,65888,1,2,0:0:0:0:
256,192,66263,1,2,0:0:0:0:
256,192,66356,1,2,0:0:0:0:
256,192,66450,1,0,0:0:0:0:
256,192,66544,1,0,0:0:0:0:
256,192,66638,1,2,0:0:0:0:
256,192,66825,1,0,0:0:0:0:
256,192,67013,1,2,0:0:0:0:
256,192,67200,1,0,0:0:0:0:
256,192,67294,1,0,0:0:0:0:
256,192,67388,1,2,0:0:0:0:
256,192,67763,1,0,0:0:0:0:
256,192,68138,1,6,0:0:0:0:
256,192,68513,1,0,0:0:0:0:
256,192,68888,1,6,0:0:0:0:
256,192,69263,1,2,0:0:0:0:
256,192,69450,1,2,0:0:0:0:
256,192,69638,1,0,0:0:0:0:
256,192,69825,1,0,0:0:0:0:
256,192,70013,1,2,0:0:0:0:
256,192,70106,1,2,0:0:0:0:
256,192,70200,1,0,0:0:0:0:
256,192,70388,1,0,0:0:0:0:
256,192,70575,1,2,0:0:0:0:
256,192,70763,1,0,0:0:0:0:
256,192,70950,1,2,0:0:0:0:
256,192,71138,1,0,0:0:0:0:
256,192,71325,1,0,0:0:0:0:
256,192,71419,1,0,0:0:0:0:
256,192,71513,1,0,0:0:0:0:
256,192,71700,1,2,0:0:0:0:
256,192,72075,1,2,0:0:0:0:
256,192,72263,1,0,0:0:0:0:
256,192,72450,1,0,0:0:0:0:
256,192,72638,1,2,0:0:0:0:
256,192,73013,1,0,0:0:0:0:
256,192,73200,1,2,0:0:0:0:
256,192,73294,1,2,0:0:0:0:
256,192,73388,1,0,0:0:0:0:
256,192,73763,1,0,0:0:0:0:
256,192,73950,1,2,0:0:0:0:
256,192,74138,1,0,0:0:0:0:
256,192,74325,1,0,0:0:0:0:
256,192,74513,1,2,0:0:0:0:
256,192,74700,1,2,0:0:0:0:
256,192,74794,1,0,0:0:0:0:
256,192,74888,1,2,0:0:0:0:
256,192,75263,1,0,0:0:0:0:
256,192,75450,1,0,0:0:0:0:
256,192,75638,1,2,0:0:0:0:
256,192,75825,1,2,0:0:0:0:
256,192,76013,1,0,0:0:0:0:
256,192,76388,1,2,0:0:0:0:
256,192,76575,1,0,0:0:0:0:
256,192,76763,1,2,0:0:0:0:
256,192,76950,1,0,0:0:0:0:
256,192,77138,1,2,0:0:0:0:
256,192,77325,1,0,0:0:0:0:
256,192,77419,1,0,0:0:0:0:
256,192,77513,1,2,0:0:0:0:
256,192,77700,1,0,0:0:0:0:
256,192,77888,1,0,0:0:0:0:
256,192,78263,1,2,0:0:0:0:
256,192,78450,1,0,0:0:0:0:
256,192,78638,1,2,0:0:0:0:
256,192,79013,1,0,0:0:0:0:
256,192,79106,1,0,0:0:0:0:
256,192,79200,1,0,0:0:0:0:
256,192,79294,1,0,0:0:0:0:
256,192,79388,1,2,0:0:0:0:
256,192,79575,1,0,0:0:0:0:
256,192,79763,1,0,0:0:0:0:
256,192,79950,1,0,0:0:0:0:
256,192,80138,1,2,0:0:0:0:
256,192,80325,1,0,0:0:0:0:
256,192,80513,1,0,0:0:0:0:
256,192,80700,1,2,0:0:0:0:
256,192,80888,1,4,0:0:0:0:
256,192,81075,1,4,0:0:0:0:
256,192,81263,1,4,0:0:0:0:
256,192,81638,1,0,0:0:0:0:
256,192,82013,1,2,0:0:0:0:
256,192,82200,12,0,85031,0:0:0:0:
