osu file format v14

[General]
AudioFilename: MimimemeMIMI - CANDY MAGIC.mp3
AudioLeadIn: 0
PreviewTime: 51263
Countdown: 0
SampleSet: Normal
StackLeniency: 0.7
Mode: 1
LetterboxInBreaks: 0
WidescreenStoryboard: 0

[Editor]
DistanceSpacing: 1.2
BeatDivisor: 4
GridSize: 32
TimelineZoom: 1

[Metadata]
Title:CANDY MAGIC
TitleUnicode:CANDY MAGIC
Artist:mimimemeMIMI
ArtistUnicode:みみめめMIMI
Creator:newyams99
Version:Futsuu
Source:山田くんと7人の魔女
Tags:yamada kun and the seven witches yamajo ending ed Yamada-kun to 7-nin no Majo yuka takao yuki
BeatmapID:706725
BeatmapSetID:317208

[Difficulty]
HPDrainRate:6
CircleSize:2
OverallDifficulty:4
ApproachRate:5
SliderMultiplier:1.4
SliderTickRate:1

[Events]
//Background and Video events
0,0,"Yamada-kun and the 7 Witches.jpg",0,0
//Break Periods
//Storyboard Layer 0 (Background)
//Storyboard Layer 1 (Fail)
//Storyboard Layer 2 (Pass)
//Storyboard Layer 3 (Foreground)
//Storyboard Sound Samples

[TimingPoints]
1388,375,4,1,0,100,1,0
1388,-100,4,1,0,40,0,0
7388,-100,4,1,0,70,0,0
22388,-100,4,1,0,40,0,0
33638,-100,4,1,0,70,0,0
52388,-100,4,1,0,70,0,1
81263,-100,4,1,0,70,0,0
82200,-100,4,1,0,50,0,0
83138,600,4,1,0,40,1,0
83138,-62.5,4,1,0,40,0,0
83738,612.244897959184,4,1,0,30,1,0
83738,-61.3496932515337,4,1,0,30,0,0
84350,681.818181818182,4,1,0,20,1,0
84350,-54.9450549450549,4,1,0,20,0,0

[HitObjects]
256,192,1388,5,2,0:0:0:0:
256,192,2138,1,0,0:0:0:0:
256,192,2888,1,2,0:0:0:0:
256,192,4388,1,2,0:0:0:0:
256,192,5138,1,0,0:0:0:0:
256,192,5888,1,2,0:0:0:0:
256,192,7388,1,0,0:0:0:0:
256,192,7763,1,0,0:0:0:0:
256,192,8138,1,2,0:0:0:0:
256,192,8888,1,4,0:0:0:0:
256,192,9263,1,4,0:0:0:0:
256,192,10013,1,0,0:0:0:0:
256,192,10388,2,0,L|256:96|256:96,6,70
256,192,11888,1,0,0:0:0:0:
256,192,12263,1,0,0:0:0:0:
256,192,12638,1,0,0:0:0:0:
256,192,13388,1,2,0:0:0:0:
256,192,13763,1,2,0:0:0:0:
256,192,14138,1,0,0:0:0:0:
256,192,14513,1,0,0:0:0:0:
256,192,14888,1,0,0:0:0:0:
256,192,15638,1,0,0:0:0:0:
256,192,15825,1,0,0:0:0:0:
256,192,16013,1,2,0:0:0:0:
256,192,16388,1,6,0:0:0:0:
256,192,16950,1,4,0:0:0:0:
256,192,17513,1,6,0:0:0:0:
256,192,18075,1,4,0:0:0:0:
256,192,18638,1,6,0:0:0:0:
256,192,19013,1,2,0:0:0:0:
256,192,19388,1,4,0:0:0:0:
256,192,20138,1,2,0:0:0:0:
256,192,20888,1,0,0:0:0:0:
256,192,21263,1,0,0:0:0:0:
256,192,21638,1,0,0:0:0:0:
256,192,21825,1,0,0:0:0:0:
256,192,22013,1,2,0:0:0:0:
256,192,22388,1,2,0:0:0:0:
256,192,23888,1,0,0:0:0:0:
256,192,24263,1,2,0:0:0:0:
256,192,24638,1,0,0:0:0:0:
256,192,25388,1,0,0:0:0:0:
256,192,26888,1,0,0:0:0:0:
256,192,27263,1,2,0:0:0:0:
256,192,27638,1,0,0:0:0:0:
256,192,28388,1,0,0:0:0:0:
256,192,29888,1,2,0:0:0:0:
256,192,30638,1,0,0:0:0:0:
256,192,31388,1,2,0:0:0:0:
256,192,32138,1,2,0:0:0:0:
256,192,32888,1,0,0:0:0:0:
256,192,33638,1,4,0:0:0:0:
256,192,33825,1,4,0:0:0:0:
256,192,34388,1,6,0:0:0:0:
256,192,34950,1,2,0:0:0:0:
256,192,35513,1,0,0:0:0:0:
256,192,35888,1,0,0:0:0:0:
256,192,36450,1,2,0:0:0:0:
256,192,37013,1,0,0:0:0:0:
256,192,37388,1,0,0:0:0:0:
256,192,37950,1,2,0:0:0:0:
256,192,38513,1,0,0:0:0:0:
256,192,38888,1,2,0:0:0:0:
256,192,39638,1,0,0:0:0:0:
256,192,40388,1,2,0:0:0:0:
256,192,40763,1,0,0:0:0:0:
256,192,41138,1,0,0:0:0:0:
256,192,41513,1,2,0:0:0:0:
256,192,41888,1,2,0:0:0:0:
256,192,42638,1,0,0:0:0:0:
256,192,43013,1,2,0:0:0:0:
256,192,43388,1,2,0:0:0:0:
256,192,44513,1,0,0:0:0:0:
256,192,44888,1,2,0:0:0:0:
256,192,45263,1,0,0:0:0:0:
256,192,45638,1,0,0:0:0:0:
256,192,45825,1,0,0:0:0:0:
256,192,46013,1,2,0:0:0:0:
256,192,46388,1,6,0:0:0:0:
256,192,47138,1,2,0:0:0:0:
256,192,47888,1,0,0:0:0:0:
256,192,48263,1,0,0:0:0:0:
256,192,48638,1,2,0:0:0:0:
256,192,49200,1,0,0:0:0:0:
256,192,49388,1,2,0:0:0:0:
256,192,49763,1,0,0:0:0:0:
256,192,50138,1,2,0:0:0:0:
256,192,50513,1,0,0:0:0:0:
256,192,50888,1,4,0:0:0:0:
256,192,51075,1,4,0:0:0:0:
256,192,51638,1,0,0:0:0:0:
256,192,51825,1,0,0:0:0:0:
256,192,52013,1,2,0:0:0:0:
256,192,52388,1,6,0:0:0:0:
256,192,52950,1,0,0:0:0:0:
256,192,53138,1,0,0:0:0:0:
256,192,53888,1,2,0:0:0:0:
256,192,54263,1,0,0:0:0:0:
256,192,54450,1,0,0:0:0:0:
256,192,54638,1,2,0:0:0:0:
256,192,55013,1,0,0:0:0:0:
256,192,55388,1,2,0:0:0:0:
256,192,55950,1,2,0:0:0:0:
256,192,56138,1,0,0:0:0:0:
256,192,56888,1,2,0:0:0:0:
256,192,57263,1,0,0:0:0:0:
256,192,57638,1,0,0:0:0:0:
256,192,58013,1,0,0:0:0:0:
256,192,58200,1,2,0:0:0:0:
256,192,58388,1,2,0:0:0:0:
256,192,59138,1,0,0:0:0:0:
256,192,59513,1,2,0:0:0:0:
256,192,59888,1,2,0:0:0:0:
256,192,60263,1,0,0:0:0:0:
256,192,60638,1,0,0:0:0:0:
256,192,61013,1,2,0:0:0:0:
256,192,61200,1,0,0:0:0:0:
256,192,61575,1,2,0:0:0:0:
256,192,61763,1,0,0:0:0:0:
256,192,62888,1,2,0:0:0:0:
256,192,63263,1,0,0:0:0:0:
256,192,63638,1,2,0:0:0:0:
256,192,63825,1,2,0:0:0:0:
256,192,64013,1,0,0:0:0:0:
256,192,64388,1,6,0:0:0:0:
256,192,65138,1,0,0:0:0:0:
256,192,65888,1,0,0:0:0:0:
256,192,66263,1,2,0:0:0:0:
256,192,66638,1,0,0:0:0:0:
256,192,67013,1,2,0:0:0:0:
256,192,67388,1,0,0:0:0:0:
256,192,68138,1,6,0:0:0:0:
256,192,68888,1,6,0:0:0:0:
256,192,69263,1,2,0:0:0:0:
256,192,69450,1,0,0:0:0:0:
256,192,69638,1,0,0:0:0:0:
256,192,70013,1,2,0:0:0:0:
256,192,70388,1,0,0:0:0:0:
256,192,71138,1,2,0:0:0:0:
256,192,71513,1,0,0:0:0:0:
256,192,71700,1,2,0:0:0:0:
256,192,72075,1,0,0:0:0:0:
256,192,72263,1,0,0:0:0:0:
256,192,72638,1,2,0:0:0:0:
256,192,73013,1,0,0:0:0:0:
256,192,73388,2,0,L|256:96,6,70
256,192,74888,1,2,0:0:0:0:
256,192,75638,1,2,0:0:0:0:
256,192,76013,1,0,0:0:0:0:
256,192,76388,1,0,0:0:0:0:
256,192,77138,1,0,0:0:0:0:
256,192,77513,1,2,0:0:0:0:
256,192,77700,1,0,0:0:0:0:
256,192,77888,1,0,0:0:0:0:
256,192,78263,1,2,0:0:0:0:
256,192,78638,1,0,0:0:0:0:
256,192,79388,1,0,0:0:0:0:
256,192,79763,1,0,0:0:0:0:
256,192,80138,1,2,0:0:0:0:
256,192,80325,1,0,0:0:0:0:
256,192,80513,1,0,0:0:0:0:
256,192,80888,1,4,0:0:0:0:
256,192,81263,1,4,0:0:0:0:
256,192,82013,1,2,0:0:0:0:
256,192,82200,12,0,85031,0:0:0:0:
