osu file format v14

[General]
AudioFilename: Candy Magic.mp3
AudioLeadIn: 1733
PreviewTime: 51173
Countdown: 0
SampleSet: Soft
StackLeniency: 0.7
Mode: 0
LetterboxInBreaks: 0
WidescreenStoryboard: 0

[Editor]
DistanceSpacing: 0.8
BeatDivisor: 4
GridSize: 4
TimelineZoom: 0.8000004

[Metadata]
Title:CANDY MAGIC
TitleUnicode:CANDY MAGIC
Artist:mimimemeMIMI
ArtistUnicode:みみめめMIMI
Creator:Lanturn
Version:Second Witch
Source:山田くんと7人の魔女
Tags:samplefish hopperhtkn Yamada-kun YAMADAKUN to 7-nin NANANIN no Majo and the Seven Witches ED Ending
BeatmapID:679644
BeatmapSetID:303219

[Difficulty]
HPDrainRate:2
CircleSize:3
OverallDifficulty:2
ApproachRate:3
SliderMultiplier:1
SliderTickRate:1

[Events]
//Background and Video events
Video,0,"Candy Magic.avi"
0,0,"Candy Magic.jpg",0,0
//Break Periods
//Storyboard Layer 0 (Background)
//Storyboard Layer 1 (Fail)
//Storyboard Layer 2 (Pass)
//Storyboard Layer 3 (Foreground)
//Storyboard Sound Samples

[TimingPoints]
-108,375,4,2,1,30,1,0
1392,375,4,2,1,30,1,0
1392,-117.647058823529,4,2,1,30,0,0
7392,-117.647058823529,4,2,1,40,0,0
8892,-117.647058823529,4,2,1,50,0,0
10392,-100,4,2,1,60,0,0
22392,-142.857142857143,4,2,1,30,0,0
34392,-117.647058823529,4,2,1,60,0,0
45829,-117.647058823529,4,2,1,40,0,0
46204,-117.647058823529,4,2,1,60,0,0
52392,-100,4,2,1,70,0,1
64392,-117.647058823529,4,2,1,50,0,0
83142,600,4,2,1,60,1,0
83730,612.244897959184,4,2,1,50,1,0
84342,681.818181818182,4,2,1,40,1,0
85023,-100,4,2,1,30,0,0

[Colours]
Combo1 : 219,130,253
Combo2 : 255,255,151
Combo3 : 40,137,255
Combo4 : 201,201,201

[HitObjects]
292,216,1392,6,0,P|272:288|326:370,2,170.000003242493,2|2|2,0:0|0:0|0:0,0:0:0:0:
380,164,3267,2,0,L|484:165,2,85.0000016212464,0|2|0,0:0|0:0|0:0,0:0:0:0:
284,124,4392,6,0,P|208:124|192:132,1,85.0000016212464,2|0,0:0|0:0,0:0:0:0:
204,228,5142,2,0,P|280:228|296:220,1,85.0000016212464,2|0,0:0|0:0,0:0:0:0:
372,168,5892,2,0,B|412:144|453:155|453:155|438:198|464:240,1,170.000003242493,2|2,0:0|0:0,0:0:0:0:
284,332,7392,6,0,B|164:388|164:276|40:336,1,255.000004863739,2|0,0:0|0:0,0:0:0:0:
16,236,8892,2,0,B|84:208|100:144|100:144|116:208|184:236,1,255.000004863739,8|10,0:0|0:0,0:0:0:0:
280,252,10392,6,0,P|336:236|372:204,1,100,4|8,0:0|0:0,0:0:0:0:
424,292,11142,2,0,P|464:250|479:204,1,100,0|8,0:0|0:0,0:0:0:0:
456,112,11892,1,2,0:0:0:0:
380,44,12267,1,8,0:0:0:0:
300,104,12642,2,0,L|240:104,2,50,2|0|10,0:0|0:0|0:0,0:0:0:0:
384,160,13392,6,0,B|368:200|316:200|316:200|240:200,2,150,2|2|8,0:0|0:0|0:0,0:0:0:0:
384,60,14892,1,2,0:0:0:0:
292,16,15267,1,8,0:0:0:0:
208,68,15642,2,0,L|140:68,2,50,10|0|10,0:0|0:0|0:0,0:0:0:0:
256,156,16392,6,0,B|240:212|272:252|272:252|244:292,1,150,4|4,0:0|0:0,0:0:0:0:
120,376,17517,2,0,B|136:320|104:280|104:280|132:240,1,150,8|4,0:0|0:0,0:0:0:0:
168,96,18642,2,0,L|168:40,2,50,10|0|8,0:0|0:0|0:0,0:0:0:0:
256,192,19392,12,2,20892,0:0:0:0:
344,148,22392,6,0,P|336:188|352:228,1,69.9999978637696,2|0,0:0|0:0,0:0:0:0:
380,292,23142,2,0,P|348:300|308:292,1,69.9999978637696,2|0,0:0|0:0,0:0:0:0:
232,264,23892,1,2,0:0:0:0:
152,288,24267,1,2,0:0:0:0:
76,252,24642,1,2,0:0:0:0:
144,96,25392,6,0,B|184:104|207:75|207:75|240:88|276:72,1,139.999995727539,2|2,0:0|0:0,0:0:0:0:
348,116,26517,1,0,0:0:0:0:
296,184,26892,2,0,B|256:176|233:205|233:205|200:192|164:208,1,139.999995727539,2|2,0:0|0:0,0:0:0:0:
296,312,28392,6,0,P|364:293|408:240,1,139.999995727539,2|2,0:0|0:0,0:0:0:0:
440,164,29517,1,0,0:0:0:0:
400,88,29892,1,2,0:0:0:0:
248,160,30642,2,0,L|156:160,1,69.9999978637696,2|2,0:0|0:0,0:0:0:0:
104,124,31392,5,2,0:0:0:0:
256,48,32142,1,2,0:0:0:0:
408,124,32892,1,2,0:0:0:0:
408,124,34392,6,0,B|408:208|408:208|448:268,2,127.50000243187,4|8|8,0:0|0:0|0:0,0:0:0:0:
316,84,35892,2,0,B|252:64|252:104|192:80,2,127.50000243187,2|8|8,0:0|0:0|0:0,0:0:0:0:
276,176,37392,6,0,P|224:196|188:192,1,85.0000016212464,2|0,0:0|0:0,0:0:0:0:
92,184,38142,2,0,P|56:220|48:256,1,85.0000016212464,2|8,0:0|0:0,0:0:0:0:
112,332,38892,2,0,B|164:328|188:360|188:360|212:328|264:332,1,170.000003242493,2|0,0:0|0:0,0:0:0:0:
452,252,40392,6,0,L|452:164,1,85.0000016212464,4|0,0:0|0:0,0:0:0:0:
368,112,41142,2,0,L|368:212,1,85.0000016212464,2|8,0:0|0:0,0:0:0:0:
324,288,41892,1,2,0:0:0:0:
260,208,42267,1,0,0:0:0:0:
188,284,42642,2,0,P|120:312|88:300,1,85.0000016212464,2|8,0:0|0:0,0:0:0:0:
36,244,43392,6,0,B|16:180|64:180|32:104,2,127.50000243187,2|8|8,0:0|0:0|0:0,0:0:0:0:
136,216,44892,2,0,B|164:136|132:88|132:88|184:120|252:88,1,255.000004863739,4|0,0:0|3:0,0:0:0:0:
344,52,46392,5,4,0:0:0:0:
256,236,47142,1,2,0:0:0:0:
68,152,47892,2,0,P|36:116|24:76,2,85.0000016212464,2|0|2,0:0|0:0|0:0,0:0:0:0:
256,236,49392,6,0,P|288:272|300:312,2,85.0000016212464,10|8|10,0:0|0:0|0:0,0:0:0:0:
164,188,50517,1,8,0:0:0:0:
256,140,50892,2,0,L|312:140,1,42.5000008106232,8|8,0:0|0:0,0:0:0:0:
298,140,52392,6,0,B|372:160|439:109|439:109|456:144|504:168,1,200,4|2,0:0|0:0,0:0:0:0:
420,232,53517,1,8,0:0:0:0:
336,288,53892,1,2,0:0:0:0:
239,267,54267,2,0,P|191:255|143:266,2,100,8|2|8,0:0|0:0|0:0,0:0:0:0:
188,356,55392,6,0,P|92:350|45:267,1,200,2|2,0:0|0:0,0:0:0:0:
68,168,56517,1,8,0:0:0:0:
128,88,56892,2,0,L|240:88,1,100,2|8,0:0|0:0,0:0:0:0:
276,176,57642,2,0,L|172:176,1,100,2|8,0:0|0:0,0:0:0:0:
228,264,58392,6,0,B|296:264|296:264|356:244|356:244|424:244,1,200,2|2,0:0|0:0,0:0:0:0:
496,316,59517,1,8,0:0:0:0:
400,340,59892,2,0,P|344:364|284:352,1,100,2|8,0:0|0:0,0:0:0:0:
205,360,60642,2,0,P|156:362|112:340,1,100,2|8,0:0|0:0,0:0:0:0:
24,292,61392,5,4,0:0:0:0:
24,92,62142,1,4,0:0:0:0:
196,192,62892,2,0,B|240:204|240:204|276:244|276:244|344:252|336:188|336:188|300:148|300:148|280:104,1,300,4|8,0:0|0:0,0:0:0:0:
328,36,64392,6,0,P|412:40|456:112,1,170.000003242493,4|4,0:0|0:0,0:0:0:0:
455,277,65892,2,0,P|409:345|328:348,1,170.000003242493,10|10,0:0|0:0,0:0:0:0:
168,224,67392,6,0,P|166:178|182:141,1,85.0000016212464,4|0,0:0|0:0,0:0:0:0:
268,200,68142,2,0,P|316:236|325:262,1,85.0000016212464,4|0,0:0|0:0,0:0:0:0:
228,292,68892,2,0,P|152:312|84:256,1,170.000003242493,10|10,0:0|0:0,0:0:0:0:
132,60,70392,6,0,B|256:20|256:108|380:60,1,255.000004863739,4|8,0:0|0:0,0:0:0:0:
434,148,71892,2,0,B|470:248|402:248|378:296|378:296|342:260|307:257,1,255.000004863739,2|8,0:0|0:0,0:0:0:0:
204,257,73392,6,0,B|170:260|134:296|134:296|110:248|42:248|78:148,1,255.000004863739,4|0,0:0|0:0,0:0:0:0:
150,76,74892,2,0,P|190:111|210:178,1,85.0000016212464,2|2,0:0|0:0,0:0:0:0:
307,138,75642,2,0,P|328:102|362:76,1,85.0000016212464,2|2,0:0|0:0,0:0:0:0:
404,168,76392,5,4,0:0:0:0:
256,308,77142,1,8,0:0:0:0:
108,168,77892,2,0,P|64:156|20:168,2,85.0000016212464,2|0|8,0:0|0:0|0:0,0:0:0:0:
256,308,79392,6,0,P|296:320|348:308,1,85.0000016212464,4|2,0:0|0:0,0:0:0:0:
392,228,80142,2,0,P|352:216|300:228,1,85.0000016212464,0|0,0:0|0:0,0:0:0:0:
208,216,80892,2,0,L|156:236,2,42.5000008106232,8|0|10,0:0|0:0|0:0,0:0:0:0:
268,136,81642,2,0,P|280:96|268:48,1,85.0000016212464,2|0,0:0|0:0,0:0:0:0:
256,192,82204,12,2,85023,0:0:0:0:
