osu file format v14

[General]
AudioFilename: Candy Magic.mp3
AudioLeadIn: 1733
PreviewTime: 51173
Countdown: 0
SampleSet: Soft
StackLeniency: 0.7
Mode: 0
LetterboxInBreaks: 0
WidescreenStoryboard: 0

[Editor]
DistanceSpacing: 0.8
BeatDivisor: 4
GridSize: 4
TimelineZoom: 0.8000004

[Metadata]
Title:CANDY MAGIC
TitleUnicode:CANDY MAGIC
Artist:mimimemeMIMI
ArtistUnicode:みみめめMIMI
Creator:Lanturn
Version:Fourth Witch
Source:山田くんと7人の魔女
Tags:samplefish hopperhtkn Yamada-kun YAMADAKUN to 7-nin NANANIN no Majo and the Seven Witches ED Ending
BeatmapID:681141
BeatmapSetID:303219

[Difficulty]
HPDrainRate:6
CircleSize:4
OverallDifficulty:6
ApproachRate:7
SliderMultiplier:1.6
SliderTickRate:1

[Events]
//Background and Video events
Video,0,"Candy Magic.avi"
0,0,"Candy Magic2.jpg",0,0
//Break Periods
//Storyboard Layer 0 (Background)
//Storyboard Layer 1 (Fail)
//Storyboard Layer 2 (Pass)
//Storyboard Layer 3 (Foreground)
//Storyboard Sound Samples

[TimingPoints]
-108,375,4,2,1,30,1,0
1392,375,4,2,1,30,1,0
1392,-117.647058823529,4,2,1,30,0,0
7392,-117.647058823529,4,2,1,40,0,0
8892,-117.647058823529,4,2,1,50,0,0
10392,-100,4,2,1,60,0,0
22392,-142.857142857143,4,2,1,30,0,0
34392,-117.647058823529,4,2,1,60,0,0
45829,-117.647058823529,4,2,1,40,0,0
46204,-117.647058823529,4,2,1,60,0,0
52392,-100,4,2,1,70,0,1
64392,-117.647058823529,4,2,1,50,0,0
83142,600,4,2,1,60,1,0
83730,612.244897959184,4,2,1,50,1,0
84342,681.818181818182,4,2,1,40,1,0
85023,-100,4,2,1,30,0,0

[Colours]
Combo1 : 219,130,253
Combo2 : 255,255,151
Combo3 : 40,137,255
Combo4 : 201,201,201

[HitObjects]
168,312,1392,6,0,L|240:312,1,68.0000012969971,2|0,0:0|0:0,0:0:0:0:
300,264,1767,2,0,L|376:264,1,68.0000012969971,0|0,0:0|0:0,0:0:0:0:
424,204,2142,2,0,P|440:160|432:132,1,68.0000012969971,2|0,0:0|0:0,0:0:0:0:
368,96,2517,2,0,P|352:140|360:168,1,68.0000012969971,0|0,0:0|0:0,0:0:0:0:
420,36,2892,6,0,P|384:20|356:20,1,68.0000012969971,2|0,0:0|0:0,0:0:0:0:
296,76,3267,2,0,L|216:100,1,68.0000012969971,0|0,0:0|0:0,0:0:0:0:
156,60,3642,2,0,L|116:128,1,68.0000012969971,2|0,0:0|0:0,0:0:0:0:
152,196,4017,1,0,0:0:0:0:
108,264,4204,1,0,0:0:0:0:
152,332,4392,6,0,P|224:300|276:316,1,136.000002593994,2|0,0:0|0:0,0:0:0:0:
432,264,5142,2,0,P|368:268|320:220,1,136.000002593994,2|0,0:0|0:0,0:0:0:0:
372,64,5892,6,0,B|400:120|460:120|460:120|392:192,1,204.000003890991,2|0,0:0|0:0,0:0:0:0:
320,220,6642,1,2,0:0:0:0:
164,172,7017,1,0,0:0:0:0:
164,172,7204,1,0,0:0:0:0:
164,172,7392,6,0,L|100:240,1,68.0000012969971,2|0,0:0|0:0,0:0:0:0:
124,100,7767,2,0,L|180:44,1,68.0000012969971,0|0,0:0|0:0,0:0:0:0:
224,116,8142,2,0,P|244:152|236:204,1,68.0000012969971,2|0,0:0|0:0,0:0:0:0:
208,252,8517,2,0,P|224:308|244:328,1,68.0000012969971,0|0,0:0|0:0,0:0:0:0:
304,348,8892,5,8,0:0:0:0:
392,296,9079,1,8,0:0:0:0:
428,200,9267,1,8,0:0:0:0:
336,64,9642,2,0,L|252:64,1,68.0000012969971,2|0,0:0|0:0,0:0:0:0:
156,144,10017,2,0,L|240:144,1,68.0000012969971,10|0,0:0|0:0,0:0:0:0:
96,72,10392,6,0,P|62:138|100:220,1,160,4|8,0:0|0:0,0:0:0:0:
176,260,10954,2,0,B|220:252|248:228|248:228|276:252|320:260,1,160,2|0,0:0|0:0,0:0:0:0:
248,324,11517,1,8,0:0:0:0:
428,260,11892,5,2,0:0:0:0:
248,324,12267,1,8,0:0:0:0:
60,280,12642,1,2,0:0:0:0:
60,280,12829,1,0,0:0:0:0:
24,192,13017,1,10,0:0:0:0:
24,192,13204,1,0,0:0:0:0:
60,104,13392,6,0,B|88:80|132:80|132:80|220:80,1,160,2|8,0:0|0:0,0:0:0:0:
368,148,13954,2,0,B|340:172|296:172|296:172|208:172,1,160,2|0,0:0|0:0,0:0:0:0:
300,80,14517,1,8,0:0:0:0:
456,196,14892,6,0,P|432:256|332:296,1,160,2|8,0:0|0:0,0:0:0:0:
260,260,15454,1,0,0:0:0:0:
188,324,15642,2,0,L|108:352,1,80,10|0,0:0|0:0,0:0:0:0:
88,240,16017,2,0,L|8:240,1,80,10|0,0:0|0:0,0:0:0:0:
80,124,16392,5,4,0:0:0:0:
80,124,16579,2,0,P|152:128|228:72,1,160,8|4,0:0|0:0,0:0:0:0:
432,260,17517,1,8,0:0:0:0:
432,260,17704,2,0,P|360:256|284:312,1,160,8|4,0:0|0:0,0:0:0:0:
144,144,18642,5,10,0:0:0:0:
108,232,18829,1,0,0:0:0:0:
44,160,19017,1,8,0:0:0:0:
140,336,19392,6,0,P|168:360|224:356,1,80,2|0,0:0|0:0,0:0:0:0:
208,268,19767,2,0,P|244:274|290:243,1,80,0|0,0:0|0:0,0:0:0:0:
232,172,20142,2,0,P|266:159|291:109,1,80,2|0,0:0|0:0,0:0:0:0:
204,80,20517,2,0,P|228:52|224:-3,1,80,0|0,0:0|0:0,0:0:0:0:
96,28,20892,6,0,L|4:52,1,80,2|0,0:0|3:0,0:0:0:0:
80,124,21267,2,0,L|12:190,1,80,2|0,0:0|3:0,0:0:0:0:
116,208,21642,2,0,L|90:299,1,80,2|0,0:0|3:0,0:0:0:0:
192,280,22017,2,0,L|216:372,1,80,2|0,0:0|3:0,0:0:0:0:
296,372,22392,5,2,0:0:0:0:
344,236,22767,1,0,0:0:0:0:
428,356,23142,2,0,P|482:288|488:252,1,111.999996582031,2|0,0:0|0:0,0:0:0:0:
468,196,23704,1,0,0:0:0:0:
444,128,23892,5,2,0:0:0:0:
344,236,24267,1,2,0:0:0:0:
244,128,24642,1,2,0:0:0:0:
116,304,25204,1,0,0:0:0:0:
116,304,25392,6,0,L|116:244,1,55.9999982910157,2|0,0:0|0:0,0:0:0:0:
60,200,25767,2,0,L|60:144,1,55.9999982910157,2|0,0:0|0:0,0:0:0:0:
104,84,26142,1,2,0:0:0:0:
104,84,26517,1,0,0:0:0:0:
160,128,26704,1,0,0:0:0:0:
224,92,26892,6,0,P|280:72|332:92,1,111.999996582031,2|2,0:0|0:0,0:0:0:0:
448,176,27642,1,2,0:0:0:0:
448,176,28392,6,0,B|408:208|387:269|387:269|360:252|316:260,1,167.999994873047,2|0,0:0|0:0,0:0:0:0:
268,288,29142,2,0,P|196:308|144:296,1,111.999996582031,2|0,0:0|0:0,0:0:0:0:
32,236,29892,5,2,0:0:0:0:
172,68,30454,1,0,0:0:0:0:
172,68,30642,2,0,P|200:48|240:48,1,55.9999982910157,2|0,0:0|0:0,0:0:0:0:
232,120,31017,2,0,P|204:140|164:140,1,55.9999982910157,2|0,0:0|0:0,0:0:0:0:
300,64,31392,6,0,B|360:172|248:172|308:288,2,223.999993164063,2|2|2,0:0|0:0|0:0,0:0:0:0:
240,24,33079,5,0,0:0:0:0:
172,52,33267,1,2,0:0:0:0:
104,180,33642,2,0,P|101:213|112:248,1,55.9999982910157,8|0,0:0|3:0,0:0:0:0:
228,316,34204,1,8,0:0:0:0:
228,316,34298,1,8,0:0:0:0:
228,316,34392,6,0,B|304:284|360:311|360:311|380:268|416:252,1,204.000003890991,4|8,0:0|0:0,0:0:0:0:
504,112,35329,2,0,B|504:80|504:80|488:48,1,68.0000012969971,0|8,0:0|0:0,0:0:0:0:
408,8,35704,1,0,0:0:0:0:
336,64,35892,6,0,B|260:96|204:69|204:69|184:112|148:128,1,204.000003890991,2|8,0:0|0:0,0:0:0:0:
120,292,36829,1,0,0:0:0:0:
72,216,37017,1,8,0:0:0:0:
160,212,37204,1,0,0:0:0:0:
120,292,37392,6,0,L|240:364,1,136.000002593994,2|0,0:0|0:0,0:0:0:0:
328,356,37954,1,8,0:0:0:0:
408,312,38142,2,0,L|288:240,1,136.000002593994,2|8,0:0|0:0,0:0:0:0:
216,84,38892,5,2,0:0:0:0:
216,84,39079,2,0,P|288:60|356:92,1,136.000002593994,0|8,0:0|0:0,0:0:0:0:
280,144,39642,2,0,P|208:168|140:136,1,136.000002593994,0|8,0:0|0:0,0:0:0:0:
96,84,40204,1,8,0:0:0:0:
96,84,40298,1,8,0:0:0:0:
96,84,40392,6,0,P|68:156|100:216,1,136.000002593994,4|0,0:0|0:0,0:0:0:0:
224,324,41142,2,0,P|252:252|220:192,1,136.000002593994,2|8,0:0|0:0,0:0:0:0:
292,36,41892,6,0,L|348:112,1,68.0000012969971,2|0,0:0|0:0,0:0:0:0:
472,108,42267,2,0,L|385:145,1,68.0000012969971,0|8,0:0|0:0,0:0:0:0:
272,212,42642,2,0,L|365:201,1,68.0000012969971,2|0,0:0|0:0,0:0:0:0:
484,268,43017,2,0,L|408:212,1,68.0000012969971,8|0,0:0|0:0,0:0:0:0:
364,284,43392,6,0,B|352:344|300:360|300:360|272:308|212:324,1,204.000003890991,2|8,0:0|0:0,0:0:0:0:
60,244,44329,2,0,L|32:180,1,68.0000012969971,0|8,0:0|0:0,0:0:0:0:
180,80,44892,6,0,L|244:216,1,136.000002593994,4|8,0:0|0:0,0:0:0:0:
360,72,45642,1,0,0:0:0:0:
436,112,45829,2,0,L|436:152,3,34.0000006484985,0|0|0|0,3:0|3:0|3:0|3:0,0:0:0:0:
356,252,46392,6,0,B|224:304|224:200|92:252,1,272.000005187988,4|2,0:0|0:0,0:0:0:0:
308,96,47704,1,0,0:0:0:0:
308,96,47892,5,2,0:0:0:0:
256,252,48267,1,0,0:0:0:0:
204,96,48642,1,2,0:0:0:0:
256,336,49204,1,0,0:0:0:0:
256,336,49392,6,0,L|336:336,1,68.0000012969971,10|0,0:0|0:0,0:0:0:0:
176,256,49767,2,0,L|96:256,1,68.0000012969971,8|0,0:0|0:0,0:0:0:0:
256,176,50142,2,0,L|328:176,1,68.0000012969971,10|0,0:0|0:0,0:0:0:0:
176,96,50517,1,8,0:0:0:0:
176,96,50892,6,0,L|104:96,1,68.0000012969971,8|8,0:0|0:0,0:0:0:0:
40,144,51267,1,2,0:0:0:0:
40,144,51454,1,0,0:0:0:0:
40,224,51642,1,2,0:0:0:0:
40,224,51829,1,0,0:0:0:0:
92,288,52017,2,0,L|140:328,3,34.0000006484985,10|8|8|8,0:0|0:0|0:0|0:0,0:0:0:0:
160,332,52392,6,0,P|240:312|312:336,1,160,4|8,0:0|0:0,0:0:0:0:
400,376,52954,1,0,0:0:0:0:
380,280,53142,2,0,P|360:200|384:128,1,160,2|8,0:0|0:0,0:0:0:0:
216,40,53892,6,0,P|156:44|132:40,1,80,2|0,0:0|0:0,0:0:0:0:
56,92,54267,1,8,0:0:0:0:
56,92,54454,1,0,0:0:0:0:
104,176,54642,1,2,0:0:0:0:
104,176,54829,1,0,0:0:0:0:
52,256,55017,1,8,0:0:0:0:
52,256,55204,1,0,0:0:0:0:
124,320,55392,6,0,B|196:356|196:356|268:320,1,160,2|8,0:0|0:0,0:0:0:0:
348,268,55954,1,0,0:0:0:0:
424,208,56142,2,0,P|448:172|452:128,1,80,2|0,0:0|0:0,0:0:0:0:
356,132,56517,1,8,0:0:0:0:
280,192,56704,1,0,0:0:0:0:
280,192,56798,1,0,0:0:0:0:
280,192,56892,6,0,B|220:236|220:236|176:200|116:228,1,160,2|8,0:0|0:0,0:0:0:0:
16,72,57642,2,0,B|76:116|76:116|120:80|180:108,1,160,2|8,0:0|0:0,0:0:0:0:
252,116,58204,1,0,0:0:0:0:
280,24,58392,6,0,P|346:105|336:161,1,160,2|8,0:0|0:0,0:0:0:0:
292,240,58954,1,0,0:0:0:0:
292,240,59142,1,2,0:0:0:0:
108,292,59517,1,8,0:0:0:0:
300,316,59892,6,0,P|360:272|340:180,1,160,2|8,0:0|0:0,0:0:0:0:
228,48,60642,2,0,B|192:68|184:108|184:108|136:104|108:152,1,160,2|8,0:0|0:0,0:0:0:0:
84,234,61204,1,0,0:0:0:0:
160,292,61392,6,0,L|264:296,1,80,4|2,0:0|0:0,0:0:0:0:
328,256,61767,1,8,0:0:0:0:
472,132,62142,2,0,L|368:128,1,80,4|2,0:0|0:0,0:0:0:0:
304,168,62517,1,8,0:0:0:0:
228,112,62704,1,0,0:0:0:0:
228,112,62798,1,0,0:0:0:0:
228,112,62892,6,0,P|140:140|80:104,1,160,4|8,0:0|0:0,0:0:0:0:
160,52,63454,1,0,0:0:0:0:
252,20,63642,2,0,L|316:20,2,53.3333333333333,8|8|8,0:0|0:0|0:0,0:0:0:0:
292,68,64017,2,0,L|368:68,2,53.3333333333333,8|8|8,0:0|0:0|0:0,0:0:0:0:
324,112,64392,6,0,B|375:166|334:237|334:237|367:267|367:307,1,204.000003890991,4|8,0:0|0:0,0:0:0:0:
324,364,65142,1,4,0:0:0:0:
168,316,65517,1,0,0:0:0:0:
250,175,65892,6,0,B|261:138|258:108|258:108|281:90|291:69,2,102.000001945496,10|8|0,0:0|0:0|0:0,0:0:0:0:
170,159,66642,2,0,P|136:170|116:197,1,68.0000012969971,10|0,0:0|0:0,0:0:0:0:
138,273,67017,2,0,P|172:262|192:235,1,68.0000012969971,0|8,0:0|0:0,0:0:0:0:
170,159,67392,5,4,0:0:0:0:
128,128,67767,1,0,0:0:0:0:
87,96,68142,1,4,0:0:0:0:
39,68,68517,1,0,0:0:0:0:
192,40,68892,6,0,B|256:80|256:12|320:48,1,136.000002593994,10|4,0:0|0:0,0:0:0:0:
380,104,69454,1,0,0:0:0:0:
380,104,69642,1,10,0:0:0:0:
256,208,70017,1,8,0:0:0:0:
256,208,70110,1,8,0:0:0:0:
256,208,70204,1,8,0:0:0:0:
200,268,70392,6,0,P|184:304|144:332,1,68.0000012969971,4|0,0:0|0:0,0:0:0:0:
84,312,70767,2,0,P|100:276|140:248,1,68.0000012969971,8|0,0:0|0:0,0:0:0:0:
172,192,71142,1,2,0:0:0:0:
302,275,71329,1,0,0:0:0:0:
261,126,71517,1,8,0:0:0:0:
200,268,71704,1,0,0:0:0:0:
440,160,72079,5,0,0:0:0:0:
496,100,72267,1,8,0:0:0:0:
416,80,72454,1,0,0:0:0:0:
416,80,72642,2,0,P|360:104|288:80,1,136.000002593994,2|8,0:0|0:0,0:0:0:0:
224,32,73204,1,0,0:0:0:0:
224,32,73298,1,0,0:0:0:0:
224,32,73392,6,0,L|176:172,1,136.000002593994,4|0,0:0|0:0,0:0:0:0:
256,304,74142,2,0,L|304:164,1,136.000002593994
432,76,74892,6,0,L|432:148,1,68.0000012969971,2|0,0:0|0:0,0:0:0:0:
352,272,75267,2,0,L|352:188,1,68.0000012969971,2|0,0:0|0:0,0:0:0:0:
272,76,75642,2,0,L|272:152,1,68.0000012969971,2|0,0:0|0:0,0:0:0:0:
192,272,76017,2,0,L|192:172,1,68.0000012969971,2|0,0:0|0:0,0:0:0:0:
140,144,76392,5,4,0:0:0:0:
140,144,76579,1,0,0:0:0:0:
80,88,76767,1,0,0:0:0:0:
80,88,76954,1,0,0:0:0:0:
24,148,77142,2,0,B|4:180|4:180|4:216,1,68.0000012969971,8|0,0:0|0:0,0:0:0:0:
64,264,77517,2,0,B|84:232|84:232|84:196,1,68.0000012969971,0|0,0:0|0:0,0:0:0:0:
24,148,77892,5,2,0:0:0:0:
164,64,78267,1,0,0:0:0:0:
168,228,78642,1,8,0:0:0:0:
168,228,79017,2,0,L|208:228,3,34.0000006484985,8|8|8|8,0:0|0:0|0:0|0:0,0:0:0:0:
236,252,79392,5,4,0:0:0:0:
304,208,79579,1,0,0:0:0:0:
348,276,79767,1,2,0:0:0:0:
416,232,79954,1,0,0:0:0:0:
464,296,80142,2,0,P|464:332|444:372,1,68.0000012969971,0|0,0:0|0:0,0:0:0:0:
416,232,80517,2,0,P|416:196|436:156,1,68.0000012969971,0|8,0:0|0:0,0:0:0:0:
384,88,80892,6,0,L|304:88,1,68.0000012969971,8|0,0:0|0:0,0:0:0:0:
244,124,81267,1,10,0:0:0:0:
172,84,81454,1,0,0:0:0:0:
104,132,81642,2,0,P|100:196|156:256,1,136.000002593994,2|0,0:0|0:0,0:0:0:0:
256,192,82204,12,2,85023,0:0:0:0:
