osu file format v14

[General]
AudioFilename: Candy Magic.mp3
AudioLeadIn: 1733
PreviewTime: 51173
Countdown: 0
SampleSet: Soft
StackLeniency: 0.7
Mode: 0
LetterboxInBreaks: 0
WidescreenStoryboard: 0

[Editor]
DistanceSpacing: 0.8
BeatDivisor: 4
GridSize: 4
TimelineZoom: 0.8000004

[Metadata]
Title:CANDY MAGIC
TitleUnicode:CANDY MAGIC
Artist:mimimemeMIMI
ArtistUnicode:みみめめMIMI
Creator:Lanturn
Version:First Witch
Source:山田くんと7人の魔女
Tags:samplefish hopperhtkn Yamada-kun YAMADAKUN to 7-nin NANANIN no Majo and the Seven Witches ED Ending
BeatmapID:695683
BeatmapSetID:303219

[Difficulty]
HPDrainRate:1
CircleSize:2.5
OverallDifficulty:1
ApproachRate:2
SliderMultiplier:0.7
SliderTickRate:1

[Events]
//Background and Video events
Video,0,"Candy Magic.avi"
0,0,"Candy Magic.jpg",0,0
//Break Periods
//Storyboard Layer 0 (Background)
//Storyboard Layer 1 (Fail)
//Storyboard Layer 2 (Pass)
//Storyboard Layer 3 (Foreground)
//Storyboard Sound Samples

[TimingPoints]
-108,375,4,2,1,30,1,0
1392,375,4,2,1,30,1,0
7392,-100,4,2,1,40,0,0
8892,-100,4,2,1,50,0,0
10392,-100,4,2,1,60,0,0
22392,-100,4,2,1,30,0,0
34392,-100,4,2,1,60,0,0
52392,-100,4,2,1,70,0,1
64392,-100,4,2,1,50,0,0
83142,600,4,2,1,60,1,0
83730,612.244897959184,4,2,1,50,1,0
84342,681.818181818182,4,2,1,40,1,0
85023,-100,4,2,1,30,0,0

[Colours]
Combo1 : 219,130,253
Combo2 : 255,255,151
Combo3 : 40,137,255
Combo4 : 201,201,201

[HitObjects]
160,288,1392,6,0,P|135:224|159:160,1,140,2|2,0:0|0:0,0:0:0:0:
252,96,2892,2,0,P|276:159|252:223,1,140,2|2,0:0|0:0,0:0:0:0:
160,288,4392,5,2,0:0:0:0:
256,344,5142,1,2,0:0:0:0:
352,288,5892,2,0,P|400:228|396:160,1,140,2|2,0:0|0:0,0:0:0:0:
308,100,7392,6,0,B|208:156|208:68|96:112,1,210,2|0,0:0|0:0,0:0:0:0:
64,148,8892,2,0,P|88:212|56:284,1,140,8|2,0:0|0:0,0:0:0:0:
156,340,10392,6,0,B|224:332|256:360|256:360|288:332|356:340,1,210,4|8,0:0|0:0,0:0:0:0:
412,348,11892,2,0,L|444:276,1,70,2|8,0:0|0:0,0:0:0:0:
392,124,13392,6,0,P|384:48|396:20,2,105,2|2|8,0:0|0:0|0:0,0:0:0:0:
360,172,14892,2,0,P|316:184|280:172,1,70,2|8,0:0|0:0,0:0:0:0:
172,64,16392,6,0,L|72:156,1,105,4|4,0:0|0:0,0:0:0:0:
132,212,17517,2,0,L|32:304,1,105,8|4,0:0|0:0,0:0:0:0:
104,352,18642,2,0,L|196:352,1,70,10|8,0:0|0:0,0:0:0:0:
228,336,19392,6,0,B|280:288|356:292|356:292|328:216|372:140,1,280,2|2,0:0|0:0,0:0:0:0:
172,36,22392,6,0,P|184:104|164:170,1,140,2|2,0:0|0:0,0:0:0:0:
108,268,23892,2,0,L|108:340,2,70,2|2|2,0:0|0:0|0:0,0:0:0:0:
50,171,25392,6,0,P|30:104|42:36,1,140,2|2,0:0|0:0,0:0:0:0:
136,96,26892,2,0,L|208:96,2,70,2|2|2,0:0|0:0|0:0,0:0:0:0:
200,188,28392,6,0,B|336:268|332:132|468:208,1,280,2|2,0:0|0:0,0:0:0:0:
276,88,31392,6,0,B|140:8|144:144|8:68,1,280,2|2,0:0|0:0,0:0:0:0:
112,268,34392,6,0,L|36:368,2,105,4|8|8,0:0|0:0|0:0,0:0:0:0:
168,256,35892,2,0,L|244:156,2,105,2|8|8,0:0|0:0|0:0,0:0:0:0:
192,308,37392,6,0,P|255:336|324:320,2,140,2|2|2,0:0|0:0|0:0,0:0:0:0:
120,224,39642,1,0,0:0:0:0:
184,132,40392,6,0,P|256:68|328:132,1,210,4|8,0:0|0:0,0:0:0:0:
328,188,41892,2,0,B|276:208|256:260|256:260|236:208|184:188,1,210,2|8,0:0|0:0,0:0:0:0:
136,160,43392,6,0,P|88:192|84:264,2,105,2|8|8,0:0|0:0|0:0,0:0:0:0:
184,132,44892,1,4,0:0:0:0:
184,132,46392,6,0,P|191:203|254:258,1,140,4|2,0:0|0:0,0:0:0:0:
288,156,47892,2,0,L|352:108,2,70,2|0|2,0:0|0:0|0:0,0:0:0:0:
388,204,49392,6,0,B|452:252|426:329|426:329|360:296|288:332,1,280,10|8,0:0|0:0,0:0:0:0:
292,329,52392,6,0,B|223:330|223:330|168:284,2,140,4|2|2,0:0|0:0|0:0,0:0:0:0:
336,296,54267,2,0,L|412:296,2,70,8|2|8,0:0|0:0|0:0,0:0:0:0:
292,264,55392,6,0,P|268:200|292:136,1,140,2|2,0:0|0:0,0:0:0:0:
224,48,56892,2,0,P|128:52|112:152,1,210,2|8,0:0|0:0,0:0:0:0:
132,200,58392,6,0,P|128:296|92:324,1,140,2|2,0:0|0:0,0:0:0:0:
204,356,59892,2,0,B|274:356|274:356|344:308,1,140,2|2,0:0|0:0,0:0:0:0:
400,228,61392,6,0,B|441:171|441:171|424:136|440:92,2,140,4|4|4,0:0|0:0|0:0,0:0:0:0:
176,227,64392,6,0,P|111:252|44:234,1,140,4|4,0:0|0:0,0:0:0:0:
108,144,65892,2,0,P|172:119|239:137,1,140,10|10,0:0|0:0,0:0:0:0:
304,228,67392,5,4,0:0:0:0:
376,312,68142,1,4,0:0:0:0:
480,348,68892,2,0,L|504:196,1,140,10|10,0:0|0:0,0:0:0:0:
448,112,70392,6,0,B|380:92|380:92|324:128|324:128|232:128,1,210,4|8,0:0|0:0,0:0:0:0:
216,172,71892,2,0,P|256:272|124:292,1,280,2|4,0:0|0:0,0:0:0:0:
56,200,74142,5,0,0:0:0:0:
104,100,74892,2,0,P|152:40|292:68,1,210,2|2,0:0|0:0,0:0:0:0:
324,80,76392,6,0,B|352:152|304:152|332:224,1,140,4|8,0:0|0:0,0:0:0:0:
396,308,77892,2,0,L|472:308,2,70,2|0|8,0:0|0:0|0:0,0:0:0:0:
288,340,79392,6,0,B|204:356|174:283|174:283|108:344|32:280,1,280,4|8,0:0|0:0,0:0:0:0:
256,192,82204,12,2,85023,0:0:0:0:
