osu file format v6

[General]
AudioFilename: BAKA Go Home .mp3
AudioLeadIn: 1952
PreviewTime: -1
Countdown: 1
SampleSet: Normal
StackLeniency: 0.7
Mode: 0
LetterboxInBreaks: 1

[Editor]
DistanceSpacing: 0.800000011920929
BeatDivisor: 4
GridSize: 8

[Metadata]
Title:BAKA go home
Artist:milktub
Creator:[Dango]
Version:Hard
Source:
Tags:

[Difficulty]
HPDrainRate:5
CircleSize:4
OverallDifficulty:5
SliderMultiplier:1.4
SliderTickRate:1

[Events]
//Background and Video events
0,0,"2010-02-13.jpg"
//Break Periods
//Storyboard Layer 0 (Background)
//Storyboard Layer 1 (Fail)
//Storyboard Layer 2 (Pass)
//Storyboard Layer 3 (Foreground)
//Storyboard Sound Samples
//Background Colour Transformations
3,100,163,162,255

[TimingPoints]
664,379.746835443038,4,1,0,100,1,0

[HitObjects]
256,192,5220,1,0
184,112,5600,1,8
256,192,5980,5,0
336,112,6360,1,8
256,192,6739,5,0
256,248,6929,1,0
256,136,7309,1,8
256,192,11296,5,0
176,272,11676,1,0
256,192,12056,5,0
336,272,12436,1,0
256,192,12815,5,0
256,136,13005,1,0
256,248,13385,1,0
64,64,14524,5,0
88,112,14714,1,0
120,64,14904,1,0
144,112,15094,1,0
176,64,15284,2,0,B|240:64,1,35
256,288,16043,5,0
280,240,16233,1,0
304,288,16423,1,0
336,240,16613,1,0
360,288,16803,2,0,B|416:256|416:184|336:176,1,140
248,184,17562,5,0
192,184,17752,1,0
192,240,17942,1,0
136,240,18132,1,0
136,296,18322,1,0
136,296,18417,2,0,B|64:296|64:296|64:216,1,140
160,192,19176,5,0
256,96,19366,5,0
352,192,19556,5,0
256,192,19746,6,0,B|256:352,1,140
64,320,20600,5,0
88,240,20790,1,0
128,168,20980,1,0
176,104,21170,2,0,B|216:64|272:64|304:112,1,140
296,272,22119,5,0
232,200,22309,1,0
312,144,22499,1,0
400,80,22689,1,0
400,80,22879,1,0
400,80,23069,2,0,B|464:136|472:176,1,105
408,208,23733,5,0
312,208,23923,1,0
224,160,24113,1,0
152,224,24303,1,0
112,104,24493,1,0
112,104,24588,1,0
192,80,24777,1,0
256,208,24967,12,0,26107
128,208,26676,6,0,B|96:144|136:80|160:64,1,140
200,72,27246,1,0
256,72,27436,2,0,B|336:96|352:136|344:176,1,140
344,280,28195,6,0,B|240:280,1,70
240,240,28575,1,0
184,240,28765,1,0
184,240,28860,1,0
184,240,28955,2,0,B|184:88,1,140
296,80,29714,5,0
328,128,29904,1,0
344,184,30094,1,0
344,240,30284,1,0
344,240,30379,1,0
344,240,30474,1,0
272,280,30853,1,0
256,224,31138,2,0,B|176:192|216:136|296:128|328:192|248:232,1,210
256,208,31803,12,0,32182
72,72,32752,5,0
128,72,32942,1,0
184,72,33132,1,0
160,120,33322,1,0
160,120,33417,1,0
160,120,33512,2,0,B|328:120,1,140,0|8
248,216,34271,5,0
192,216,34461,1,0
152,176,34651,1,0
184,128,34841,1,0
184,128,35031,2,0,B|352:128,1,140
416,192,35790,5,0
368,104,35980,1,0
320,184,36170,1,0
272,256,36360,1,0
184,256,36550,1,0
184,256,36645,1,0
104,256,36929,1,0
256,208,37119,12,8,38258
256,192,38448,5,0
200,120,38638,1,0
320,120,38828,1,0
256,208,39018,12,0,39777
88,56,40537,6,0,B|136:112,1,70
248,96,41107,1,0
304,96,41296,1,0
360,96,41486,1,0
360,152,41676,2,0,B|336:168|336:168|384:168|384:168|336:184|336:184|384:192|384:192|336:200|336:200|392:224,1,280
48,240,43575,5,0
48,184,43765,2,0,B|128:184,1,70
120,128,44145,1,0
168,184,44334,1,0
216,240,44524,1,0
256,208,44714,12,0,46233
192,144,46613,5,0
248,88,46803,1,0
272,72,46898,1,0
352,72,47182,1,0
432,72,47372,1,0
376,128,47562,1,0
304,168,47752,2,0,B|360:232,1,70
350,220,48132,2,0,B|280:280,1,70
296,265,48512,1,0
256,160,48891,5,0
256,208,49271,12,0,51550
256,184,51929,5,0
256,208,52309,12,0,54208
144,248,55347,5,0
184,152,55537,1,0
184,152,55632,1,0
272,184,55917,1,0
336,112,56107,1,0
432,120,56296,1,0
432,120,56391,1,0
384,224,56676,1,0
304,288,56866,2,0,B|192:288,1,105
199,288,57436,2,0,B|120:224,1,70
432,224,58385,5,0
368,144,58575,1,0
368,144,58670,1,0
280,128,58955,1,0
192,128,59145,2,0,B|136:88|96:128|88:184,1,140
88,232,59714,1,0
176,232,59904,1,0
200,232,59999,2,0,B|240:232|256:192|296:240,1,105
352,240,60474,1,0
408,240,60664,2,0,B|472:192|360:168|288:168|328:176,1,140
352,56,61423,5,0
448,120,61708,1,0
344,168,61993,1,0
256,168,62182,2,0,B|184:224,1,70
200,208,62752,1,0
96,192,62942,2,0,B|128:112,1,70
184,56,63322,1,0
240,56,63512,1,0
296,56,63701,1,0
96,272,64461,5,0
96,192,64651,1,0
112,176,64746,1,0
192,152,65031,1,0
272,128,65220,1,0
272,128,65315,1,0
272,128,65410,1,0
352,168,65790,1,0
304,240,65980,1,0
328,256,66075,1,0
408,272,66360,2,0,B|464:208|448:184,1,70
448,160,66739,1,0
256,48,67499,5,0
152,88,67879,1,0
144,200,68258,1,0
368,208,69018,5,0
424,112,69398,1,0
312,104,69777,1,0
312,104,69967,1,0
312,104,70157,1,0
312,104,70347,1,0
224,104,70537,1,0
160,168,70917,1,0
248,192,71296,2,0,B|328:224,1,70
312,217,71676,2,0,B|272:296,1,70
280,279,72056,1,0
144,184,72626,5,0
144,184,72815,1,0
208,88,73195,1,0
208,88,73385,1,0
264,184,73575,6,0,B|400:128,1,140
456,224,74334,1,0
232,192,75094,2,0,B|104:104,1,140
120,224,75853,1,0
168,248,76043,1,0
224,248,76233,1,0
280,240,76423,1,0
320,208,76613,6,0,B|432:88,1,140
312,64,77372,2,0,B|224:48,1,70
243,51,77752,2,0,B|216:128,1,70
219,117,78132,1,0
120,136,79651,6,0,B|168:96|224:112|264:152,1,140
352,88,80410,1,0
336,200,80600,1,0
240,272,80790,1,0
128,272,80980,1,0
256,208,81170,12,0,83448
