osu file format v12

[General]
AudioFilename: BAKA Go Home (TV Size).mp3
AudioLeadIn: 1000
PreviewTime: 54736
Countdown: 0
SampleSet: Soft
StackLeniency: 0.7
Mode: 0
LetterboxInBreaks: 0

[Editor]
DistanceSpacing: 1
BeatDivisor: 4
GridSize: 4

[Metadata]
Title:BAKA Go Home (TV Size)
TitleUnicode:バカ・ゴー・ホーム (TV Size)
Artist:milktub
ArtistUnicode:milktub
Creator:12BARRY21
Version:Normal
Source:Baka to Test to Shoukanjuu
Tags:No_Gu Fumika Netsukawa bossandy boss Ending Idoit Summon Creatures Beasts Silver Link yoshii himeji shimada minami kinoshita hideyoshi sakamoto yuuji kirishima shouko tsuchiya バカとテストと召喚獣
BeatmapID:178923
BeatmapSetID:59356

[Difficulty]
HPDrainRate:4
CircleSize:3
OverallDifficulty:4
ApproachRate:5
SliderMultiplier:1.12
SliderTickRate:2

[Events]
//Background and Video events
0,0,"BAKA BG.jpg",0,0
Video,-192,"BAKA Ending.avi"
//Break Periods
//Storyboard Layer 0 (Background)
//Storyboard Layer 1 (Fail)
//Storyboard Layer 2 (Pass)
//Storyboard Layer 3 (Foreground)
//Storyboard Sound Samples
//Background Colour Transformations
3,100,163,162,255

[TimingPoints]
104,379.746835443038,4,2,2,60,1,0
1622,-100,4,2,2,70,0,1
1717,-100,4,2,2,70,0,0
4660,-100,4,1,1,70,0,0
6749,-100,4,1,1,65,0,0
7319,-100,4,2,2,70,0,0
10736,-100,4,1,1,70,0,0
12635,-100,4,1,1,65,0,0
13395,-100,4,2,1,75,0,0
13774,-100,4,2,2,55,0,0
19091,-100,4,2,2,65,0,0
19850,-100,4,2,2,55,0,0
24407,-100,4,2,2,65,0,0
25547,-100,4,2,2,55,0,0
25926,-100,4,2,2,70,0,0
31243,-100,4,2,2,75,0,0
31622,-100,4,2,2,50,0,0
32002,-100,4,2,2,70,0,0
36559,-100,4,2,2,75,0,0
36939,-100,4,2,2,50,0,0
37129,-100,4,2,2,65,0,0
37698,-100,4,2,2,55,0,0
38078,-100,4,2,2,70,0,0
38648,-100,4,2,2,60,0,0
38838,-100,4,1,1,80,0,0
39217,-100,4,1,1,70,0,0
39597,-100,4,2,2,60,0,0
45293,-100,4,2,2,50,0,0
45673,-100,4,2,2,60,0,0
47572,-100,4,2,2,50,0,0
47952,-100,4,2,2,75,0,0
48331,-100,4,2,2,65,0,0
48711,-100,4,1,1,75,0,0
53268,-100,4,2,1,75,0,0
54787,-100,4,2,1,80,0,1
65610,-100,4,2,1,60,0,1
66179,-100,4,2,2,60,0,1
66369,-100,4,2,2,65,0,1
66559,-100,4,2,2,70,0,1
66749,-100,4,2,2,75,0,1
66844,-100,4,2,2,80,0,0
66939,-100,4,2,2,75,0,1
72445,-100,4,2,2,65,0,1
73015,-100,4,2,2,75,0,1
77762,-100,4,2,2,60,0,1
78141,-100,4,2,2,55,0,1
79091,-100,4,2,2,70,0,1
80705,-100,4,2,2,50,0,1
81749,-100,4,2,2,30,0,1
82129,-100,4,1,1,75,0,0
84787,-100,4,1,1,80,0,0

[Colours]
Combo1 : 116,88,243
Combo2 : 240,70,74
Combo3 : 26,190,238
Combo4 : 44,182,113
Combo5 : 249,111,45

[HitObjects]
66,171,1622,1,4,0:0:0:0:
37,62,2002,1,8,0:0:0:0:
144,36,2382,1,0,0:0:0:0:
171,143,2762,1,8,0:0:0:0:
171,143,2952,2,0,B|226:155|282:131,1,112
298,95,3521,2,0,B|354:71|409:83,1,112,8|0,0:0|0:0,0:0:0:0:
458,183,4281,1,8,0:0:0:0:
422,287,4660,6,2,B|368:292,1,56
204,332,5420,2,2,B|150:327,1,56
64,180,6179,2,0,B|76:96|76:96|116:24,2,168,2|6|8,0:0|0:0|0:0,0:0:0:0:
176,184,7698,6,0,B|232:176|288:200,1,112,4|8,0:0|0:0,0:0:0:0:
324,92,8458,2,0,B|377:114|433:106,1,112,0|8,0:0|0:0,0:0:0:0:
468,124,9028,2,0,B|488:180|480:236,1,112
472,272,9597,1,8,0:0:0:0:
364,308,9977,2,0,B|368:388,2,56,0|0|8,0:0|0:0|0:0,0:0:0:0:
252,292,10736,5,2,0:0:0:0:
252,292,10926,1,2,0:0:0:0:
84,312,11496,1,2,0:0:0:0:
84,312,11686,1,2,0:0:0:0:
140,156,12255,1,2,0:0:0:0:
140,156,12445,1,0,0:0:0:0:
240,104,12825,2,0,B|312:72|408:80,1,168,6|8,0:0|0:0,0:0:0:0:
464,176,13774,6,0,B|460:231|460:231|476:288,1,112,4|8,0:0|0:0,0:0:0:0:
391,361,14534,2,0,B|395:305|395:305|379:249,1,112,0|8,0:0|0:0,0:0:0:0:
272,216,15293,1,0,0:0:0:0:
293,103,15673,1,8,0:0:0:0:
195,47,16053,1,0,0:0:0:0:
110,124,16433,1,8,0:0:0:0:
158,225,16812,6,0,B|156:288|116:328,1,112,0|8,0:0|0:0,0:0:0:0:
220,368,17572,2,0,B|222:305|262:265,1,112,0|8,0:0|0:0,0:0:0:0:
348,196,18331,2,0,B|409:182|462:212|462:212|497:177,2,168,0|2|4,0:0|0:0|0:0,0:0:0:0:
244,160,19850,6,0,B|232:48,1,112,4|8,0:0|0:0,0:0:0:0:
128,88,20610,2,0,B|140:200,1,112,0|8,0:0|0:0,0:0:0:0:
184,300,21369,1,0,0:0:0:0:
292,324,21749,2,0,B|348:328|400:300,2,112,8|0|8,0:0|0:0|0:0,0:0:0:0:
328,216,22888,6,0,B|380:152|380:60,2,168,0|2|8,0:0|0:0|0:0,0:0:0:0:
264,124,24407,2,0,B|260:68,3,56,4|0|8|4,0:0|0:0|0:0|0:0,0:0:0:0:
92,52,25547,5,8,0:0:0:0:
92,52,25926,2,0,B|72:104|84:164,1,112,4|8,0:0|0:0,0:0:0:0:
120,268,26686,2,0,B|176:256|228:288,1,112,0|8,0:0|0:0,0:0:0:0:
248,320,27255,1,0,0:0:0:0:
356,292,27635,2,0,B|360:236,1,56,0|8,0:0|0:0,0:0:0:0:
472,228,28205,2,0,B|468:116,1,112,0|8,0:0|0:0,0:0:0:0:
376,52,28964,6,0,B|324:36|324:36|264:44,1,112,2|8,0:0|0:0,0:0:0:0:
172,104,29724,2,0,B|116:100,2,56,0|0|8,0:0|0:0|0:0,0:0:0:0:
220,204,30483,2,0,B|52:196,2,168,2|2|4,0:0|0:0|0:0,0:0:0:0:
324,244,32002,6,0,B|340:264|348:292|340:328|316:344,2,112,4|8|0,0:0|0:0|0:0,0:0:0:0:
428,204,33141,1,8,0:0:0:0:
428,204,33331,2,0,B|424:148|432:92,1,112
400,72,33901,2,0,B|408:44|404:16,2,56,8|0|0,0:0|0:0|0:0,0:0:0:0:
292,44,34660,1,8,0:0:0:0:
180,64,35040,6,0,B|128:88|128:88|96:132,1,112,2|8,0:0|0:0,0:0:0:0:
76,244,35800,2,0,B|20:236,2,56,0|0|8,0:0|0:0|0:0,0:0:0:0:
104,352,36559,6,0,B|216:340,1,112,4|8,0:0|0:0,0:0:0:0:
236,308,37129,2,0,B|348:296,2,112,4|8|8,0:0|0:0|0:0,0:0:0:0:
212,276,38078,6,0,B|184:232|200:168,1,112,4|8,0:0|0:0,0:0:0:0:
232,148,38648,2,0,B|248:83|220:39,2,112,4|0|0,0:0|0:0|0:0,0:0:0:0:
264,172,39597,6,0,B|344:148|432:164,2,168,4|2|8,0:0|0:0|0:0,0:0:0:0:
296,280,41116,2,0,B|352:292|408:276,2,112,2|8|0,0:0|0:0|0:0,0:0:0:0:
188,316,42255,1,8,0:0:0:0:
80,284,42635,6,0,B|60:172,1,112,2|8,0:0|0:0,0:0:0:0:
172,184,43395,2,0,B|192:72,1,112,0|8,0:0|0:0,0:0:0:0:
296,116,44154,2,0,B|341:120|372:86|372:86|412:107|453:88,2,168,2|0|8,0:0|0:0|0:0,0:0:0:0:
332,224,45673,5,4,0:0:0:0:
440,255,46053,1,8,0:0:0:0:
361,334,46433,1,0,0:0:0:0:
252,303,46812,1,8,0:0:0:0:
144,272,47192,6,0,B|88:284|88:284|48:320,2,112,4|12|4,0:0|0:0|0:0,0:0:0:0:
168,164,48331,1,8,0:0:0:0:
256,192,48711,12,2,51369,0:0:0:0:
256,192,51749,12,4,53838,0:0:0:0:
232,168,54787,6,0,B|266:217|259:275,1,112,12|8,0:0|0:0,0:0:0:0:
160,220,55547,2,0,B|99:224|53:190,1,112,8|8,0:0|0:0,0:0:0:0:
148,132,56306,2,8,B|173:77|226:54,1,112
336,40,57066,2,0,B|392:36,2,56,8|0|8,0:0|0:0|0:0,0:0:0:0:
372,148,57825,5,12,0:0:0:0:
320,248,58205,1,8,0:0:0:0:
432,244,58585,2,0,B|488:256,2,56,8|0|8,0:0|0:0|0:0,0:0:0:0:
320,248,59344,2,0,B|264:248|212:276,1,112,8|8,0:0|0:0,0:0:0:0:
184,300,59914,1,0,0:0:0:0:
184,300,60104,2,0,B|128:300|84:252,1,112,8|8,0:0|0:0,0:0:0:0:
92,136,60863,6,0,B|96:92|96:92|108:72|108:72|112:28,1,112,12|8,0:0|0:0,0:0:0:0:
220,64,61622,2,8,B|224:108|224:108|236:128|236:128|240:172,1,112
352,152,62382,2,0,B|380:148|400:128,2,56,8|0|8,0:0|0:0|0:0,0:0:0:0:
408,248,63141,2,0,B|434:258|461:251,2,56,8|0|8,0:0|0:0|0:0,0:0:0:0:
332,332,63901,6,0,B|280:316|280:316|224:320,1,112,12|8,0:0|0:0,0:0:0:0:
112,304,64660,1,8,0:0:0:0:
72,200,65040,2,0,B|88:148|80:88,1,112,8|8,0:0|0:0,0:0:0:0:
176,28,65800,1,8,0:0:0:0:
284,52,66179,2,8,B|308:64|340:60,1,56,8|0,0:0|0:0,0:0:0:0:
368,36,66559,2,8,B|392:24|424:28,1,56
460,40,66939,6,0,B|480:88|472:156,1,112,4|8,0:0|0:0,0:0:0:0:
436,256,67698,1,0,0:0:0:0:
344,316,68078,1,8,0:0:0:0:
344,316,68268,2,0,B|288:308|288:308|240:332,1,112
200,340,68838,2,0,B|156:336|156:336|136:324|136:324|92:320,1,112,8|0,0:0|0:0,0:0:0:0:
64,292,69407,2,0,B|60:236,1,56,0|8,0:0|0:0,0:0:0:0:
84,128,69977,5,2,0:0:0:0:
188,84,70357,1,8,0:0:0:0:
296,108,70736,2,0,B|324:120|352:112,1,56
372,80,71116,2,0,B|400:132|392:192,1,112,8|2,0:0|0:0,0:0:0:0:
396,300,71876,2,0,B|452:292,2,56,8|0|2,0:0|0:0|0:0,0:0:0:0:
296,348,72635,1,8,0:0:0:0:
296,348,73015,6,0,B|240:344|240:344|188:320,1,112,4|8,0:0|0:0,0:0:0:0:
108,244,73774,2,0,B|84:192|108:136,1,112,0|8,0:0|0:0,0:0:0:0:
189,63,74534,2,0,B|240:40|240:40|296:36,1,112,2|8,0:0|0:0,0:0:0:0:
392,96,75293,2,0,B|448:104,2,56,2|0|8,0:0|0:0|0:0,0:0:0:0:
352,200,76053,5,4,0:0:0:0:
312,304,76433,1,12,0:0:0:0:
424,288,76812,1,0,0:0:0:0:
352,200,77192,1,8,0:0:0:0:
312,304,77572,2,0,B|236:284|180:332|180:332|136:316|136:264,2,224,2|8|4,0:0|0:0|0:0,0:0:0:0:
312,304,79850,5,4,0:0:0:0:
312,304,80610,2,0,B|368:296|412:260|444:212|452:144|448:84|416:28,1,336,4|0,0:0|0:0,0:0:0:0:
324,92,82129,6,2,B|307:69|278:58,2,56
232,160,82888,2,2,B|205:148|175:153,2,56
192,264,83648,6,2,B|163:267|139:286,6,56,2|2|2|2|2|2|4,0:0|0:0|0:0|0:0|0:0|0:0|0:0,0:0:0:0:
