osu file format v12

[General]
AudioFilename: BAKA Go Home (TV Size).mp3
AudioLeadIn: 2500
PreviewTime: 54736
Countdown: 0
SampleSet: Soft
StackLeniency: 0.7
Mode: 0
LetterboxInBreaks: 0

[Editor]
DistanceSpacing: 1.2
BeatDivisor: 4
GridSize: 4

[Metadata]
Title:BAKA Go Home (TV Size)
TitleUnicode:バカ・ゴー・ホーム (TV Size)
Artist:milktub
ArtistUnicode:milktub
Creator:12BARRY21
Version:Insane
Source:Baka to Test to Shoukanjuu
Tags:No_Gu Fumika Netsukawa bossandy boss Ending Idoit Summon Creatures Beasts Silver Link yoshii himeji shimada minami kinoshita hideyoshi sakamoto yuuji kirishima shouko tsuchiya バカとテストと召喚獣
BeatmapID:177940
BeatmapSetID:59356

[Difficulty]
HPDrainRate:7
CircleSize:4
OverallDifficulty:7
ApproachRate:9
SliderMultiplier:2.08
SliderTickRate:2

[Events]
//Background and Video events
0,0,"BAKA BG.jpg",0,0
Video,-192,"BAKA Ending.avi"
//Break Periods
//Storyboard Layer 0 (Background)
//Storyboard Layer 1 (Fail)
//Storyboard Layer 2 (Pass)
//Storyboard Layer 3 (Foreground)
//Storyboard Sound Samples
//Background Colour Transformations
3,100,163,162,255

[TimingPoints]
104,379.746835443038,4,2,2,55,1,0
1243,-100,4,2,2,45,0,0
1622,-100,4,2,2,70,0,1
1717,-100,4,2,2,70,0,0
4660,-100,4,1,1,70,0,0
6749,-200,4,1,1,65,0,0
7319,-200,4,2,2,70,0,0
7698,-100,4,2,2,70,0,0
10736,-100,4,1,1,70,0,0
12635,-200,4,1,1,65,0,0
13395,-100,4,2,1,75,0,0
13585,-100,4,2,1,65,0,0
13774,-100,4,2,2,55,0,0
19091,-100,4,2,2,65,0,0
19660,-100,4,2,2,40,0,0
19850,-100,4,2,2,55,0,0
22129,-100,4,2,2,35,0,0
22224,-100,4,2,2,25,0,0
22509,-100,4,2,2,55,0,0
24407,-100,4,2,2,65,0,0
25262,-100,4,2,2,45,0,0
25357,-100,4,2,2,50,0,0
25547,-100,4,2,2,55,0,0
25736,-100,4,2,2,60,0,0
25831,-100,4,2,2,65,0,0
25926,-100,4,2,2,70,0,0
31243,-100,4,2,2,75,0,0
31622,-100,4,2,2,50,0,0
32002,-100,4,2,2,70,0,0
36559,-100,4,2,2,75,0,0
36749,-100,4,2,2,55,0,0
36939,-100,4,2,2,45,0,0
37129,-100,4,2,2,60,0,0
37509,-100,4,2,2,35,0,0
37698,-100,4,2,2,50,0,0
38078,-100,4,2,2,70,0,0
38268,-100,4,2,2,50,0,0
38458,-100,4,2,2,70,0,0
38648,-100,4,2,2,60,0,0
38838,-100,4,1,1,80,0,0
39217,-100,4,1,1,70,0,0
39597,-133.333333333333,4,2,2,60,0,0
45293,-133.333333333333,4,2,2,50,0,0
45673,-133.333333333333,4,2,2,60,0,0
47572,-133.333333333333,4,2,2,50,0,0
47952,-133.333333333333,4,2,2,75,0,0
48331,-133.333333333333,4,2,2,65,0,0
48711,-80,4,1,1,75,0,0
53268,-80,4,2,1,60,0,0
53648,-80,4,2,1,70,0,0
54028,-80,4,2,1,80,0,0
54407,-50,4,2,1,100,0,0
54692,-50,4,2,1,60,0,0
54787,-100,4,2,1,80,0,1
65610,-100,4,2,1,60,0,1
66179,-100,4,2,2,60,0,1
66369,-100,4,2,2,65,0,1
66559,-100,4,2,2,70,0,1
66749,-100,4,2,2,75,0,1
66844,-100,4,2,2,80,0,0
66939,-100,4,2,2,75,0,1
72445,-100,4,2,2,65,0,1
73015,-100,4,2,2,75,0,1
77762,-100,4,2,2,60,0,1
78141,-100,4,2,2,55,0,1
78521,-100,4,2,2,45,0,1
78711,-100,4,2,2,35,0,1
79091,-100,4,2,2,75,0,1
79471,-100,4,2,2,65,0,1
79850,-100,4,2,2,75,0,1
80230,-100,4,2,2,65,0,1
80610,-100,4,2,2,75,0,1
80705,-100,4,2,2,50,0,1
81749,-100,4,2,2,30,0,1
82129,-100,4,1,1,75,0,0
84787,-100,4,1,1,80,0,0

[Colours]
Combo1 : 116,88,243
Combo2 : 240,70,74
Combo3 : 26,190,238
Combo4 : 44,182,113
Combo5 : 249,111,45

[HitObjects]
36,332,104,2,8,L|32:280,1,52
208,188,388,2,8,L|212:240,1,52
120,288,673,2,8,L|124:236,1,52
300,144,958,2,8,L|296:196,1,52
384,56,1243,6,8,B|436:60,3,52
456,80,1622,2,0,P|452:132|456:184,1,104,4|8,0:0|0:0,0:0:0:0:
368,336,2002,2,0,P|350:286|341:236,1,104,0|8,0:0|0:0,0:0:0:0:
168,204,2382,2,0,P|112:204|72:228,1,104,0|8,0:0|0:0,0:0:0:0:
36,324,2762,1,0,0:0:0:0:
140,300,2952,6,0,B|134:220|134:220|92:189|92:189|87:112,1,208,8|8,0:0|0:0,0:0:0:0:
196,48,3521,2,0,P|248:48|292:80,1,104,0|8,0:0|0:0,0:0:0:0:
396,144,3901,2,0,B|428:136|452:116|456:68,1,104,0|8,0:0|0:0,0:0:0:0:
460,32,4186,1,0,0:0:0:0:
456,69,4281,2,0,B|446:100|452:131|491:158,1,104,0|8,0:0|0:0,0:0:0:0:
436,280,4660,6,2,B|400:280|400:280|368:296|368:296|336:296,1,104,2|2,0:0|0:0,0:0:0:0:
76,104,5420,2,2,B|112:104|112:104|144:88|144:88|176:88,1,104,2|2,0:0|0:0,0:0:0:0:
44,288,6179,1,2,0:0:0:0:
196,332,6369,1,0,0:0:0:0:
196,332,6749,6,2,B|200:308|214:287|238:272|272:272|300:284|316:308,1,156,6|8,0:0|0:0,0:0:0:0:
325,332,7414,1,8,0:0:0:0:
346,346,7509,1,8,0:0:0:0:
371,349,7604,1,8,0:0:0:0:
396,342,7698,6,0,B|499:342,1,104,4|8,0:0|0:0,0:0:0:0:
468,146,8078,2,0,B|365:146,1,104,0|8,0:0|0:0,0:0:0:0:
380,244,8458,2,0,B|484:244,1,104,0|8,0:0|0:0,0:0:0:0:
452,48,8838,2,0,B|349:48,1,104,0|8,0:0|0:0,0:0:0:0:
212,104,9217,5,0,0:0:0:0:
79,200,9407,1,8,0:0:0:0:
97,85,9597,1,0,0:0:0:0:
193,218,9787,1,8,0:0:0:0:
212,104,9977,1,0,0:0:0:0:
79,200,10167,1,8,0:0:0:0:
68,228,10262,1,0,0:0:0:0:
56,256,10357,1,0,0:0:0:0:
44,284,10452,1,0,0:0:0:0:
32,312,10547,6,0,P|84:304|132:320,1,104,8|2,0:0|0:0,0:0:0:0:
292,364,10926,1,2,0:0:0:0:
380,64,11496,1,2,0:0:0:0:
220,20,11685,1,2,0:0:0:0:
131,319,12255,1,2,0:0:0:0:
292,364,12444,1,0,0:0:0:0:
292,364,12825,6,6,P|336:336|388:332,1,104,6|0,0:0|0:0,0:0:0:0:
416,360,13300,1,0,0:0:0:0:
412,320,13395,2,0,L|404:220,1,52,8|8,0:0|0:0,0:0:0:0:
480,272,13585,2,0,L|472:172,1,52,8|8,0:0|0:0,0:0:0:0:
432,160,13774,6,0,P|384:152|344:116,1,104,4|0,0:0|0:0,0:0:0:0:
392,24,14154,2,0,P|440:32|480:68,1,104,8|0,0:0|0:0,0:0:0:0:
296,36,14534,2,0,B|248:48|232:92|232:92|208:76|168:80,1,156
107,37,14914,2,0,P|96:92|124:140,1,104,8|0,0:0|0:0,0:0:0:0:
256,300,15293,6,0,P|204:292|152:308,1,104,2|0,0:0|0:0,0:0:0:0:
348,336,15673,2,0,L|452:332,1,104,8|0,0:0|0:0,0:0:0:0:
276,228,16053,2,0,B|232:212|196:216|152:220|120:240,1,156
76,292,16433,2,0,L|68:188,1,104,8|0,0:0|0:0,0:0:0:0:
88,84,16812,5,2,0:0:0:0:
196,120,17002,2,0,B|249:135|294:99,1,104,0|8,0:0|0:0,0:0:0:0:
228,32,17382,1,0,0:0:0:0:
192,212,17572,2,0,B|273:224|341:178,1,156
412,160,17952,2,0,B|472:164|508:204,1,104,8|0,0:0|0:0,0:0:0:0:
420,264,18331,5,2,0:0:0:0:
500,76,18521,1,0,0:0:0:0:
420,264,18711,1,8,0:0:0:0:
500,76,18901,1,0,0:0:0:0:
420,264,19091,2,0,B|372:284|372:336|372:336|316:312|256:340,1,208,4|12,0:0|0:0,0:0:0:0:
65,178,19660,5,8,0:0:0:0:
65,178,19755,1,8,0:0:0:0:
65,178,19850,2,0,P|114:187|168:168,1,104,4|0,0:0|0:0,0:0:0:0:
108,84,20230,1,8,0:0:0:0:
23,262,20420,1,0,0:0:0:0:
220,251,20610,1,0,0:0:0:0:
220,251,20705,1,8,0:0:0:0:
108,84,20895,2,0,L|104:24,1,52,0|8,0:0|0:0,0:0:0:0:
256,64,21179,6,0,B|360:72,1,104,0|2,0:0|0:0,0:0:0:0:
434,195,21559,1,0,0:0:0:0:
356,319,21749,1,8,0:0:0:0:
332,216,21939,1,0,0:0:0:0:
458,296,22129,1,8,0:0:0:0:
464,312,22224,1,8,0:0:0:0:
469,328,22319,1,8,0:0:0:0:
332,216,22509,2,0,P|278:219|234:243,1,104,8|0,0:0|0:0,0:0:0:0:
52,280,22888,6,0,P|92:300|152:296,1,104,2|0,0:0|0:0,0:0:0:0:
184,60,23268,2,0,P|144:40|84:44,1,104,8|0,0:0|0:0,0:0:0:0:
52,108,23553,2,0,B|72:140|116:152|156:152|196:132,1,156,8|0,0:0|0:0,0:0:0:0:
300,60,24028,1,8,0:0:0:0:
420,88,24217,1,0,0:0:0:0:
480,200,24407,5,4,0:0:0:0:
476,212,24597,1,0,0:0:0:0:
472,224,24787,1,8,0:0:0:0:
468,236,24977,6,8,B|312:256,1,156,4|8,0:0|0:0,0:0:0:0:
256,300,25357,2,8,B|204:296,5,52
144,336,25926,6,0,B|92:336|48:300,1,104,6|8,0:0|0:0,0:0:0:0:
104,152,26306,2,0,B|156:152|200:188,1,104,0|8,0:0|0:0,0:0:0:0:
308,156,26686,2,0,B|340:116|332:56,1,104,2|8,0:0|0:0,0:0:0:0:
292,68,26971,2,0,B|310:115|366:138,1,104
404,144,27255,2,0,B|460:144|488:196,1,104,8|2,0:0|0:0,0:0:0:0:
496,300,27635,5,8,0:0:0:0:
392,316,27825,1,0,0:0:0:0:
496,300,28015,1,8,0:0:0:0:
392,316,28205,2,0,B|352:316|352:316|328:328|328:328|292:328,1,104,2|8,0:0|0:0,0:0:0:0:
264,328,28490,1,0,0:0:0:0:
140,308,28679,2,0,B|128:360,2,52,0|8|0,0:0|0:0|0:0,0:0:0:0:
132,276,28964,6,0,B|105:269|83:247|77:215|83:190,1,104,2|8,0:0|0:0,0:0:0:0:
200,124,29344,2,0,B|207:149|199:180|175:201|150:208,1,104,0|8,0:0|0:0,0:0:0:0:
34,143,29724,2,0,B|52:123|83:115|113:125|132:143,1,104,2|8,0:0|0:0,0:0:0:0:
124,108,30009,1,0,0:0:0:0:
120,76,30104,1,0,0:0:0:0:
256,24,30293,1,8,0:0:0:0:
400,56,30483,6,0,B|408:160,1,104,2|8,0:0|0:0,0:0:0:0:
496,328,30863,2,0,B|488:224,1,104,0|8,0:0|0:0,0:0:0:0:
376,280,31243,2,4,B|272:308|276:248|172:276,1,208,4|12,0:0|0:0,0:0:0:0:
141,295,31717,1,8,0:0:0:0:
104,298,31812,1,8,0:0:0:0:
71,280,31907,1,8,0:0:0:0:
62,244,32002,6,0,B|56:188|96:148,1,104,4|8,0:0|0:0,0:0:0:0:
208,128,32382,2,0,B|260:124|292:72,1,104,0|8,0:0|0:0,0:0:0:0:
400,32,32762,2,0,B|408:135,1,104,2|8,0:0|0:0,0:0:0:0:
438,79,33047,2,0,B|419:181,1,104
461,137,33331,2,0,B|416:231,1,104,8|2,0:0|0:0,0:0:0:0:
313,245,33711,5,8,0:0:0:0:
328,349,33901,1,0,0:0:0:0:
432,335,34091,1,8,0:0:0:0:
313,245,34281,2,0,B|260:252|208:236,1,104,2|8,0:0|0:0,0:0:0:0:
192,252,34566,1,0,0:0:0:0:
172,268,34660,2,0,B|122:252|69:259,1,104,0|8,0:0|0:0,0:0:0:0:
112,356,35040,1,2,0:0:0:0:
128,148,35230,6,0,B|136:44,2,104,8|0|8,0:0|0:0|0:0,0:0:0:0:
232,148,35800,2,0,B|288:128|328:168,1,104,2|8,0:0|0:0,0:0:0:0:
327,167,36085,2,0,B|304:132|315:87|343:55|392:56,1,156,0|8,0:0|0:0,0:0:0:0:
492,132,36559,5,4,0:0:0:0:
472,256,36749,1,8,0:0:0:0:
468,280,36844,1,8,0:0:0:0:
464,304,36939,1,8,0:0:0:0:
460,328,37034,1,8,0:0:0:0:
456,352,37129,2,0,B|396:340|356:368|356:368|316:336|256:348,1,208,4|4,0:0|0:0,0:0:0:0:
96,356,37698,6,8,B|104:304,3,52
120,284,38078,1,4,0:0:0:0:
236,162,38268,1,8,0:0:0:0:
71,192,38458,1,8,0:0:0:0:
221,266,38648,1,4,0:0:0:0:
142,117,38838,6,0,B|128:84|144:48,2,69.3333333333333
208,84,39217,2,0,B|212:48|244:25,2,69.3333333333333
280,92,39597,6,0,B|312:76|356:72|396:84|428:112,1,156.000005950928,4|8,0:0|0:0,0:0:0:0:
388,216,40167,1,0,0:0:0:0:
388,216,40262,2,0,P|392:164|428:108,1,117.000004463196,8|0,0:0|0:0,0:0:0:0:
488,228,40736,2,0,P|484:280|468:300,1,78.000002975464,8|0,0:0|0:0,0:0:0:0:
232,332,41116,6,0,B|244:289|283:268|327:273|358:303,1,156.000005950928,2|8,0:0|0:0,0:0:0:0:
276,256,41686,2,0,L|268:216,1,39.000001487732,0|8,0:0|0:0,0:0:0:0:
104,296,41971,2,0,L|96:336,2,39.000001487732,8|0|0,0:0|0:0|0:0,0:0:0:0:
108,272,42255,2,0,P|76:244|68:208,1,78.000002975464,8|0,0:0|0:0,0:0:0:0:
164,60,42635,6,0,P|180:140|148:204,1,156.000005950928,2|8,0:0|0:0,0:0:0:0:
208,136,43205,1,0,0:0:0:0:
208,136,43300,2,0,B|324:128,1,117.000004463196,8|0,0:0|0:0,0:0:0:0:
412,48,43774,2,0,L|332:40,1,78.000002975464,8|0,0:0|0:0,0:0:0:0:
360,256,44154,6,0,P|420:228|448:148,1,156.000005950928,2|8,0:0|0:0,0:0:0:0:
360,256,44724,2,0,L|364:296,1,39.000001487732,0|8,0:0|0:0,0:0:0:0:
220,350,45009,2,0,L|224:312,1,39.000001487732,8|0,0:0|0:0,0:0:0:0:
180,188,45293,1,8,0:0:0:0:
148,184,45388,1,8,0:0:0:0:
116,188,45483,1,8,0:0:0:0:
88,200,45578,1,8,0:0:0:0:
68,224,45673,6,0,L|72:144,1,78.000002975464,4|0,0:0|0:0,0:0:0:0:
184,20,46053,2,0,L|187:97,1,78.000002975464,8|0,0:0|0:0,0:0:0:0:
260,124,46338,2,0,P|300:112|376:112,1,117.000004463196,8|0,0:0|0:0,0:0:0:0:
456,164,46812,1,8,0:0:0:0:
464,256,47002,1,0,0:0:0:0:
416,332,47192,5,6,0:0:0:0:
401,200,47382,1,0,0:0:0:0:
315,98,47572,1,12,0:0:0:0:
193,45,47762,1,0,0:0:0:0:
60,33,47952,1,4,0:0:0:0:
56,48,48331,1,8,0:0:0:0:
51,63,48711,6,0,B|68:112|56:156|56:156|76:188,1,130,2|2,0:0|0:0,0:0:0:0:
168,132,49091,1,2,0:0:0:0:
460,63,49471,2,0,B|444:112|456:156|456:156|436:188,1,130,2|2,0:0|0:0,0:0:0:0:
344,132,49850,1,2,0:0:0:0:
48,336,50230,5,2,0:0:0:0:
152,320,50420,1,2,0:0:0:0:
240,264,50610,1,2,0:0:0:0:
256,160,50800,1,2,0:0:0:0:
272,264,50990,1,2,0:0:0:0:
360,320,51179,1,2,0:0:0:0:
464,336,51369,1,2,0:0:0:0:
160,156,51749,6,0,B|152:96|204:64|204:64|200:40,1,130,2|2,0:0|0:0,0:0:0:0:
80,188,52129,1,2,0:0:0:0:
352,228,52509,2,0,B|360:288|308:320|308:320|312:344,1,130,2|2,0:0|0:0,0:0:0:0:
432,196,52888,1,2,0:0:0:0:
256,192,53268,5,4,0:0:0:0:
256,220,53648,1,4,0:0:0:0:
256,248,54028,1,4,0:0:0:0:
256,272,54407,6,0,P|288:372|244:316,1,312,4|8,0:0|0:0,0:0:0:0:
92,204,54787,6,0,P|104:160|152:132,1,104,12|0,0:0|0:0,0:0:0:0:
164,253,55167,1,8,0:0:0:0:
12,128,55357,1,0,0:0:0:0:
200,64,55547,2,0,P|255:66|299:90,1,104,8|0,0:0|0:0,0:0:0:0:
387,162,55926,2,0,P|332:164|288:188,1,104,8|0,0:0|0:0,0:0:0:0:
292,292,56306,6,0,B|444:256,1,156,8|0,0:0|0:0,0:0:0:0:
440,332,56686,2,0,B|304:364,1,104,8|0,0:0|0:0,0:0:0:0:
344,180,57066,1,8,0:0:0:0:
465,166,57255,1,0,0:0:0:0:
452,43,57445,1,8,0:0:0:0:
330,56,57635,1,0,0:0:0:0:
344,180,57825,6,0,B|260:204|192:160,1,156,12|0,0:0|0:0,0:0:0:0:
164,67,58205,2,0,B|204:107|194:161,1,104,8|0,0:0|0:0,0:0:0:0:
60,244,58585,2,0,B|52:160,1,52,8|0,0:0|0:0,0:0:0:0:
144,280,58869,2,0,B|152:364,1,52,0|8,0:0|0:0,0:0:0:0:
272,304,59154,5,0,0:0:0:0:
272,304,59344,2,0,B|320:280|376:288,1,104,8|0,0:0|0:0,0:0:0:0:
404,300,59629,1,0,0:0:0:0:
420,324,59724,2,0,L|412:220,1,104,8|0,0:0|0:0,0:0:0:0:
332,60,60104,2,0,B|323:95|323:95|333:125|333:125|325:161,1,104,8|0,0:0|0:0,0:0:0:0:
421,116,60483,2,0,B|429:80|429:80|419:50|419:50|427:14,1,104,8|0,0:0|0:0,0:0:0:0:
216,148,60863,6,0,B|168:156|100:140|68:88,1,156,12|0,0:0|0:0,0:0:0:0:
124,44,61243,2,0,B|156:88|220:72,1,104,8|0,0:0|0:0,0:0:0:0:
152,284,61622,2,0,B|120:240|56:256,2,104,8|0|8,0:0|0:0|0:0,0:0:0:0:
268,360,62192,5,0,0:0:0:0:
268,360,62382,2,0,B|371:347,1,104,8|0,0:0|0:0,0:0:0:0:
379,322,62667,1,0,0:0:0:0:
387,296,62762,2,0,B|490:283,1,104,8|0,0:0|0:0,0:0:0:0:
424,188,63141,1,8,0:0:0:0:
409,19,63331,1,0,0:0:0:0:
322,163,63521,1,8,0:0:0:0:
477,98,63711,1,0,0:0:0:0:
313,60,63901,6,0,B|244:24|232:64|160:28,1,156,12|0,0:0|0:0,0:0:0:0:
92,48,64281,2,0,B|96:112|64:148,1,104,8|0,0:0|0:0,0:0:0:0:
4,244,64660,2,0,B|37:285|96:278,1,104,8|0,0:0|0:0,0:0:0:0:
136,268,64945,1,0,0:0:0:0:
97,278,65040,2,0,B|44:286|20:340,1,104,8|0,0:0|0:0,0:0:0:0:
248,352,65420,6,0,B|300:360|352:336,1,104,8|8,0:0|0:0,0:0:0:0:
412,300,65705,2,8,B|436:288|464:292,4,52
348,264,66179,5,8,0:0:0:0:
352,240,66274,1,8,0:0:0:0:
356,216,66369,1,8,0:0:0:0:
360,192,66464,1,8,0:0:0:0:
364,168,66559,1,8,0:0:0:0:
368,144,66654,1,8,0:0:0:0:
372,120,66749,1,8,0:0:0:0:
376,96,66844,1,8,0:0:0:0:
380,72,66939,6,0,B|344:36|344:36|292:24,1,104,6|8,0:0|0:0,0:0:0:0:
188,96,67319,2,0,B|161:143|174:199,1,104,0|8,0:0|0:0,0:0:0:0:
224,288,67698,2,0,B|195:240|140:223,1,104,2|8,0:0|0:0,0:0:0:0:
40,224,68078,2,0,B|94:222|136:184,1,104,0|8,0:0|0:0,0:0:0:0:
52,124,68458,5,2,0:0:0:0:
128,324,68648,1,8,0:0:0:0:
268,160,68838,2,0,B|300:120|356:112,1,104,0|8,0:0|0:0,0:0:0:0:
440,176,69217,1,2,0:0:0:0:
444,280,69407,2,0,B|412:320|356:328,1,104,8|0,0:0|0:0,0:0:0:0:
272,264,69787,1,8,0:0:0:0:
172,232,69977,6,0,B|68:228,1,104,2|8,0:0|0:0,0:0:0:0:
40,328,70357,2,0,B|144:332,1,104,0|8,0:0|0:0,0:0:0:0:
168,116,70736,6,0,P|172:60|136:24,1,104,2|8,0:0|0:0,0:0:0:0:
68,48,71021,2,0,P|64:104|94:137,1,104
168,116,71306,1,8,0:0:0:0:
352,140,71496,6,0,B|352:108|352:108|368:76|368:76|368:40,1,104,2|8,0:0|0:0,0:0:0:0:
280,120,71781,2,0,B|280:156|280:156|296:188|296:188|296:220,1,104,0|0,0:0|0:0,0:0:0:0:
292,44,72066,1,8,0:0:0:0:
448,108,72255,5,2,0:0:0:0:
480,208,72445,1,8,0:0:0:0:
476,244,72540,1,8,0:0:0:0:
463,278,72635,1,8,0:0:0:0:
437,304,72730,1,8,0:0:0:0:
403,318,72825,1,8,0:0:0:0:
366,322,72920,1,8,0:0:0:0:
330,315,73015,6,0,B|272:300|232:336,1,104,6|8,0:0|0:0,0:0:0:0:
84,288,73395,2,0,B|142:303|182:267,1,104,0|8,0:0|0:0,0:0:0:0:
182,117,73774,2,0,B|142:81|84:96,1,104,2|8,0:0|0:0,0:0:0:0:
232,48,74154,2,0,B|272:84|330:69,1,104,0|8,0:0|0:0,0:0:0:0:
444,176,74534,5,2,0:0:0:0:
361,297,74724,1,8,0:0:0:0:
341,195,74914,1,0,0:0:0:0:
463,278,75104,1,8,0:0:0:0:
327,292,75293,5,2,0:0:0:0:
480,181,75483,1,8,0:0:0:0:
348,160,75673,1,0,0:0:0:0:
458,314,75863,1,8,0:0:0:0:
327,292,76053,6,0,B|212:272|124:324,2,208,6|6|0,0:0|0:0|0:0,0:0:0:0:
208,192,77002,1,8,0:0:0:0:
56,160,77192,1,0,0:0:0:0:
156,40,77382,1,8,0:0:0:0:
208,192,77572,1,0,0:0:0:0:
288,96,77762,5,8,0:0:0:0:
296,56,77857,1,8,0:0:0:0:
304,16,77952,1,8,0:0:0:0:
352,180,78141,5,8,0:0:0:0:
383,178,78236,1,8,0:0:0:0:
411,191,78331,1,8,0:0:0:0:
430,216,78426,1,8,0:0:0:0:
436,246,78521,1,8,0:0:0:0:
428,276,78616,1,8,0:0:0:0:
405,298,78711,1,8,0:0:0:0:
375,306,78806,1,8,0:0:0:0:
344,299,78901,1,8,0:0:0:0:
319,279,78996,1,8,0:0:0:0:
309,249,79091,6,0,B|255:241|207:265,1,104,6|0,0:0|0:0,0:0:0:0:
259,125,79471,2,0,B|208:145|178:189,1,104,4|0,0:0|0:0,0:0:0:0:
151,41,79850,2,0,B|117:83|113:137,1,104,6|0,0:0|0:0,0:0:0:0:
15,25,80230,2,0,B|6:79|31:126,1,104,4|0,0:0|0:0,0:0:0:0:
79,253,80610,5,4,0:0:0:0:
256,192,80705,12,0,81749,0:0:0:0:
156,56,82129,5,2,0:0:0:0:
312,40,82319,1,2,0:0:0:0:
468,24,82509,1,2,0:0:0:0:
356,328,82888,5,2,0:0:0:0:
200,344,83078,1,2,0:0:0:0:
44,360,83268,1,2,0:0:0:0:
213,251,83648,5,2,0:0:0:0:
224,125,83838,1,2,0:0:0:0:
327,198,84028,1,2,0:0:0:0:
110,182,84217,5,2,0:0:0:0:
339,69,84407,1,2,0:0:0:0:
315,321,84597,1,2,0:0:0:0:
256,192,84787,5,4,0:0:0:0:
