osu file format v6

[General]
AudioFilename: undefined.mp3
AudioLeadIn: 0
PreviewTime: -1
Countdown: 0
SampleSet: None
StackLeniency: 1
Mode: 0
LetterboxInBreaks: 1

[Editor]
Bookmarks: 29102,29536,29970,33439,36041,36909,39547,40849,42152,42595,43020,45637,48238,53449,73425,97734
DistanceSpacing: 2
BeatDivisor: 2
GridSize: 32

[Metadata]
Title:Bad Apple!!--PV
Artist:milk761127
Creator:milk761127
Version:
Source:
Tags:

[Difficulty]
HPDrainRate:0
CircleSize:3
OverallDifficulty:3
SliderMultiplier:1.4
SliderTickRate:0.5

[Events]
//Background and Video events
Video,0,"【東方】Bad Apple!! PV【影_】_白_反______動_(9)-4.avi"
//Break Periods
2,56687,69375
2,111936,125085
2,181501,194644
//Storyboard Layer 0 (Background)
//Storyboard Layer 1 (Fail)
//Storyboard Layer 2 (Pass)
//Storyboard Layer 3 (Foreground)
//Storyboard Sound Samples
//Background Colour Transformations
3,100,128,255,128

[TimingPoints]
29128,434.782608695652,4,0,0,100,1,0
84267,-200,4,0,0,100,0,0
96441,-100,4,0,0,100,0,0
125329,-100,4,0,0,100,0,0
195649,-200,4,0,0,100,0,0
196084,-200,4,0,0,100,0,0
205649,-100,4,0,0,100,0,0

[HitObjects]
64,128,29135,6,8,B|160:128,1,70
192,128,29569,2,8,B|288:128,1,70
320,128,30003,2,8,B|320:288,1,140
432,264,30872,1,2
432,152,31306,1,2
320,152,31740,1,2
208,152,32174,1,2
96,152,32608,6,8,B|96:56,1,70
152,80,33042,1,8
152,136,33259,2,8,B|152:224,1,70
80,288,33911,5,10
184,320,34345,1,10
296,328,34779,1,10
392,264,35213,1,2
440,160,35647,1,2
344,96,36082,6,8,B|288:40,1,70
256,88,36516,2,8,B|176:96,1,70
152,48,36950,1,8
56,104,37384,1,2
48,216,37818,1,2
104,312,38252,1,2
216,336,38687,1,2
328,304,39121,1,2
432,264,39555,6,8,B|368:192,1,70
344,168,39989,2,8,B|280:96,1,70
240,112,40423,1,8
128,120,40857,6,8,B|128:24,1,70
80,88,41292,2,8,B|80:184,1,70
128,176,41726,2,8,B|128:256,1,70
184,240,42160,6,0,B|264:240,5,46.6666666666667
272,240,43028,5,8
272,128,43462,1,8
208,40,43897,1,8
96,72,44331,1,8
64,176,44765,1,8
88,288,45199,1,8
192,328,45633,2,8,B|248:264,1,70
280,312,46067,2,8,B|336:240,1,70
304,200,46502,1,8
352,96,46936,5,8
256,40,47370,1,8
152,72,47804,1,8
88,168,48238,2,8,B|72:248,2,70
144,176,48890,2,8,B|168:248,2,70
200,184,49541,2,8,B|272:248,1,70
304,208,49975,2,8,B|376:216,1,70
384,160,50409,5,0
352,112,50626,1,0
304,80,50843,1,0
48,256,51277,5,0
160,256,51712,1,0
272,256,52146,1,0
160,256,52580,1,0
48,256,53014,1,0
160,256,53448,6,8,B|224:208,1,70
224,288,53876,2,8,B|288:320,1,70
272,248,54317,2,8,B|344:208,1,70
328,272,54751,2,8,B|408:304,1,70
448,296,55185,6,4,B|448:136,1,140
448,48,56053,2,4,B|448:208,1,140
64,96,70815,6,4,B|192:192,1,140
256,192,71466,2,4,B|256:120,1,70
448,96,72118,6,4,B|320:192,1,140
256,192,72769,2,4,B|160:192,3,70
64,248,73854,6,8,B|128:288,1,70
160,288,74288,2,8,B|256:288,1,70
288,288,74723,2,8,B|384:288,1,70
416,288,75157,1,8
480,96,75591,6,8,B|416:64,1,70
384,64,76025,2,8,B|288:64,1,70
256,64,76459,2,8,B|160:64,1,70
128,64,76893,1,8
64,256,77328,6,8,B|128:288,1,70
160,288,77762,2,8,B|256:288,1,70
288,288,78196,2,8,B|384:288,1,70
416,288,78630,1,8
448,96,79064,6,8,B|384:64,1,70
320,64,79498,2,8,B|224:64,1,70
192,64,79933,2,8,B|96:64,1,70
64,64,80367,1,8
256,192,81018,12,4,83910
96,72,84702,6,0,B|96:168,2,70
256,72,86445,6,0,B|256:168,2,70
416,72,88182,6,0,B|416:168,2,70
416,272,89919,6,0,B|416:344,2,70
256,264,91659,6,0,B|256:352,2,70
96,264,93392,6,0,B|96:360,2,70
96,72,95129,6,0,B|96:184,2,70
80,248,96959,6,0,B|152:248,1,70
200,248,97393,1,0
248,248,97610,2,0,B|328:248,1,70
408,328,98262,6,0,B|440:264,1,70
448,216,98696,2,0,B|448:120,1,70
432,96,99130,2,0,B|400:32,1,70
352,40,99564,1,0
96,48,99999,6,0,B|64:112,1,70
64,160,100433,2,0,B|64:256,1,70
64,280,100867,2,0,B|96:344,1,70
152,352,101301,1,0
416,352,101736,6,0,B|448:288,1,70
448,232,102170,1,0
448,168,102388,2,0,B|416:104,1,70
384,64,102822,1,0
328,32,103039,1,0
96,32,103475,6,0,B|64:96,1,70
64,152,103909,1,0
64,216,104126,2,0,B|96:280,1,70
128,320,104560,1,0
184,352,104778,1,0
384,320,105214,5,0
448,280,105431,1,0
384,256,105648,2,0,B|448:192,1,70
384,160,106082,1,0
448,136,106299,1,0
384,96,106516,1,0
128,64,106954,5,0
64,104,107171,1,0
128,128,107389,2,0,B|64:192,1,70
128,224,107823,1,0
64,248,108040,1,0
128,288,108257,1,0
256,192,108693,12,2,111736
96,104,126525,5,2
208,104,126959,1,2
320,104,127394,1,2
440,272,128262,1,2
328,272,128696,1,2
216,272,129130,1,2
104,272,129564,1,2
192,200,129997,6,8,B|272:144,1,70
280,208,130431,2,8,B|344:160,1,70
384,136,130865,1,8
384,264,131301,5,0
280,312,131735,1,0
168,320,132169,1,0
80,248,132604,1,0
56,136,133038,1,0
152,80,133475,6,8,B|232:56,1,70
232,112,133909,2,8,B|320:80,1,70
352,72,134343,1,8
424,232,134780,1,8
424,232,134998,1,8
424,232,135215,1,8
192,232,135653,6,0,B|208:144|256:120|288:120,1,140
312,192,136304,2,0,B|312:264,1,70
256,256,136738,1,8
200,256,136955,1,8
144,256,137172,1,8
88,256,137389,1,8
88,200,137607,1,8
88,144,137824,2,8,B|248:144,1,140
280,144,138475,6,8,B|352:144,1,70
464,192,139128,5,4
256,320,139562,5,4
72,192,139996,5,4
256,192,140432,6,0,B|256:120,3,70
256,64,141300,1,0
368,64,141736,1,0
408,104,141953,1,0
448,144,142170,1,0
448,256,142610,1,0
296,312,143044,5,0
264,272,143261,1,0
288,320,143478,1,0
256,280,143695,1,0
280,328,143912,1,0
248,288,144129,1,0
208,248,144346,5,0
152,240,144563,1,0
96,248,144780,1,0
72,144,145219,2,8,B|136:96,1,70
152,152,145653,2,8,B|232:168,1,70
216,112,146087,2,8,B|288:88,1,70
296,144,146521,2,8,B|368:168,1,70
368,112,146955,2,8,B|440:88,2,70
368,168,147606,5,0
368,224,147824,1,0
368,280,148041,1,0
312,280,148258,1,0
200,280,148693,2,0,B|112:280,1,70
128,224,149127,1,0
88,120,149562,1,0
184,64,149998,2,0,B|264:48,1,70
312,56,150433,1,0
360,80,150650,2,0,B|448:120,1,70
448,160,151084,1,8
456,216,151301,2,8,B|448:296,1,70
392,296,151736,6,8,B|240:296,1,140
248,240,152387,1,8
192,240,152604,1,8
448,192,153041,5,4
64,192,153475,5,4
448,192,153909,5,4
168,56,154345,5,8
264,80,154562,1,8
344,136,154779,1,8
408,208,154996,1,8
448,296,155213,1,8
352,336,155649,5,8
256,312,155866,1,8
192,240,156083,1,8
184,144,156300,1,8
248,72,156517,1,8
344,40,156734,1,8
440,64,156951,1,8
472,184,157388,5,8
408,112,157605,1,8
328,56,157822,1,8
232,48,158040,1,8
136,80,158257,1,8
80,160,158474,1,8
64,256,158691,1,8
168,224,159128,5,8
248,280,159345,1,8
344,304,159562,1,8
440,280,159779,1,8
496,200,159996,1,8
496,104,160213,1,8
424,40,160430,1,8
144,48,160867,5,8
232,88,161084,1,8
296,160,161301,1,8
344,248,161518,2,8,B|320:336,1,70
232,328,161952,2,8,B|144:320,1,70
51,261,162606,5,8
75,166,162823,1,8
144,96,163040,2,8,B|198:43,1,70
292,47,163475,2,8,B|392:71,1,70
429,132,163909,1,12
433,271,164345,5,0
344,304,164562,1,0
248,328,164779,1,0
152,312,164996,1,0
72,248,165213,1,0
64,152,165430,1,0
104,64,165647,1,0
304,48,166084,5,0
368,120,166301,1,0
392,216,166518,1,0
344,304,166735,1,0
248,328,166952,1,0
168,272,167169,1,0
152,176,167388,2,0,B|184:112|256:112|256:224,1,140
328,272,168258,6,4,B|384:296|464:248|456:152,1,140
344,64,169127,2,4,B|296:40|224:64|216:168,1,140
328,272,169997,2,4,B|384:296|464:248|456:152,1,140
344,64,170867,2,4,B|296:40|224:64|216:168,1,140
344,168,171519,1,8
344,168,171736,1,8
344,168,171954,2,8,B|312:200|280:200|272:192,1,70
224,192,172388,6,8,B|200:208|160:192|144:160,1,70
256,88,173041,2,0,B|336:88,1,70
256,88,173475,2,0,B|256:168,1,70
256,88,173910,2,0,B|168:88,1,70
184,96,174345,1,0
120,216,174780,6,0,B|88:280,1,70
168,328,175214,2,0,B|256:344,1,70
328,320,175649,2,0,B|376:256,1,70
416,184,176084,1,0
256,128,176519,6,0,B|184:88,2,70
224,192,177171,2,0,B|144:192,2,70
288,192,177823,1,0
256,192,178258,12,0,181301
88,120,196084,6,0,B|88:280,1,140
424,264,197823,2,0,B|424:104,1,140
184,64,199562,2,0,B|344:64,1,140
320,304,201301,2,0,B|160:304,1,140
360,48,203041,2,0,B|496:168,1,140
168,336,204780,2,0,B|48:200,1,140
256,192,206084,5,0
256,32,206301,1,0
256,192,206519,1,0
448,192,206736,5,0
256,192,206954,1,0
64,192,207171,1,0
256,192,207388,5,0
256,352,207606,1,0
256,192,207823,1,0
256,192,208041,1,0
256,192,208258,1,0
256,192,208475,12,0,209997
