osu file format v14

[General]
AudioFilename: Miku - Suki Suki Suki Suki Suki Suki Suki Suki Suki - VOCALOID.mp3
AudioLeadIn: 0
PreviewTime: -1
Countdown: 1
SampleSet: Soft
StackLeniency: 0.7
Mode: 0
LetterboxInBreaks: 1
WidescreenStoryboard: 0

[Editor]
DistanceSpacing: 0.5
BeatDivisor: 4
GridSize: 32
TimelineZoom: 1

[Metadata]
Title:suki x9
TitleUnicode:suki x9
Artist:miku
ArtistUnicode:miku
Creator:imbadatosulol
Version:harder than his ;)
Source:
Tags:
BeatmapID:1420542
BeatmapSetID:671940

[Difficulty]
HPDrainRate:5
CircleSize:4
OverallDifficulty:3
ApproachRate:5
SliderMultiplier:1.6
SliderTickRate:1

[Events]
//Background and Video events
0,0,"pretty_sexy.png",0,0
//Break Periods
//Storyboard Layer 0 (Background)
//Storyboard Layer 1 (Fail)
//Storyboard Layer 2 (Pass)
//Storyboard Layer 3 (Foreground)
//Storyboard Sound Samples

[TimingPoints]
1445.00248035425,666.666666666667,4,2,0,100,1,0

[HitObjects]
256,192,1278,5,0,0:0:0:0:
256,192,3778,5,0,0:0:0:0:
256,224,3945,1,4,0:0:0:0:
256,192,6611,1,0,0:0:0:0:
128,128,7278,5,0,0:0:0:0:
192,128,7611,2,0,L|288:128,1,80
128,192,9278,6,0,L|384:192,1,240
256,192,10611,12,0,11589,0:0:0:0:
96,128,11945,5,0,0:0:0:0:
160,128,12278,1,0,0:0:0:0:
256,128,12611,2,0,L|352:128,1,80
256,224,13278,5,0,0:0:0:0:
192,224,13611,1,0,0:0:0:0:
96,224,13945,2,0,L|0:224,1,80
128,160,15945,1,0,0:0:0:0:
160,160,16111,1,4,0:0:0:0:
192,160,16278,1,0,0:0:0:0:
320,160,17278,5,0,0:0:0:0:
160,160,18611,1,0,0:0:0:0:
256,288,19945,1,0,0:0:0:0:
256,192,21278,12,0,22608,0:0:0:0:
160,96,23445,5,0,0:0:0:0:
64,128,23778,1,0,0:0:0:0:
64,128,23945,1,0,0:0:0:0:
160,192,24611,5,0,0:0:0:0:
96,192,24945,1,0,0:0:0:0:
128,256,25278,2,0,L|192:256,1,80
128,320,25778,2,0,L|192:320,3,40
256,96,26611,5,0,0:0:0:0:
352,192,26945,2,0,L|352:288,1,80
192,192,27945,5,0,0:0:0:0:
256,192,28278,1,0,0:0:0:0:
224,224,28611,1,0,0:0:0:0:
288,224,28945,1,0,0:0:0:0:
64,96,29278,5,0,0:0:0:0:
160,96,29611,1,0,0:0:0:0:
256,96,29945,1,0,0:0:0:0:
352,96,30278,1,0,0:0:0:0:
128,128,30945,6,0,L|192:128,1,80
224,128,31445,2,0,L|288:128,2,40
256,192,32111,12,0,34278,0:0:0:0:
128,96,34945,5,0,0:0:0:0:
224,96,35278,2,0,L|320:96,2,80
224,192,36278,2,0,L|224:288,2,80
448,96,37278,5,0,0:0:0:0:
352,192,37611,1,0,0:0:0:0:
256,96,37945,1,0,0:0:0:0:
160,192,38278,1,0,0:0:0:0:
96,288,38611,2,0,L|160:288|192:288,2,80
256,192,39945,5,0,0:0:0:0:
256,96,40278,2,0,L|160:96,2,80
352,192,41278,1,0,0:0:0:0:
352,288,41611,2,0,L|256:288,2,80
192,128,42611,6,0,L|352:224,2,160
256,192,45278,5,4,0:0:0:0:
128,64,45611,5,0,0:0:0:0:
192,64,45778,2,0,L|288:64,1,80
320,64,46278,1,0,0:0:0:0:
384,64,46445,2,0,L|384:160,2,80
64,256,47778,6,0,P|96:288|128:288,1,80
192,288,48445,2,0,P|224:288|256:256,1,80
224,192,49111,2,0,L|128:192,1,80
96,192,49778,1,4,0:0:0:0:
192,256,50445,6,0,L|256:256,1,40
192,192,51111,2,0,L|256:192,1,40
192,128,51778,2,0,L|192:64,1,40
288,96,52111,1,0,0:0:0:0:
288,128,52278,1,0,0:0:0:0:
288,160,52445,1,0,0:0:0:0:
288,192,52611,5,4,0:0:0:0:
192,288,53278,6,0,L|384:288,2,160
256,288,55278,5,4,0:0:0:0:
256,192,55945,12,0,60269,0:0:0:0:
32,224,61278,6,0,L|96:224,1,40
96,128,61611,1,0,0:0:0:0:
160,128,61778,1,0,0:0:0:0:
192,224,61945,6,0,L|256:224,1,40
256,128,62278,1,0,0:0:0:0:
256,160,62445,1,0,0:0:0:0:
192,224,62945,6,0,L|96:224,1,80
320,128,63945,5,0,0:0:0:0:
320,160,64111,1,0,0:0:0:0:
320,224,64278,2,0,L|320:288,1,40
192,288,64611,1,0,0:0:0:0:
160,288,64778,1,0,0:0:0:0:
128,288,64945,1,0,0:0:0:0:
224,128,65278,2,4,L|32:128,1,160
256,128,66611,1,0,0:0:0:0:
256,128,66778,1,0,0:0:0:0:
256,224,66945,2,0,L|256:288,1,40
160,256,67278,1,0,0:0:0:0:
160,256,67445,1,0,0:0:0:0:
96,256,67611,2,0,L|32:256,1,40
224,256,68278,2,0,L|320:256,2,80
288,128,69278,5,0,0:0:0:0:
288,128,69445,1,0,0:0:0:0:
192,96,69611,6,0,L|192:160,1,40
192,192,69945,1,0,0:0:0:0:
128,192,70111,1,0,0:0:0:0:
192,256,70278,1,0,0:0:0:0:
128,256,70611,2,4,L|128:352,2,80
96,96,71945,6,0,L|416:96,1,320
416,96,73278,2,0,L|96:96,1,320
96,128,74778,5,0,0:0:0:0:
128,160,74945,1,0,0:0:0:0:
160,128,75111,1,0,0:0:0:0:
192,160,75278,1,0,0:0:0:0:
224,128,75445,1,0,0:0:0:0:
256,160,75611,1,0,0:0:0:0:
288,128,75778,1,0,0:0:0:0:
256,320,75945,6,0,L|256:224,1,80
256,160,76611,1,0,0:0:0:0:
256,32,76945,5,10,0:0:0:0:
256,64,77278,5,0,0:0:0:0:
128,288,77611,1,0,0:0:0:0:
384,288,77945,1,0,0:0:0:0:
224,128,78278,2,0,L|320:128,3,80
160,224,79945,1,0,0:0:0:0:
192,224,80111,1,0,0:0:0:0:
224,224,80278,1,0,0:0:0:0:
256,224,80445,1,0,0:0:0:0:
320,224,80611,6,0,L|320:128,1,80
256,192,81445,12,0,82612,0:0:0:0:
256,192,82945,5,0,0:0:0:0:
160,192,83278,1,0,0:0:0:0:
160,288,83611,1,0,0:0:0:0:
256,288,83945,1,0,0:0:0:0:
160,96,84278,2,0,L|256:96,2,80
96,224,85278,1,4,0:0:0:0:
192,224,85611,1,4,0:0:0:0:
288,224,85945,1,2,0:0:0:0:
384,224,86278,1,4,0:0:0:0:
160,96,86611,6,0,L|224:96,3,40
320,96,87278,2,0,L|256:96,3,40
320,160,87945,2,0,L|160:160,1,160
160,224,88945,2,0,L|320:224,1,160
160,224,90611,2,0,B|192:192|256:224|256:224|320:192,1,160
256,192,91945,12,0,93279,0:0:0:0:
256,192,93611,5,0,0:0:0:0:
256,256,93945,2,0,L|320:256,1,40
96,64,95445,5,0,0:0:0:0:
128,64,95611,1,0,0:0:0:0:
160,64,95778,1,0,0:0:0:0:
256,64,95945,2,0,L|320:64,2,40
256,128,96445,1,0,0:0:0:0:
416,192,96778,5,0,0:0:0:0:
384,192,96945,1,0,0:0:0:0:
352,192,97111,1,0,0:0:0:0:
256,192,97278,2,0,L|192:192,2,40
256,256,97945,2,0,L|320:256,1,40
256,64,98445,5,0,0:0:0:0:
224,128,98611,2,0,L|320:128,2,80
320,192,99945,2,0,L|224:192,2,80
128,288,101278,5,0,0:0:0:0:
224,288,101445,2,0,L|320:288,1,80
320,288,101945,2,0,L|416:224,1,80
192,160,102611,2,0,L|288:160,2,80
128,64,103945,5,0,0:0:0:0:
160,64,104111,1,0,0:0:0:0:
224,64,104278,2,0,L|288:64,2,40
288,160,105278,5,0,0:0:0:0:
256,160,105445,1,0,0:0:0:0:
192,160,105611,2,0,L|128:160,2,40
64,128,106611,6,0,L|128:64,1,80
128,64,106945,2,0,L|224:64,1,80
224,64,107278,2,0,L|320:64,1,80
320,64,107611,2,0,L|384:128,1,80
384,128,107945,2,0,L|320:192,1,80
320,192,108278,2,0,L|224:192,1,80
224,192,108611,2,0,L|128:192,1,80
128,192,108945,2,0,L|64:128,1,80
224,128,109611,5,0,0:0:0:0:
224,224,109945,2,0,L|224:288|224:320,2,80
160,224,110945,1,0,0:0:0:0:
288,224,111278,1,4,0:0:0:0:
96,96,111778,5,0,0:0:0:0:
192,96,112111,1,0,0:0:0:0:
192,96,112278,1,0,0:0:0:0:
192,96,112445,1,0,0:0:0:0:
416,224,112778,5,0,0:0:0:0:
352,224,112945,2,0,L|288:224,1,40
256,224,113445,1,0,0:0:0:0:
256,224,113611,1,0,0:0:0:0:
256,224,113778,1,0,0:0:0:0:
64,128,114111,5,0,0:0:0:0:
160,128,114278,2,0,L|224:128,1,40
256,128,114611,1,0,0:0:0:0:
416,128,114945,1,0,0:0:0:0:
416,256,115278,1,0,0:0:0:0:
64,288,115945,5,0,0:0:0:0:
128,224,116111,1,0,0:0:0:0:
192,288,116278,1,0,0:0:0:0:
256,224,116445,1,0,0:0:0:0:
320,288,116611,1,0,0:0:0:0:
384,224,116778,1,0,0:0:0:0:
448,288,116945,1,12,0:0:0:0:
384,288,117278,1,4,0:0:0:0:
