osu file format v13

[General]
AudioFilename: 47.mp3
AudioLeadIn: 0
PreviewTime: 78145
Countdown: 0
SampleSet: None
StackLeniency: 0.9
Mode: 0
LetterboxInBreaks: 0
WidescreenStoryboard: 0

[Editor]
Bookmarks: 704,23029,34192,56517,73262,78843,101169,112331,134657,156983,176517,190471,217680,229541,237913,265820
DistanceSpacing: 0.9
BeatDivisor: 2
GridSize: 4
TimelineZoom: 1.1

[Metadata]
Title:Yonjuunana
TitleUnicode:ヨンジュウナナ
Artist:mikitoP
ArtistUnicode:みきとP
Creator:blackabyss
Version:Normal
Source:
Tags:Hatsune Miku 初音ミク 47 Fourty-Seven Vocaloid sequel CHRIS Kihhou Teru21
BeatmapID:431965
BeatmapSetID:171885

[Difficulty]
HPDrainRate:5
CircleSize:3.5
OverallDifficulty:5
ApproachRate:5
SliderMultiplier:1.2
SliderTickRate:1

[Events]
//Background and Video events
0,0,"41129295e.jpg",0,0
//Break Periods
2,23229,32643
2,101368,110783
2,179507,186480
//Storyboard Layer 0 (Background)
//Storyboard Layer 1 (Fail)
//Storyboard Layer 2 (Pass)
//Storyboard Layer 3 (Foreground)
//Storyboard Sound Samples
//Background Colour Transformations
3,100,163,162,255

[TimingPoints]
704,348.837209302326,4,2,1,30,1,0
17448,-100,4,1,2,45,0,0
56517,-100,4,3,1,45,0,0
73262,-100,4,1,2,45,0,0
76052,-100,4,3,1,45,0,0
78843,-100,4,1,1,65,0,1
101169,-100,4,1,2,45,0,0
134657,-100,4,3,1,45,0,0
150355,-100,4,1,2,45,0,0
155238,-100,4,2,1,30,0,0
156983,-100,4,1,1,70,0,1
176517,-100,4,1,1,45,0,0
179308,-100,4,1,1,35,0,0
201634,-100,4,1,2,45,0,0
217680,-100,4,2,1,30,0,0
223959,-100,4,2,1,45,0,0
229541,-100,4,1,1,35,0,0
235122,-100,4,1,1,45,0,0
237913,-100,4,1,1,70,0,1
248378,-100,4,1,1,80,0,1
249773,-100,4,1,1,70,0,1
265820,-100,4,1,1,45,0,0
279773,-100,4,2,1,35,0,0
280122,-200,4,1,2,30,0,0
282390,-200,4,2,1,20,0,0

[Colours]
Combo1 : 250,165,250
Combo2 : 157,224,150
Combo3 : 241,119,105
Combo4 : 181,249,242

[HitObjects]
136,308,704,6,0,P|104:252|124:176,1,120,2|0,0:0|0:0,0:0:0:0:
164,104,1401,1,0,0:0:0:0:
264,148,1750,1,0,0:0:0:0:
364,104,2099,2,0,P|420:152|420:212,1,120,2|0,0:0|0:0,0:0:0:0:
352,276,2797,1,0,0:0:0:0:
248,316,3145,5,2,0:0:0:0:
176,228,3494,1,0,0:0:0:0:
264,160,3843,2,0,P|216:116|160:116,1,120,2|0,0:0|0:0,0:0:0:0:
72,204,4541,2,0,P|60:268|0:304,2,120,2|0|2,0:0|0:0|0:0,0:0:0:0:
60,92,5587,1,0,0:0:0:0:
160,44,5936,1,2,0:0:0:0:
176,156,6285,6,0,P|232:180|296:168,1,120,0|2,0:0|0:0,0:0:0:0:
372,104,6983,1,0,0:0:0:0:
428,196,7331,1,2,0:0:0:0:
348,268,7680,2,0,P|296:304|232:312,1,120,0|2,0:0|0:0,0:0:0:0:
132,320,8378,6,0,L|72:320,2,60,0|0|2,0:0|0:0|0:0,0:0:0:0:
112,212,9076,2,0,P|216:188|176:88,1,240,0|0,0:0|0:0,0:0:0:0:
268,28,10122,1,2,0:0:0:0:
332,116,10471,2,0,P|476:152|416:316,1,360,0|2,0:0|0:1,0:0:0:0:
312,316,11866,6,0,L|168:316,1,120,4|2,0:0|0:0,0:0:0:0:
120,236,12564,2,0,L|244:236,1,120,0|2,0:0|0:0,0:0:0:0:
244,128,13262,1,0,0:0:0:0:
336,184,13610,1,2,0:0:0:0:
432,236,13959,38,0,P|444:172|424:120,1,120,0|2,0:0|0:0,0:0:0:0:
344,48,14657,1,0,0:0:0:0:
236,48,15006,1,0,0:0:0:0:
132,80,15355,2,0,P|109:137|128:196,1,120,0|2,0:0|0:0,0:0:0:0:
176,204,15878,2,0,P|280:256|304:324,1,180,0|2,0:0|0:0,0:0:0:0:
404,352,16750,1,0,0:0:0:0:
456,256,17099,1,2,0:0:0:0:
380,172,17448,6,0,P|364:108|320:56,1,120,8|0,0:0|0:0,0:0:0:0:
264,156,18145,2,0,P|220:104|148:68,1,120,8|0,0:0|0:0,0:0:0:0:
148,184,18843,2,0,P|104:152|16:144,2,120,8|0|8,0:0|0:0|0:0,0:0:0:0:
232,256,19890,1,0,0:0:0:0:
332,304,20238,22,0,P|380:272|416:216,1,120,8|0,0:0|0:0,0:0:0:0:
396,112,20936,2,0,P|344:140|300:204,1,120,8|0,0:0|0:0,0:0:0:0:
232,116,21634,2,0,P|152:40|72:116,1,240,0|8,0:0|0:0,0:0:0:0:
116,268,22855,2,0,L|144:332,1,60,0|2,0:0|0:0,0:0:0:0:
432,72,33843,53,8,0:0:0:0:
432,72,34017,1,8,0:0:0:0:
432,72,34192,2,0,P|396:144|332:180,1,120,0|8,0:0|0:0,0:0:0:0:
260,192,34890,1,0,0:0:0:0:
260,192,35064,2,0,P|215:231|184:296,1,120,0|8,0:0|0:0,0:0:0:0:
84,256,35762,5,0,0:0:0:0:
84,204,35936,2,0,L|84:132,1,60,8|0,0:0|0:0,0:0:0:0:
108,96,36285,2,0,P|168:80|216:48,1,120,0|8,0:0|0:0,0:0:0:0:
312,96,36983,2,0,P|368:60|428:60,1,120,0|8,0:0|0:0,0:0:0:0:
424,168,37680,2,0,L|388:232,1,60
288,236,38204,2,0,P|236:300|144:336,1,180,8|8,0:0|0:0,0:0:0:0:
48,292,39076,1,0,0:0:0:0:
24,188,39424,1,8,0:0:0:0:
80,92,39773,6,0,P|140:52|200:44,1,120,0|8,0:0|0:0,0:0:0:0:
292,28,40471,2,0,P|304:64|328:88,1,60
232,148,40994,2,0,P|280:196|404:192,1,180,8|8,0:0|0:0,0:0:0:0:
376,308,41866,2,0,L|320:332,1,60,0|0,0:0|0:0,0:0:0:0:
272,352,42215,1,8,0:0:0:0:
168,324,42564,6,0,L|112:300,1,60,0|0,0:0|0:0,0:0:0:0:
64,276,42913,1,8,0:0:0:0:
68,168,43262,2,0,L|180:100,1,120,0|8,0:0|0:1,0:0:0:0:
292,48,43959,2,0,B|292:112|352:164,1,120,0|8,0:0|0:1,0:0:0:0:
424,224,44657,1,0,0:0:0:0:
356,308,45006,1,8,0:0:0:0:
248,324,45355,6,0,P|168:316|140:288,1,120,4|8,0:0|0:0,0:0:0:0:
220,216,46052,2,0,P|168:168|152:116,1,120,0|8,0:0|0:0,0:0:0:0:
188,20,46750,1,0,0:0:0:0:
292,56,47099,1,8,0:0:0:0:
384,112,47448,2,0,L|464:112,2,60,8|0|8,0:0|0:0|0:0,0:0:0:0:
380,168,47971,6,0,P|324:268|260:304,1,180,0|8,0:0|0:0,0:0:0:0:
164,320,48843,1,0,0:0:0:0:
72,264,49192,2,0,P|80:196|56:140,1,120,8|0,0:0|0:0,0:0:0:0:
88,44,49890,5,8,0:0:0:0:
196,48,50238,1,0,0:0:0:0:
300,84,50587,2,0,L|340:132,1,60,8|0,0:0|0:0,0:0:0:0:
376,172,50936,5,0,0:0:0:0:
376,280,51285,2,0,L|312:308,1,60,8|0,0:0|0:0,0:0:0:0:
272,324,51634,1,0,0:0:0:0:
164,308,51983,1,8,0:0:0:0:
164,308,52157,2,0,P|104:248|80:156,1,180,0|8,0:0|0:0,0:0:0:0:
180,112,53029,6,0,L|224:68,2,60,0|0|8,0:0|0:0|0:0,0:0:0:0:
248,196,53727,2,0,B|308:196|364:196|324:260|324:260,1,120,0|8,0:0|0:0,0:0:0:0:
416,308,54424,2,0,B|461:269|504:233|424:206|424:206,1,120,0|8,0:0|0:0,0:0:0:0:
448,108,55122,2,0,L|340:40,1,120,0|8,0:0|0:0,0:0:0:0:
236,52,55820,2,0,P|208:108|152:148,1,120,0|0,0:0|0:0,0:0:0:0:
72,200,56517,6,0,P|116:260|160:276,1,120,8|2,0:0|0:0,0:0:0:0:
208,260,57041,2,0,P|256:264|316:304,1,120
360,336,57564,1,2,0:0:0:0:
412,240,57913,1,8,0:0:0:0:
416,132,58262,2,0,P|456:84|520:60,2,120,2|8|2,0:3|0:0|0:3,0:0:0:0:
320,180,59308,6,0,P|260:196|196:180,1,120,8|2,0:0|0:0,0:0:0:0:
168,144,59831,2,0,P|112:132|48:148,1,120
20,248,60529,2,0,P|52:312|116:332,1,120
148,328,61052,2,0,L|204:280,1,60,2|0,0:0|0:0,0:0:0:0:
240,260,61401,2,0,P|292:248|356:264,1,120,8|0,0:0|0:0,0:0:0:0:
444,204,62099,6,0,L|460:136,1,60,12|0,0:0|0:0,0:0:0:0:
436,40,62622,1,8,0:0:0:0:
356,112,62971,1,0,0:0:0:0:
260,56,63320,2,0,P|244:116|264:172,1,120
292,216,63843,1,2,0:0:0:0:
288,324,64192,6,0,L|340:372,2,60,8|0|2,0:0|0:0|0:0,0:0:0:0:
180,340,64890,2,0,P|116:368|48:356,1,120,8|2,0:0|0:0,0:0:0:0:
20,336,65413,1,0,0:0:0:0:
64,240,65762,1,8,0:0:0:0:
28,140,66110,6,0,L|140:96,1,120,0|2,0:0|0:0,0:0:0:0:
224,28,66808,2,0,P|292:44|332:112,1,120,0|4,0:0|0:3,0:0:0:0:
360,120,67331,2,4,L|424:120,1,60,4|4,0:0|0:0,0:3:0:0:
476,120,67680,6,0,P|484:152|472:192,1,60
396,248,68204,2,0,P|376:304|264:344,1,180,0|8,0:0|0:0,0:0:0:0:
180,288,69076,2,8,P|116:256|56:264,2,120,0|8|0,0:0|0:0|0:0,0:0:0:0:
276,236,70122,6,0,L|212:108,1,120,8|2,0:0|0:0,0:0:0:0:
168,36,70820,1,8,0:0:0:0:
64,68,71169,2,0,P|52:128|92:204,1,120,2|8,0:0|0:0,0:0:0:0:
104,224,71692,2,0,B|147:276|210:275|210:275|292:373,1,240,4|0,0:1|0:0,0:0:0:0:
352,280,72738,2,0,L|412:280,2,60,0|8|0,0:3|0:0|0:3,0:0:0:0:
344,228,73262,6,0,P|312:172|256:144,1,120,0|8,0:0|0:0,0:0:0:0:
172,92,73959,2,0,L|120:52,2,60,0|0|8,0:0|0:0|0:0,0:0:0:0:
144,196,74657,2,0,P|177:245|244:280,1,120,0|8,0:0|0:0,0:0:0:0:
336,280,75355,1,0,0:0:0:0:
424,220,75704,1,8,0:0:0:0:
432,112,76052,6,0,B|398:59|265:105|252:167|300:210|358:190|375:128|284:35|225:64,1,360,0|0,0:0|0:2,0:0:0:0:
120,48,77448,1,2,0:2:0:0:
72,144,77797,1,2,2:0:0:0:
108,248,78145,2,0,L|52:280,2,60,0|4|4,0:0|0:3|0:3,0:0:0:0:
204,296,78843,6,0,P|256:316|320:296,1,120,4|8,0:0|0:0,0:0:0:0:
264,204,79541,2,0,P|324:172|340:104,1,120,0|8,0:0|0:0,0:0:0:0:
288,32,80238,1,0,0:0:0:0:
184,60,80587,6,8,P|120:44|64:60,2,120,8|0|8,0:0|0:0|0:0,0:0:0:0:
124,152,81634,2,0,P|116:216|168:284,1,120,0|8,0:0|0:0,0:0:0:0:
192,288,82157,2,0,L|256:288,1,60,0|0,0:0|0:0,0:0:0:0:
308,288,82506,2,0,P|368:272|416:208,1,120,0|0,0:0|0:0,0:0:0:0:
444,128,83204,2,0,L|408:72,1,60,0|8,0:0|0:0,0:0:0:0:
312,40,83727,6,0,P|284:56|260:88,1,60
300,180,84250,2,0,L|248:228,1,60
156,260,84773,1,8,0:0:0:0:
156,156,85122,2,0,P|152:116|135:86,1,60
48,152,85645,6,0,P|68:216|56:280,1,120
72,320,86169,2,0,P|120:352|176:324,1,120,8|0,0:0|0:0,0:0:0:0:
280,312,86866,2,0,P|320:280|388:272,1,120,8|0,0:0|0:0,0:0:0:0:
388,164,87564,1,8,0:0:0:0:
388,164,87738,2,0,P|328:162|268:124,1,120
188,68,88436,2,0,B|95:68|8:68|45:129|45:129,1,180,0|8,0:0|0:0,0:0:0:0:
76,228,89308,6,0,L|36:284,2,60,0|0|8,0:0|0:0|0:0,0:0:0:0:
160,296,90006,2,0,P|204:328|252:296,1,120,0|8,0:0|0:0,0:0:0:0:
288,192,90704,2,0,P|316:176|348:172,1,60
444,136,91227,2,0,P|410:76|348:72,1,120,0|0,0:0|0:0,0:0:0:0:
312,76,91750,1,8,0:0:0:0:
216,28,92099,5,0,0:0:0:0:
116,72,92448,2,0,P|72:120|56:192,1,120,8|0,0:0|0:0,0:0:0:0:
164,172,93145,2,0,P|172:224|220:284,1,120,8|0,0:0|0:0,0:0:0:0:
256,308,93669,2,0,L|320:308,2,60,0|8|0,0:0|0:0|0:0,0:0:0:0:
328,228,94366,2,0,L|392:228,1,60
496,232,94890,6,0,P|520:176|492:120,1,120,0|8,0:0|0:0,0:0:0:0:
408,64,95587,2,0,P|384:116|416:184,1,120,0|8,0:0|0:0,0:0:0:0:
336,256,96285,1,0,0:0:0:0:
336,256,96459,1,0,0:0:0:0:
336,256,96634,2,0,P|272:232|208:256,1,120,8|0,0:0|0:0,0:0:0:0:
128,292,97331,6,0,P|128:228|84:176,1,120,8|0,0:0|0:0,0:0:0:0:
96,76,98029,2,0,P|143:110|204:108,1,120,8|0,0:0|0:0,0:0:0:0:
300,56,98727,1,8,0:0:0:0:
344,88,98901,2,0,P|368:120|400:136,1,60
432,152,99250,2,0,L|432:240,1,60,0|8,0:0|0:0,0:0:0:0:
376,304,99773,6,0,P|336:336|260:320,1,120,0|8,0:0|0:0,0:0:0:0:
224,300,100297,1,0,0:0:0:0:
152,220,100645,1,0,0:0:0:0:
152,220,100820,2,0,P|112:184|72:224,1,120,8|2,0:0|0:0,0:0:0:0:
420,80,111983,5,8,0:0:0:0:
476,172,112331,2,0,P|420:200|372:176,1,120,0|8,0:0|0:0,0:0:0:0:
304,92,113029,2,0,L|276:148,1,60
284,252,113552,2,0,P|200:280|120:328,1,180,8|8,0:0|0:0,0:0:0:0:
44,252,114424,6,0,L|-4:300,2,60,0|0|8,0:0|0:0|0:0,0:0:0:0:
84,152,115122,1,0,0:0:0:0:
192,144,115471,1,8,0:0:0:0:
168,40,115820,2,0,P|275:80|284:120,1,120,0|8,0:0|0:0,0:0:0:0:
292,124,116343,2,0,P|312:176|424:216,1,180,8|8,0:0|0:0,0:0:0:0:
416,324,117215,2,0,L|464:388,2,60,0|0|8,0:0|0:0|0:0,0:0:0:0:
312,348,117913,6,0,P|248:364|196:344,1,120,0|8,0:0|0:0,0:0:0:0:
124,268,118610,2,0,L|176:240,1,60
236,148,119134,2,0,P|144:124|80:216,1,180,8|8,0:0|0:0,0:0:0:0:
36,272,120006,5,0,0:0:0:0:
108,352,120355,1,8,0:0:0:0:
208,316,120704,2,0,P|272:324|328:312,1,120,0|8,0:0|0:0,0:0:0:0:
380,220,121401,2,0,L|436:184,2,60,0|0|8,0:0|0:0|0:0,0:0:0:0:
332,192,121924,2,0,P|248:172|152:124,1,180,0|8,0:0|0:0,0:0:0:0:
80,64,122797,1,0,0:0:0:0:
0,136,123145,1,8,0:0:0:0:
72,216,123494,6,0,L|184:288,1,120,4|8,0:0|0:0,0:0:0:0:
256,212,124192,1,0,0:0:0:0:
256,212,124366,1,0,0:0:0:0:
340,280,124715,2,0,L|440:212,1,120
480,180,125238,1,8,0:0:0:0:
428,84,125587,6,0,P|380:36|300:32,1,120,0|8,0:0|0:0,0:0:0:0:
276,120,126285,2,0,P|200:108|160:120,1,120,0|8,0:0|0:0,0:0:0:0:
84,44,126983,1,0,0:0:0:0:
64,92,127157,2,0,L|40:160,1,60,0|8,0:0|0:0,0:0:0:0:
44,204,127506,2,0,P|136:276|168:332,1,180,0|8,0:0|0:0,0:0:0:0:
276,340,128378,2,0,L|340:340,1,60
392,336,128727,1,8,0:0:0:0:
416,232,129076,6,0,L|440:164,1,60
448,124,129424,1,8,0:0:0:0:
360,60,129773,2,0,P|288:88|204:80,1,120,0|8,0:0|0:0,0:0:0:0:
144,52,130471,1,0,0:0:0:0:
44,96,130820,2,0,P|28:172|60:236,1,120,8|0,0:0|0:0,0:0:0:0:
132,272,131517,5,8,0:0:0:0:
132,272,131692,1,0,0:0:0:0:
132,272,131866,2,0,B|188:244|244:216|224:280|224:280,1,120,0|8,0:0|0:0,0:0:0:0:
304,348,132564,2,0,B|360:348|432:348|380:296|380:296,1,120,0|8,0:0|0:0,0:0:0:0:
384,196,133262,6,0,L|276:120,1,120,0|8,0:0|0:0,0:0:0:0:
240,96,133785,2,0,P|180:92|128:120,1,120
92,160,134308,1,8,0:0:0:0:
76,268,134657,6,0,P|128:296|192:300,1,120,8|2,0:0|0:0,0:0:0:0:
236,276,135180,2,0,P|296:268|352:288,1,120
400,316,135704,1,2,0:0:0:0:
440,216,136052,5,8,0:0:0:0:
364,140,136401,1,2,0:0:0:0:
416,48,136750,1,8,0:0:0:0:
308,48,137099,2,0,L|244:48,1,60,2|0,0:0|0:0,0:0:0:0:
196,60,137448,6,0,P|152:96|80:116,1,120,8|2,0:0|0:0,0:0:0:0:
72,220,138145,2,0,L|16:264,2,60,8|0|2,0:0|0:0|0:0,0:0:0:0:
116,252,138669,2,0,P|196:308|336:316,1,240
360,212,139715,2,0,P|396:192|424:188,1,60,0|2,0:0|0:0,0:0:0:0:
452,88,140238,6,0,L|392:56,1,60,8|0,0:0|0:0,0:0:0:0:
292,44,140762,1,0,0:0:0:0:
204,108,141110,1,0,0:0:0:0:
144,196,141459,2,0,P|128:264|152:328,1,120
176,352,141983,1,8,0:0:0:0:
284,348,142331,2,0,P|340:340|392:304,1,120,2|8,0:0|0:0,0:0:0:0:
412,200,143029,5,2,0:0:0:0:
372,100,143378,1,8,0:0:0:0:
264,80,143727,2,0,P|188:96|148:152,1,120,2|8,0:0|0:0,0:0:0:0:
124,228,144424,2,0,P|64:292|8:296,2,120,2|8|2,0:0|0:0|0:0,0:0:0:0:
220,276,145471,1,8,0:0:0:0:
312,220,145820,6,0,P|355:168|420:164,1,120,12|2,0:0|0:0,0:0:0:0:
456,148,146343,2,0,L|360:52,1,120
332,28,146866,1,8,0:0:0:0:
256,104,147215,1,2,0:0:0:0:
180,28,147564,1,8,0:0:0:0:
80,72,147913,2,0,P|64:128|92:188,1,120,2|8,0:0|0:0,0:0:0:0:
176,240,148610,6,0,P|224:264|256:320,1,120,2|8,0:0|0:0,0:0:0:0:
360,356,149308,2,0,L|432:356,2,60,2|0|8,0:0|0:0|0:0,0:0:0:0:
356,304,149831,2,0,P|400:212|388:128,1,180,4|8,0:1|0:0,0:0:0:0:
380,28,150704,2,0,L|456:-12,2,60,0|0|8,0:0|0:0|0:0,0:0:0:0:
276,56,151401,6,0,P|208:40|128:64,1,120,0|8,0:0|0:0,0:0:0:0:
212,144,152099,2,0,P|152:160|104:212,1,120,0|8,0:0|0:0,0:0:0:0:
96,308,152797,2,0,L|24:308,2,60,0|0|8,0:0|0:0|0:0,0:0:0:0:
192,360,153494,1,0,0:0:0:0:
296,332,153843,1,4,0:3:0:0:
376,260,154192,6,0,B|356:180|412:160|412:160|352:132|368:56,1,240,0|8,0:0|0:0,0:0:0:0:
260,48,155238,1,0,0:2:0:0:
172,112,155587,1,2,0:1:0:0:
384,152,156285,6,0,L|428:112,2,60,0|0|0,0:0|0:0|0:0,0:0:0:0:
372,260,156983,2,0,P|300:224|280:176,1,120,4|8,0:0|0:0,0:0:0:0:
256,88,157680,1,0,0:0:0:0:
256,88,157855,2,0,P|200:68|140:88,1,120
60,152,158552,2,0,L|104:196,1,60
60,292,159076,6,0,L|120:304,1,60,0|0,0:0|0:0,0:0:0:0:
224,332,159599,2,0,P|304:368|368:312,1,180,0|8,0:0|0:0,0:0:0:0:
376,208,160471,2,0,P|384:164|436:108,1,120,0|8,0:0|0:0,0:0:0:0:
464,64,160994,2,0,P|384:20|312:60,1,180,4|8,0:0|0:0,0:0:0:0:
232,132,161866,6,0,P|164:144|92:128,1,120,0|8,0:0|0:0,0:0:0:0:
60,128,162390,2,0,L|24:188,1,60,0|4,0:0|0:0,0:0:0:0:
100,260,162913,1,8,0:0:0:0:
192,320,163262,1,0,0:0:0:0:
192,320,163436,2,0,P|252:340|304:324,1,120
308,160,164308,6,0,P|356:112|408:96,2,120,8|0|8,0:0|0:0|0:0,0:0:0:0:
204,112,165355,2,0,P|160:152|96:168,1,120,0|8,0:0|0:0,0:0:0:0:
52,188,165878,2,0,L|120:288,1,120
216,340,166576,2,0,B|248:288|320:296|320:296|320:224,1,180,0|8,0:0|0:0,0:0:0:0:
328,128,167448,6,0,L|388:84,2,60,0|0|8,0:0|0:0|0:0,0:0:0:0:
280,156,167971,2,0,P|200:172|152:92,1,180,0|8,0:0|0:0,0:0:0:0:
60,40,168843,6,0,L|60:116,1,60
76,208,169366,2,0,P|156:268|220:340,1,180,0|8,0:0|0:0,0:0:0:0:
308,284,170238,5,0,0:0:0:0:
332,180,170587,2,0,P|268:160|232:120,1,120,8|0,0:0|0:0,0:0:0:0:
164,40,171285,1,8,0:0:0:0:
76,104,171634,2,0,L|16:56,2,60,0|0|8,0:0|0:0|0:0,0:0:0:0:
112,144,172157,2,0,B|156:176|188:240,1,120,0|0,0:0|0:0,0:0:0:0:
212,284,172680,1,8,0:0:0:0:
292,360,173029,6,0,L|408:332,1,120,0|8,0:0|0:0,0:0:0:0:
372,232,173727,2,0,P|432:208|444:148,1,120,0|8,0:0|0:0,0:0:0:0:
408,56,174424,1,0,0:0:0:0:
408,56,174599,1,0,0:0:0:0:
408,56,174773,2,0,P|352:40|288:56,1,120,8|0,0:0|0:0,0:0:0:0:
208,120,175471,6,0,L|148:120,1,60,8|0,0:0|0:0,0:0:0:0:
72,196,175994,1,0,0:0:0:0:
72,196,176169,2,0,P|128:220|164:276,1,120,8|0,0:0|0:0,0:0:0:0:
264,304,176866,6,0,B|344:299|396:296|356:255|356:255,1,120,8|0,0:0|0:0,0:0:0:0:
344,160,177564,2,0,B|284:160|220:160|252:209|252:209,1,120,8|0,0:0|0:0,0:0:0:0:
144,232,178262,2,0,L|80:232,1,60,8|0,0:0|0:0,0:0:0:0:
44,196,178610,2,0,P|36:164|40:136,1,60,8|0,0:0|0:0,0:0:0:0:
64,88,178959,2,0,L|188:44,1,120,8|2,0:0|0:0,0:0:0:0:
256,192,187680,12,8,189424,0:0:0:0:
116,188,189773,5,8,0:0:0:0:
176,280,190122,1,8,0:0:0:0:
228,184,190471,6,0,P|288:184|356:140,1,120,0|8,0:0|0:0,0:0:0:0:
416,80,191169,1,0,0:0:0:0:
452,180,191517,1,8,0:0:0:0:
376,256,191866,2,0,L|268:316,1,120,0|8,0:0|0:0,0:0:0:0:
224,340,192390,2,0,P|164:344|104:292,1,120
80,272,192913,1,8,0:0:0:0:
56,132,193262,6,0,P|148:144|166:203,1,120,0|8,0:0|0:0,0:0:0:0:
240,232,193959,2,0,P|279:139|312:140,1,120,0|8,0:0|0:0,0:0:0:0:
372,196,194657,2,0,P|400:248|448:304,2,120,0|8|0,0:0|0:0|0:0,0:0:0:0:
160,236,196052,5,4,0:0:0:0:
100,148,196401,2,0,P|132:92|180:52,1,120,8|0,0:0|0:0,0:0:0:0:
280,48,197099,1,8,0:0:0:0:
380,84,197448,2,0,L|424:128,1,60
436,180,197797,2,0,P|400:256|336:280,1,120,8|0,0:0|0:0,0:0:0:0:
268,308,198494,1,8,0:0:0:0:
188,236,198843,6,0,P|120:220|44:240,1,120,0|8,0:0|0:0,0:0:0:0:
76,120,199541,2,0,P|144:136|212:104,1,120,0|8,0:0|0:0,0:0:0:0:
280,60,200238,1,0,0:0:0:0:
276,168,200587,1,8,0:0:0:0:
188,236,200936,1,0,0:0:0:0:
276,168,201285,1,8,0:0:0:0:
368,232,201634,6,0,P|416:296|412:356,1,120,0|8,0:0|0:0,0:0:0:0:
312,324,202331,1,0,0:0:0:0:
312,324,202506,2,0,P|260:340|184:308,1,120
156,288,203029,2,0,L|104:232,1,60
80,204,203378,1,8,0:0:0:0:
120,104,203727,6,0,L|180:104,1,60
232,108,204076,2,0,P|276:148|356:156,1,120,8|0,0:0|0:0,0:0:0:0:
436,196,204773,2,0,L|340:272,1,120,8|0,0:0|0:0,0:0:0:0:
300,304,205297,1,0,0:0:0:0:
204,352,205645,2,0,B|100:296|100:296|108:236|76:212,1,180,0|8,0:0|0:0,0:0:0:0:
36,144,206517,1,0,0:0:0:0:
76,44,206866,1,8,0:0:0:0:
180,72,207215,6,0,P|236:48|288:72,1,120,0|8,0:0|0:0,0:0:0:0:
360,152,207913,2,0,L|284:280,1,120,0|8,0:0|0:0,0:0:0:0:
224,332,208610,2,0,P|160:344|84:328,2,120,0|8|0,0:0|0:0|0:0,0:0:0:0:
192,228,209657,6,0,L|100:196,2,60,8|0|0,0:0|0:0|0:0,0:0:0:0:
216,124,210355,2,0,P|188:52|144:24,1,120,8|0,0:0|0:0,0:0:0:0:
60,76,211052,1,8,0:0:0:0:
48,184,211401,2,0,P|60:248|108:292,1,120,0|8,0:0|0:0,0:0:0:0:
200,316,212099,2,0,L|260:316,1,60
316,316,212448,6,0,P|404:224|328:80,1,300,8|8,0:0|0:0,0:0:0:0:
240,44,213669,1,0,0:0:0:0:
240,44,213843,2,0,B|152:48|184:120|184:120|88:128|72:248,1,300,8|8,0:0|0:0,0:0:0:0:
28,340,215064,2,4,L|100:340,2,60,4|4|4,0:3|0:3|0:3,0:0:0:0:
428,68,216983,5,8,0:0:0:0:
344,136,217331,1,8,0:0:0:0:
444,176,217680,2,0,P|416:256|304:312,1,180,8|2,0:0|0:0,0:0:0:0:
52,196,219076,5,2,0:0:0:0:
96,92,219424,2,0,P|128:76|160:72,1,60,0|2,0:0|0:0,0:0:0:0:
156,296,220297,2,0,P|192:296|228:284,2,60,0|2|0,0:0|0:0|0:0,0:0:0:0:
172,188,220994,2,0,P|248:176|360:116,1,180,0|2,0:0|0:0,0:0:0:0:
444,164,221866,1,0,0:0:0:0:
412,268,222215,2,0,L|464:324,1,60,2|0,0:0|0:0,0:0:0:0:
180,288,223262,6,0,P|118:320|52:328,2,120,2|0|2,0:0|0:0|0:0,0:0:0:0:
64,96,224657,2,0,P|128:68|184:64,2,120,2|0|2,0:0|0:0|0:0,0:0:0:0:
280,80,226052,6,0,P|260:136|184:160,1,120,2|0,0:0|0:0,0:0:0:0:
172,264,226750,2,0,P|112:268|56:304,1,120,2|0,0:0|0:0,0:0:0:0:
60,188,227448,1,2,0:0:0:0:
108,88,227797,2,0,P|164:56|304:64,1,180
424,124,228843,2,0,L|496:124,2,60,4|4|4,0:3|0:3|0:3,0:0:0:0:
352,208,229541,6,0,P|394:321|272:336,1,240,4|8,0:1|0:1,0:0:0:0:
260,260,230587,1,0,0:0:0:0:
164,308,230936,2,0,L|40:308,1,120,0|8,0:0|0:1,0:0:0:0:
16,196,231634,1,8,0:0:0:0:
48,92,231983,6,0,P|105:129|116:196,1,120
180,264,232680,2,0,P|240:276|280:232,1,120,0|8,0:0|0:1,0:0:0:0:
204,156,233378,1,0,0:0:0:0:
216,48,233727,2,0,P|280:24|352:40,1,120
428,80,234424,1,8,0:1:0:0:
368,176,234773,5,0,0:0:0:0:
280,244,235122,1,8,0:0:0:0:
168,260,235471,1,0,0:0:0:0:
84,188,235820,1,8,0:0:0:0:
184,148,236169,6,0,L|288:88,1,120,0|8,0:0|0:0,0:0:0:0:
340,76,236692,2,0,P|364:104|396:120,1,60,0|8,0:0|0:0,0:0:0:0:
424,152,237041,2,0,P|440:184|444:220,1,60,0|8,0:0|0:0,0:0:0:0:
428,260,237390,1,0,0:0:0:0:
340,320,237738,6,0,L|276:332,1,60,4|0,0:0|0:0,0:0:0:0:
172,304,238262,1,8,0:0:0:0:
184,192,238610,1,0,0:0:0:0:
184,192,238785,1,0,0:0:0:0:
184,80,239134,2,0,P|116:105|76:216,1,180,4|8,0:0|0:0,0:0:0:0:
68,252,239831,2,0,L|108:308,1,60
140,340,240180,1,0,0:0:0:0:
248,352,240529,6,0,P|306:342|392:256,1,180,0|8,0:0|0:0,0:0:0:0:
412,156,241401,2,0,L|284:92,1,120,0|8,0:0|0:0,0:0:0:0:
256,76,241924,2,0,P|196:72|128:112,1,120,4|0,0:0|0:0,0:0:0:0:
104,136,242448,1,8,0:0:0:0:
32,216,242797,6,0,L|32:276,1,60
72,312,243145,2,4,P|128:320|180:364,1,120,8|4,0:0|0:0,0:0:0:0:
264,292,243843,2,0,P|316:308|380:296,1,120,8|0,0:0|0:0,0:0:0:0:
424,268,244366,1,0,0:0:0:0:
416,160,244715,6,0,P|344:92|264:88,1,180,0|8,0:0|0:0,0:0:0:0:
160,104,245587,2,0,P|176:176|152:244,1,120,0|8,0:0|0:0,0:0:0:0:
232,308,246285,2,0,P|288:288|348:304,1,120,0|8,0:0|0:0,0:0:0:0:
396,324,246808,2,0,L|464:220,1,120,0|8,0:0|0:0,0:0:0:0:
452,116,247506,2,0,P|404:64|296:56,1,180,4|8,0:0|0:0,0:0:0:0:
192,76,248378,6,8,L|132:40,2,60,0|0|8,0:0|0:0|0:0,0:0:0:0:
152,176,249076,2,0,P|152:244|200:308,1,120,4|8,0:0|0:0,0:0:0:0:
256,360,249773,1,0,0:0:0:0:
256,360,249948,1,0,0:0:0:0:
340,292,250297,2,0,P|376:196|368:160,1,120
356,132,250820,1,8,0:0:0:0:
405,37,251169,6,0,P|349:19|296:44,1,120,0|8,0:0|0:0,0:0:0:0:
228,128,251866,1,4,0:0:0:0:
132,76,252215,1,8,0:0:0:0:
132,76,252390,2,0,P|145:140|56:224,1,180,0|8,0:0|0:0,0:0:0:0:
48,268,253087,2,0,B|48:316|108:304|116:304|124:304|196:268|188:324,1,180,0|8,0:2|0:0,0:0:0:0:
276,260,253959,1,0,0:0:0:0:
308,156,254308,6,0,L|248:124,2,60,8|0|4,0:0|0:0|0:0,0:0:0:0:
392,84,255006,2,0,P|444:120|456:192,1,120,8|0,0:0|0:0,0:0:0:0:
408,268,255704,1,8,0:0:0:0:
304,300,256052,2,0,P|252:344|192:352,1,120,0|8,0:0|0:0,0:0:0:0:
128,272,256750,2,0,L|80:204,1,60
52,124,257273,6,0,P|144:104|240:120,1,180,4|8,0:0|0:0,0:0:0:0:
320,60,258145,2,0,P|340:120|380:172,1,120,4|8,0:0|0:0,0:0:0:0:
412,268,258843,2,0,L|480:268,2,60,0|0|8,0:0|0:0|0:0,0:0:0:0:
320,324,259541,1,0,0:0:0:0:
208,320,259890,1,8,0:0:0:0:
124,248,260238,6,0,P|64:236|28:184,1,120,4|8,0:0|0:0,0:0:0:0:
72,92,260936,2,0,L|188:60,1,120,0|8,0:0|0:0,0:0:0:0:
292,32,261634,1,4,0:0:0:0:
400,28,261983,1,0,0:0:0:0:
412,136,262331,2,0,P|436:184|392:244,1,120,0|8,0:0|0:0,0:0:0:0:
300,224,263029,6,0,B|337:212|408:269|385:356|250:371|168:336|168:336|152:336|152:336|152:320|152:320|136:275|105:161|209:81|296:135|270:218,1,660,4|4,0:0|0:0,0:3:0:0:
136,44,265820,6,0,P|100:92|44:140,1,120,4|8,0:0|0:0,0:0:0:0:
56,240,266517,2,0,L|116:276,1,60
204,324,267041,2,0,P|296:352|376:324,1,180,0|8,0:0|0:0,0:0:0:0:
428,236,267913,6,0,L|456:184,2,60,0|0|8,0:0|0:0|0:0,0:0:0:0:
340,176,268610,2,0,P|284:156|228:180,1,120,0|8,0:0|0:0,0:0:0:0:
136,228,269308,2,0,L|60:268,2,60,0|0|8,0:0|0:0|0:0,0:0:0:0:
176,264,269831,2,0,P|216:316|232:380,1,120
340,352,270529,6,0,L|400:336,1,60
444,308,270878,2,0,P|468:288|484:248,1,60,0|8,0:0|0:0,0:0:0:0:
428,168,271401,2,0,P|372:188|316:172,1,120,0|8,0:0|0:0,0:0:0:0:
228,108,272099,2,0,L|180:72,2,60,0|0|8,0:0|0:0|0:0,0:0:0:0:
204,156,272622,2,0,P|184:264|208:328,1,180,0|8,0:0|0:0,0:0:0:0:
316,344,273494,6,0,L|380:344,1,60
408,300,273843,2,0,P|436:276|460:268,1,60,8|0,0:0|0:0,0:0:0:0:
484,220,274192,2,0,P|492:144|464:100,1,120,0|8,0:0|0:0,0:0:0:0:
388,176,274890,1,0,0:0:0:0:
388,176,275064,2,0,P|324:184|248:156,1,120
180,116,275762,6,8,L|120:132,2,60
172,224,276459,2,0,L|228:248,1,60,0|8,0:0|0:0,0:0:0:0:
256,192,276983,12,0,279773,0:0:0:0:
88,112,280122,6,0,L|148:112,1,60,8|0,0:0|0:0,0:0:0:0:
200,116,280820,2,0,P|244:128|276:160,1,90,8|0,0:0|0:0,0:0:0:0:
308,232,281866,6,0,L|408:232,1,90,0|2,0:0|0:1,0:0:0:0:
