osu file format v13

[General]
AudioFilename: 47.mp3
AudioLeadIn: 0
PreviewTime: 78145
Countdown: 0
SampleSet: None
StackLeniency: 0.9
Mode: 0
LetterboxInBreaks: 0
WidescreenStoryboard: 0

[Editor]
Bookmarks: 704,23029,34192,56517,73262,78843,101169,112331,134657,156983,176517,190471,217680,229541,237913,265820
DistanceSpacing: 1.1
BeatDivisor: 4
GridSize: 4
TimelineZoom: 1.1

[Metadata]
Title:Yonjuunana
TitleUnicode:ヨンジュウナナ
Artist:mikitoP
ArtistUnicode:みきとP
Creator:blackabyss
Version:Hard
Source:
Tags:Hatsune Miku 初音ミク 47 Fourty-Seven Vocaloid sequel CHRIS Kihhou Teru21
BeatmapID:418943
BeatmapSetID:171885

[Difficulty]
HPDrainRate:6
CircleSize:4
OverallDifficulty:6
ApproachRate:8
SliderMultiplier:1.6
SliderTickRate:1

[Events]
//Background and Video events
0,0,"41129295e.jpg",0,0
//Break Periods
2,23230,33093
2,101717,110360
2,179856,186930
//Storyboard Layer 0 (Background)
//Storyboard Layer 1 (Fail)
//Storyboard Layer 2 (Pass)
//Storyboard Layer 3 (Foreground)
//Storyboard Sound Samples
//Background Colour Transformations
3,100,163,162,255

[TimingPoints]
704,348.837209302326,4,2,1,30,1,0
17448,-100,4,1,2,45,0,0
33843,-100,4,1,2,40,0,0
56517,-100,4,3,1,45,0,0
73262,-100,4,1,2,45,0,0
76052,-100,4,3,1,45,0,0
78843,-100,4,1,1,65,0,1
101169,-100,4,1,2,45,0,0
134657,-100,4,3,1,45,0,0
150355,-100,4,1,2,45,0,0
155238,-100,4,2,1,30,0,0
156983,-100,4,1,1,70,0,1
176517,-100,4,1,1,45,0,0
179657,-100,4,1,1,35,0,0
201634,-100,4,1,2,45,0,0
217680,-100,4,2,1,30,0,0
218204,-200,4,2,1,30,0,0
223262,-100,4,2,1,30,0,0
223959,-100,4,2,1,45,0,0
229541,-200,4,1,1,35,0,0
234599,-100,4,1,1,35,0,0
235122,-100,4,1,1,45,0,0
237913,-100,4,1,1,70,0,1
248378,-100,4,1,1,80,0,1
249773,-100,4,1,1,70,0,1
263029,-200,4,1,1,70,0,1
265820,-100,4,1,1,45,0,0
279773,-100,4,2,1,35,0,0
280122,-200,4,1,2,30,0,0
282913,-200,4,2,1,20,0,0

[Colours]
Combo1 : 250,165,250
Combo2 : 157,224,150
Combo3 : 241,119,105
Combo4 : 181,249,242

[HitObjects]
72,192,704,5,0,0:0:0:0:
256,64,1052,1,2,0:0:0:0:
440,192,1401,1,0,0:0:0:0:
256,320,1750,1,2,0:0:0:0:
72,192,2099,1,0,0:0:0:0:
192,64,2448,6,0,P|256:112|352:112,1,160,2|0,0:0|0:0,0:0:0:0:
432,264,3145,2,0,P|368:216|272:216,1,160,2|0,0:0|0:0,0:0:0:0:
192,64,3843,1,2,0:0:0:0:
291,211,4192,1,0,0:0:0:0:
152,320,4541,1,2,0:0:0:0:
152,320,4890,2,0,P|88:272|80:192,3,160,0|2|0|2,0:0|0:0|0:0|0:0,0:0:0:0:
319,131,6285,5,0,0:0:0:0:
152,320,6634,1,2,0:0:0:0:
152,320,6983,2,0,P|232:312|288:256,1,160,0|2,0:0|0:0,0:0:0:0:
208,96,7680,2,0,P|128:104|72:160,1,160,0|2,0:0|0:0,0:0:0:0:
152,320,8378,5,0,0:0:0:0:
240,352,8552,1,0,0:0:0:0:
328,320,8727,1,2,0:0:0:0:
424,184,9076,2,0,P|396:104|320:92,1,160,0|2,0:0|0:0,0:0:0:0:
344,168,9599,2,0,P|296:224|208:232,1,160
246,151,10122,2,4,P|262:311|164:160,1,480,2|2,0:0|0:1,0:0:0:0:
512,240,11866,6,0,P|488:304|400:344,1,160,0|2,0:0|0:0,0:0:0:0:
272,232,12564,2,0,P|304:160|375:129,1,160,0|2,0:0|0:0,0:0:0:0:
168,24,13262,1,0,0:0:0:0:
102,187,13610,1,2,0:0:0:0:
261,113,13959,6,0,P|332:134|377:213,1,160,0|2,0:0|0:0,0:0:0:0:
337,284,14483,2,0,L|270:362,1,80,0|0,0:0|0:0,0:0:0:0:
200,332,14831,2,0,L|252:271,1,80,0|2,0:0|0:0,0:0:0:0:
164,256,15180,2,0,L|111:316,1,80,0|0,0:0|0:0,0:0:0:0:
48,252,15529,5,0,0:0:0:0:
108,196,15704,1,2,0:0:0:0:
108,196,15878,2,0,B|120:156|180:136|212:172|232:204|232:204|304:160,1,240,0|2,0:0|0:0,0:0:0:0:
372,108,16576,2,0,L|436:56,3,80,0|0|0|2,0:0|0:0|0:0|0:0,0:0:0:0:
427,258,17448,6,0,L|354:308,1,80,8|0,0:0|0:0,0:0:0:0:
282,262,17797,2,0,L|209:312,1,80,0|0,0:0|0:0,0:0:0:0:
328,128,18145,2,0,L|255:178,1,80,8|0,0:0|0:0,0:0:0:0:
184,128,18494,2,0,L|111:178,1,80,0|0,0:0|0:0,0:0:0:0:
117,173,18843,1,8,0:0:0:0:
408,80,19192,1,0,0:0:0:0:
352,344,19541,1,8,0:0:0:0:
176,312,19890,5,0,0:0:0:0:
176,312,20064,1,0,0:0:0:0:
176,312,20238,2,0,P|156:264|112:240,1,80,8|0,0:0|0:0,0:0:0:0:
72,184,20587,2,0,P|92:112|172:128,1,160,0|8,0:0|0:0,0:0:0:0:
230,182,21110,2,0,P|274:173|309:183,1,80
380,132,21459,2,0,P|504:244|356:231,1,400,0|8,0:0|0:0,0:0:0:0:
312,180,22506,6,0,L|248:180,2,40,0|0|0,0:0|0:0|0:0,0:0:0:0:
300,92,22855,1,0,0:0:0:0:
300,92,23030,1,2,0:0:0:0:
136,113,33843,6,0,L|94:77,3,40,8|0|0|0,0:0|0:0|0:0|0:0,0:0:0:0:
136,113,34192,22,0,P|210:97|293:124,1,160,0|8,0:0|0:0,0:0:0:0:
130,291,34890,1,0,0:0:0:0:
208,328,35064,2,0,P|288:352|360:328,1,160,0|8,0:0|0:0,0:0:0:0:
408,68,35936,5,8,0:0:0:0:
356,136,36110,1,0,0:0:0:0:
324,52,36285,1,0,0:0:0:0:
272,120,36459,1,0,0:0:0:0:
288,208,36634,2,0,P|320:288|408:344,2,160,8|0|8,0:0|0:0|0:0,0:0:0:0:
96,244,37680,5,0,0:0:0:0:
34,181,37855,1,0,0:0:0:0:
120,160,38029,2,0,P|164:144|208:104,1,80,8|8,0:0|0:0,0:0:0:0:
260,68,38378,1,0,0:0:0:0:
432,264,38727,1,8,0:0:0:0:
424,64,39076,2,0,B|352:88|328:184|328:184|232:248,1,240
244,268,39686,6,0,P|180:324|112:324,1,120
60,328,40122,1,8,0:0:0:0:
0,264,40297,1,0,0:0:0:0:
32,184,40471,2,0,P|64:152|112:136,1,80
320,48,40994,2,0,P|423:80|393:185,1,240,8|0,0:0|0:0,0:0:0:0:
324,236,41692,1,0,0:0:0:0:
100,336,42041,5,0,0:0:0:0:
64,256,42215,2,0,P|80:216|128:192,1,80,8|0,0:0|0:0,0:0:0:0:
160,272,42564,2,0,P|195:247|248:254,1,80
320,272,42913,1,8,0:0:0:0:
296,184,43087,1,0,0:0:0:0:
384,208,43262,2,0,P|427:208|467:172,1,80
476,100,43610,2,0,P|433:100|393:136,1,80,8|0,0:0|0:0,0:0:0:0:
324,80,43959,2,0,B|317:63|296:48|264:52|245:71|245:71|164:72,1,160,0|8,0:0|0:0,0:0:0:0:
44,212,44657,6,0,L|4:244,4,40,0|0|0|0|8,0:0|0:0|0:0|0:0|0:0,0:0:0:0:
184,88,45355,6,0,P|256:52|328:88,1,160,0|8,0:0|0:0,0:0:0:0:
256,140,45878,1,0,0:0:0:0:
336,180,46052,2,0,P|368:250|336:324,1,160,0|8,0:0|0:0,0:0:0:0:
280,252,46576,2,0,P|207:254|152:184,1,160
172,96,47099,5,8,0:0:0:0:
256,48,47273,1,0,0:0:0:0:
256,140,47448,1,0,0:0:0:0:
340,96,47622,1,0,0:0:0:0:
304,296,47971,6,0,P|376:248|432:96,1,240,8|8,0:0|0:0,0:0:0:0:
344,128,48669,2,0,P|352:80|336:48,1,80
264,96,49017,1,0,0:0:0:0:
200,32,49192,2,0,P|176:96|224:184,1,160,8|0,0:0|0:0,0:0:0:0:
144,232,49715,6,0,L|72:288,1,80,0|8,0:0|0:0,0:0:0:0:
160,320,50064,2,0,L|223:270,1,80
316,276,50413,1,0,0:0:0:0:
392,232,50587,2,0,P|368:196|320:196,1,80,8|0,0:0|0:0,0:0:0:0:
252,140,50936,5,0,0:0:0:0:
168,120,51110,2,0,P|128:144|104:184,1,80,0|8,0:0|0:0,0:0:0:0:
120,260,51459,1,0,0:0:0:0:
200,216,51634,2,0,P|256:232|280:224,1,80
340,164,51983,1,8,0:0:0:0:
252,140,52157,1,0,0:0:0:0:
48,304,52680,6,0,P|40:256|48:216,1,80,8|0,0:0|0:0,0:0:0:0:
72,144,53029,1,0,0:0:0:0:
136,80,53204,1,0,0:0:0:0:
160,168,53378,2,0,P|192:200|256:208,1,80,8|0,0:0|0:0,0:0:0:0:
240,120,53727,6,0,P|288:136|424:120,1,160,0|8,0:0|0:0,0:0:0:0:
240,320,54424,2,0,P|160:310|83:330,1,160,0|8,0:0|0:0,0:0:0:0:
296,216,55122,1,0,0:0:0:0:
336,296,55297,2,0,P|368:264|384:224,1,80,0|8,0:0|0:0,0:0:0:0:
296,216,55645,2,0,P|272:104|160:48,1,240,0|10,0:0|0:0,0:0:0:0:
40,320,56517,5,8,0:0:0:0:
104,252,56692,1,0,0:0:0:0:
16,236,56866,2,0,P|64:172|152:176,2,160,2|8|2,0:0|0:0|0:0,0:0:0:0:
104,252,57738,2,0,P|172:292|176:292,2,80,0|8|8,0:0|0:0|0:0,0:0:0:0:
140,168,58262,1,2,0:0:0:0:
368,320,58610,1,8,0:0:0:0:
224,116,58959,1,2,0:0:0:0:
400,232,59308,5,8,0:0:0:0:
324,188,59483,1,0,0:0:0:0:
292,272,59657,2,0,P|212:312|132:296,1,160,2|8,0:0|0:0,0:0:0:0:
192,228,60180,2,0,P|116:192|80:120,1,160
160,84,60704,5,8,0:0:0:0:
244,112,60878,2,0,L|300:96,2,40,0|0|2,0:0|0:0|0:0,0:0:0:0:
304,176,61227,2,0,L|360:176,2,40,0|0|8,0:0|0:0|0:0,0:0:0:0:
344,256,61576,2,0,L|396:284,2,40,0|0|2,0:0|0:0|0:0,0:0:0:0:
284,320,61925,1,0,0:0:0:0:
240,328,62012,1,0,0:0:0:0:
196,328,62099,6,0,P|148:320|108:280,1,80,8|0,0:0|0:0,0:0:0:0:
116,124,62622,1,0,0:0:0:0:
292,112,62971,1,0,0:0:0:0:
292,32,63320,2,0,L|292:144,1,80,0|8,0:0|0:0,0:0:0:0:
292,200,63669,1,0,0:0:0:0:
248,276,63843,1,2,0:0:0:0:
40,288,64192,6,0,L|40:192,1,80,8|0,0:0|0:0,0:0:0:0:
128,144,64541,2,0,L|128:224,1,80,2|0,0:0|0:0,0:0:0:0:
208,288,64890,2,0,L|208:208,1,80,8|0,0:0|0:0,0:0:0:0:
208,128,65238,1,2,0:0:0:0:
280,76,65413,1,0,0:0:0:0:
128,272,65762,1,0,0:0:0:0:
128,272,65936,6,0,P|208:312|304:288,1,160,2|8,0:0|0:0,0:0:0:0:
360,272,66459,2,0,P|408:240|424:216,1,80,0|2,0:0|0:0,0:0:0:0:
344,184,66808,2,0,P|377:136|383:108,1,80,0|8,0:0|0:0,0:0:0:0:
296,112,67157,2,0,P|277:57|258:35,2,80,4|2|0,0:0|0:0|0:0,0:0:0:0:
192,112,67680,5,8,0:0:0:0:
244,184,67855,1,0,0:0:0:0:
92,276,68204,2,0,P|28:264|12:232,2,80,0|8|0,0:0|0:0|0:0,0:0:0:0:
176,252,68727,1,2,0:0:0:0:
332,172,69076,6,0,P|394:135|398:54,2,160,8|2|8,0:0|0:0|0:0,0:0:0:0:
188,72,70122,1,2,0:0:0:0:
112,232,70471,1,8,0:0:0:0:
24,80,70820,1,2,0:0:0:0:
72,156,70994,2,0,P|112:144|148:156,1,80,0|8,0:0|0:0,0:0:0:0:
209,209,71343,2,0,P|230:175|232:136,1,80,0|2,0:0|0:0,0:0:0:0:
308,96,71692,6,0,P|388:116|444:180,1,160
420,256,72215,2,0,P|395:293|331:300,1,80,2|0,0:0|0:0,0:0:0:0:
276,316,72564,1,8,0:0:0:0:
188,324,72738,2,0,L|156:264,4,40,0|2|2|0|0,0:0|0:0|0:0|0:0|0:0,0:0:0:0:
100,332,73262,6,0,L|56:242,1,80,0|0,0:0|0:0,0:0:0:0:
64,260,73610,1,8,0:0:0:0:
168,40,73959,2,0,L|216:104,1,80
216,104,74308,1,8,0:0:0:0:
460,148,74657,6,0,L|380:148,1,80
380,148,75006,1,8,0:0:0:0:
256,340,75355,1,0,0:0:0:0:
56,288,75704,1,8,0:0:0:0:
56,288,76052,6,0,B|10:211|114:180|119:181|125:183|260:111|167:45,1,320
348,28,77099,1,0,0:2:0:0:
472,192,77448,1,2,0:2:0:0:
272,268,77797,1,2,0:2:0:0:
96,268,78145,2,4,L|20:316,2,80,4|4|4,0:0|0:0|0:0,0:0:0:0:
348,264,78843,6,0,P|420:220|440:148,1,160,0|8,0:0|0:0,0:0:0:0:
464,64,79366,1,0,0:0:0:0:
380,96,79541,1,0,0:0:0:0:
396,8,79715,1,0,0:0:0:0:
312,36,79890,2,0,P|272:40|240:72,1,80,8|0,0:0|0:0,0:0:0:0:
244,276,80413,6,0,L|244:340,2,40,0|0|8,0:0|0:0|0:0,0:0:0:0:
184,212,80762,1,0,0:0:0:0:
132,140,80936,1,0,0:0:0:0:
220,128,81110,1,0,0:0:0:0:
276,196,81285,2,0,P|328:224|360:224,1,80,8|0,0:0|0:0,0:0:0:0:
424,192,81634,1,0,0:0:0:0:
452,104,81808,6,0,P|424:76|376:68,1,80,0|8,0:0|0:0,0:0:0:0:
304,40,82157,2,0,P|265:30|228:42,1,80
144,72,82506,2,0,P|105:79|75:105,1,80,0|8,0:0|0:0,0:0:0:0:
148,156,82855,2,0,P|192:208|176:308,1,160
116,240,83378,6,0,L|24:264,2,80,8|0|0,0:0|0:0|0:0,0:0:0:0:
184,296,83901,1,0,0:0:0:0:
248,216,84076,2,0,P|320:248|392:212,2,160,8|0|8,0:0|0:0|0:0,0:0:0:0:
316,156,84948,1,0,0:0:0:0:
322,68,85122,1,0,0:0:0:0:
393,120,85297,1,0,0:0:0:0:
316,156,85471,1,8,0:0:0:0:
216,128,85645,6,0,P|172:144|136:196,1,80
149,167,85994,2,0,L|89:107,2,80,0|8|0,0:0|0:0|0:0,0:0:0:0:
148,256,86517,2,0,L|88:316,2,80,0|0|8,0:0|0:0|0:0,0:0:0:0:
224,304,87041,5,0,0:0:0:0:
280,240,87215,1,0,0:0:0:0:
327,168,87390,1,0,0:0:0:0:
322,80,87564,2,0,P|380:96|408:188,2,160,8|0|8,0:0|0:0|0:0,0:0:0:0:
244,120,88436,1,0,0:0:0:0:
164,156,88610,5,0,0:0:0:0:
72,168,88785,2,0,P|32:132|28:100,1,80,0|8,0:0|0:0,0:0:0:0:
112,88,89134,2,0,P|148:48|180:44,1,80
260,28,89483,1,0,0:0:0:0:
300,44,89570,1,0,0:0:0:0:
340,60,89657,1,8,0:0:0:0:
392,132,89831,2,0,P|416:248|320:328,1,240,0|8,0:0|0:0,0:0:0:0:
231,337,90529,5,0,0:0:0:0:
140,316,90704,2,0,P|100:304|76:264,1,80
80,188,91052,1,8,0:0:0:0:
164,212,91227,2,0,P|244:196|296:120,1,160
280,48,91750,1,8,0:0:0:0:
368,64,91924,6,0,P|396:36|444:28,2,80
372,152,92448,2,0,P|400:180|408:228,1,80,8|0,0:0|0:0,0:0:0:0:
320,228,92797,2,0,P|298:307|228:348,1,160,0|8,0:0|0:0,0:0:0:0:
144,360,93320,2,0,P|144:320|172:280,1,80
96,232,93669,2,0,P|66:259|18:267,1,80,0|8,0:0|0:0,0:0:0:0:
28,180,94017,2,0,P|60:100|136:80,1,160
214,79,94541,1,8,0:0:0:0:
448,200,94890,6,0,L|524:268,2,80,0|0|8,0:0|0:0|0:0,0:0:0:0:
375,147,95413,1,0,0:0:0:0:
304,96,95587,2,0,P|220:96|140:144,1,160,0|8,0:0|0:0,0:0:0:0:
80,180,96110,1,0,0:0:0:0:
96,268,96285,2,0,P|133:254|158:224,1,80
196,304,96634,5,8,0:0:0:0:
264,360,96808,1,0,0:0:0:0:
328,296,96983,2,0,P|368:276|384:236,1,80
432,172,97331,2,0,P|396:153|357:159,1,80,8|0,0:0|0:0,0:0:0:0:
280,116,97680,1,0,0:0:0:0:
280,116,97855,2,0,P|248:156|136:188,1,160
204,296,98378,6,0,P|236:256|348:224,1,160,0|8,0:0|0:0,0:0:0:0:
420,248,98901,1,0,0:0:0:0:
464,152,99076,1,0,0:0:0:0:
368,112,99250,1,0,0:0:0:0:
424,24,99424,1,8,0:0:0:0:
320,28,99599,6,0,P|272:44|240:68,1,80
188,124,99948,2,0,P|172:172|148:204,1,80,0|8,0:0|0:0,0:0:0:0:
152,284,100297,2,0,P|181:325|193:363,1,80
278,313,100645,1,0,0:0:0:0:
444,55,100994,2,0,P|445:114|332:267,1,240,0|2,0:0|0:0,0:0:0:0:
128,276,111110,6,0,L|220:276,2,80,0|8|0,0:0|0:0|0:0,0:0:0:0:
88,196,111634,2,0,L|36:196,5,40,0|0|0|8|8|0,0:0|0:0|0:0|0:0|0:0|0:0,0:0:0:0:
116,188,112157,6,0,P|176:139|257:118,1,160
339,143,112680,2,0,P|366:160|441:157,2,80,8|0|0,0:0|0:0|0:0,0:0:0:0:
323,251,113204,1,0,0:0:0:0:
477,73,113552,2,0,P|417:122|336:143,1,160,8|0,0:0|0:0,0:0:0:0:
338,142,114076,1,8,0:0:0:0:
247,185,114250,5,0,0:0:0:0:
323,251,114424,2,0,P|298:291|269:310,1,80
196,264,114773,1,8,0:0:0:0:
149,192,114948,2,0,L|186:121,1,80
99,119,115297,2,0,L|62:190,1,80,0|8,0:0|0:0,0:0:0:0:
196,265,115645,2,0,L|233:194,1,80
278,118,115994,1,0,0:0:0:0:
325,192,116169,1,8,0:0:0:0:
325,192,116343,2,0,P|458:214|438:314,1,240,0|8,0:0|0:0,0:0:0:0:
196,266,117215,6,0,L|196:320,4,40,0|0|0|0|8,0:0|0:0|0:0|0:0|0:0,0:0:0:0:
116,224,117738,1,0,0:0:0:0:
188,176,117913,6,0,P|228:100|300:84,1,160,0|8,0:0|0:0,0:0:0:0:
400,252,118610,1,0,0:0:0:0:
340,320,118785,1,0,0:0:0:0:
160,308,119134,2,0,P|61:306|115:224,1,240,0|8,0:0|0:0,0:0:0:0:
296,88,120006,6,0,P|336:108|352:160,1,80
272,172,120355,1,8,0:0:0:0:
24,120,120704,2,0,P|28:196|92:260,1,160,0|8,0:0|0:0,0:0:0:0:
40,320,121227,2,0,P|72:340|128:320,1,80
200,348,121576,2,0,P|204:310|162:268,1,80,0|8,0:0|0:0,0:0:0:0:
241,165,121924,2,0,P|304:120|388:116,1,160
456,164,122448,1,8,0:0:0:0:
380,208,122622,6,0,P|336:212|304:248,1,80
268,312,122971,2,0,P|304:324|348:312,1,80
428,284,123320,2,0,L|464:268,2,40
488,76,123843,6,0,P|420:108|336:104,1,160,8|0,0:0|0:0,0:0:0:0:
336,104,124366,1,0,0:0:0:0:
288,32,124541,2,0,P|248:104|292:180,1,160,8|0,0:0|0:0,0:0:0:0:
200,216,125064,2,0,P|160:164|124:156,1,80,0|8,0:0|0:0,0:0:0:0:
62,181,125413,2,0,P|79:217|112:240,1,80
176,300,125762,1,0,0:0:0:0:
260,284,125936,1,8,0:0:0:0:
336,324,126110,6,0,P|404:280|452:192,1,160
440,124,126634,1,8,0:0:0:0:
372,56,126808,1,0,0:0:0:0:
304,124,126983,1,0,0:0:0:0:
236,56,127157,1,0,0:0:0:0:
168,124,127331,1,8,0:0:0:0:
108,188,127506,2,0,P|80:228|20:256,1,80
204,340,128029,6,0,L|268:288,1,80,8|0,0:0|0:0,0:0:0:0:
340,336,128378,2,0,L|404:284,1,80
416,180,128727,2,0,L|480:180,2,40,8|0|0,0:0|0:0|0:0,0:0:0:0:
392,76,129076,6,0,P|368:32|328:16,1,80
260,24,129424,1,8,0:0:0:0:
304,100,129599,1,0,0:0:0:0:
248,168,129773,2,0,P|216:129|216:86,1,80
304,100,130122,1,8,0:0:0:0:
304,100,130297,2,0,P|340:224|264:324,1,240,0|8,0:0|0:0,0:0:0:0:
44,320,131169,5,0,0:0:0:0:
100,252,131343,1,0,0:0:0:0:
44,184,131517,1,8,0:0:0:0:
100,116,131692,1,0,0:0:0:0:
152,188,131866,2,0,B|167:186|175:178|175:178|183:194|183:194|187:178|187:178|191:194|191:194|195:178|195:178|199:194|199:194|207:178|207:178|211:194|211:194|219:186|239:186,1,160,0|8,0:0|0:0,0:0:0:0:
340,192,132390,1,0,0:0:0:0:
444,336,132564,2,0,B|436:322|425:319|425:319|435:304|435:304|419:308|419:308|432:297|432:297|416:301|416:301|428:290|428:290|410:290|410:290|423:279|423:279|412:276|410:270,1,160,0|8,0:0|0:0,0:0:0:0:
440,188,133087,6,0,L|496:120,1,80
456,44,133436,2,0,L|405:105,1,80,0|8,0:0|0:0,0:0:0:0:
316,96,133785,2,0,L|366:34,2,80
256,160,134308,1,8,0:0:0:0:
60,324,134657,5,8,0:0:0:0:
148,324,134831,1,0,0:0:0:0:
104,248,135006,1,2,0:0:0:0:
192,252,135180,2,0,P|336:236|412:284,1,240,0|2,0:0|0:0,0:0:0:0:
476,224,135878,6,0,P|448:192|444:140,1,80,0|8,0:0|0:0,0:0:0:0:
352,152,136227,2,0,P|343:113|317:84,1,80,0|2,0:0|0:0,0:0:0:0:
232,64,136576,2,0,P|195:78|170:108,1,80,0|8,0:0|0:0,0:0:0:0:
100,56,136924,2,0,P|73:85|35:97,1,80,0|2,0:0|0:0,0:0:0:0:
60,184,137273,6,0,L|20:232,2,40,0|0|8,0:0|0:0|0:0,0:0:0:0:
60,184,137622,2,0,P|136:176|224:224,1,160
256,284,138145,1,8,0:0:0:0:
304,212,138320,1,0,0:0:0:0:
304,212,138494,2,0,P|375:178|454:185,1,160,2|8,0:0|0:0,0:0:0:0:
468,80,139017,6,0,P|428:88|384:80,1,80,0|2,0:0|0:0,0:0:0:0:
304,56,139366,2,0,P|265:48|225:53,1,80,0|8,0:0|0:0,0:0:0:0:
148,92,139715,2,0,P|109:99|69:94,1,80,0|2,0:0|0:0,0:0:0:0:
36,176,140064,1,0,0:0:0:0:
64,260,140238,5,8,0:0:0:0:
120,328,140413,1,0,0:0:0:0:
284,152,140762,1,0,0:0:0:0:
64,260,141110,1,0,0:0:0:0:
152,248,141285,2,0,L|224:200,1,80,2|0,0:0|0:0,0:0:0:0:
256,176,141547,1,0,0:0:0:0:
284,152,141634,6,0,P|316:120|376:112,1,80
432,140,141983,2,0,P|428:68|344:20,2,160,2|8|2,0:0|0:0|0:0,0:0:0:0:
280,328,143029,2,0,P|240:340|200:328,1,80,8|0,0:0|0:0,0:0:0:0:
132,280,143378,1,2,0:0:0:0:
204,228,143552,2,0,P|242:218|280:230,1,80,0|8,0:0|0:0,0:0:0:0:
428,286,143901,2,0,P|390:274|352:284,1,80,0|2,0:0|0:0,0:0:0:0:
280,328,144250,2,0,P|240:340|200:328,1,80,0|8,0:0|0:0,0:0:0:0:
132,280,144599,6,0,L|68:280,2,40,0|0|2,0:0|0:0|0:0,0:0:0:0:
120,160,144948,2,0,L|88:136,2,40,0|0|8,0:0|0:0|0:0,0:0:0:0:
196,76,145297,2,0,L|176:36,2,40,0|0|2,0:0|0:0|0:0,0:0:0:0:
312,48,145645,1,0,0:0:0:0:
352,64,145733,1,0,0:0:0:0:
388,92,145820,5,8,0:0:0:0:
427,172,145994,1,0,0:0:0:0:
427,172,146343,2,0,P|403:244|303:292,1,160
255,256,146866,1,2,0:0:0:0:
255,344,147041,1,0,0:0:0:0:
182,294,147215,2,0,P|115:251|90:177,2,160,8|2|8,0:0|0:0|0:0,0:0:0:0:
256,64,148262,5,2,0:0:0:0:
504,64,148610,1,8,0:0:0:0:
376,252,148959,1,2,0:0:0:0:
312,152,149308,5,8,0:0:0:0:
448,156,149483,1,0,0:0:0:0:
376,252,149657,1,2,0:0:0:0:
376,252,149831,2,0,P|284:312|152:312,1,240,0|2,0:0|0:0,0:0:0:0:
92,252,150529,6,0,P|80:208|48:168,1,80,0|8,0:0|0:0,0:0:0:0:
44,92,150878,2,0,L|0:72,4,40,0|0|0|0|0,0:0|0:0|0:0|0:0|0:0,0:0:0:0:
132,76,151401,6,0,P|176:64|216:32,1,80
204,44,151750,1,8,0:0:0:0:
420,100,152099,2,0,L|344:160,1,80
357,149,152448,1,8,0:0:0:0:
168,300,152797,2,0,L|230:250,1,80
230,250,153145,1,8,0:0:0:0:
28,116,153494,1,0,0:0:0:0:
108,76,153669,2,4,P|140:32|192:28,2,80,4|4|4,3:0|0:3|3:0,0:0:0:0:
188,108,154192,6,0,B|228:108|228:108|252:92|252:92|276:112|276:112|300:92|300:92|320:112|320:112|364:80|408:80|444:104|448:148|428:176,1,320,0|8,0:0|0:0,0:0:0:0:
304,264,155238,2,0,P|236:300|128:296,1,160,2|0,0:0|0:0,0:0:0:0:
80,252,155762,2,0,P|64:284|68:328,2,80,0|2|0,0:0|0:0|0:0,0:0:0:0:
152,140,156285,5,0,0:0:0:0:
228,92,156459,1,2,0:0:0:0:
400,264,156808,2,0,P|396:184|304:52,1,240,8|8,0:0|0:0,0:0:0:0:
228,92,157506,1,0,0:0:0:0:
152,140,157680,2,0,P|104:180|80:216,1,80
93,193,158029,1,8,0:0:0:0:
8,172,158204,2,0,P|32:260|92:284,1,160
89,283,158727,1,8,0:0:0:0:
236,292,158901,1,0,0:0:0:0:
304,236,159076,1,0,0:0:0:0:
332,320,159250,2,0,P|372:296|384:248,1,80,0|8,0:0|0:0,0:0:0:0:
372,180,159599,6,0,P|376:88|336:32,1,160
252,28,160122,1,8,0:0:0:0:
176,68,160297,1,0,0:0:0:0:
252,112,160471,1,0,0:0:0:0:
176,152,160645,1,0,0:0:0:0:
176,152,160820,1,8,0:0:0:0:
176,152,160994,2,0,P|120:200|104:296,1,160
132,312,161430,1,0,0:0:0:0:
168,340,161517,2,0,P|240:316|252:292,1,80,8|0,0:0|0:0,0:0:0:0:
320,216,161866,5,0,0:0:0:0:
404,240,162041,2,0,P|408:200|392:164,1,80,0|8,0:0|0:0,0:0:0:0:
320,216,162390,2,0,P|264:160|164:160,1,160
104,124,162913,2,0,P|128:88|180:72,2,80,8|0|0,0:0|0:0|0:0,0:0:0:0:
20,100,163436,6,0,P|28:168|56:184,1,80,0|8,0:0|0:0,0:0:0:0:
108,216,163785,1,0,0:0:0:0:
196,224,163959,2,0,P|156:292|76:300,2,160,0|8|0,0:0|0:0|0:0,0:0:0:0:
392,84,165006,5,8,0:0:0:0:
352,320,165355,2,0,P|372:284|380:232,1,80
428,172,165704,1,8,0:0:0:0:
392,84,165878,2,0,P|428:52|440:24,2,80
316,128,166401,2,0,P|280:145|255:176,1,80,8|0,0:0|0:0,0:0:0:0:
204,96,166750,5,0,0:0:0:0:
120,60,166924,1,0,0:0:0:0:
40,92,167099,1,8,0:0:0:0:
96,160,167273,1,0,0:0:0:0:
52,172,167360,1,0,0:0:0:0:
16,188,167448,2,0,L|16:272,1,80
68,340,167797,1,8,0:0:0:0:
156,340,167971,2,0,P|296:328|364:256,1,240,0|8,0:0|0:0,0:0:0:0:
440,220,168669,6,0,P|412:188|344:180,1,80
377,175,169017,1,0,0:0:0:0:
388,88,169192,2,0,P|340:92|304:144,1,80,8|0,0:0|0:0,0:0:0:0:
292,196,169541,1,0,0:0:0:0:
204,176,169715,2,0,P|188:116|160:100,1,80,0|8,0:0|0:0,0:0:0:0:
112,168,170064,1,0,0:0:0:0:
24,176,170238,6,0,P|40:116|68:100,1,80
112,252,170587,1,8,0:0:0:0:
112,252,170762,2,0,P|180:292|364:280,1,240,0|8,0:0|0:0,0:0:0:0:
419,319,171459,2,0,P|423:279|403:239,1,80
395,169,171808,2,0,P|391:208|407:244,1,80,0|8,0:0|0:0,0:0:0:0:
480,192,172157,2,0,P|464:116|392:80,1,160
308,80,172680,1,8,0:0:0:0:
68,176,173029,5,0,0:0:0:0:
12,244,173204,1,0,0:0:0:0:
68,312,173378,1,8,0:0:0:0:
124,244,173552,2,0,L|216:244,1,80
256,316,173901,2,0,P|368:308|448:216,1,240
448,128,174599,1,0,0:0:0:0:
388,64,174773,5,8,0:0:0:0:
315,14,174948,1,0,0:0:0:0:
246,69,175122,1,0,0:0:0:0:
276,151,175297,1,0,0:0:0:0:
364,148,175471,2,0,P|368:192|356:244,1,80,8|0,0:0|0:0,0:0:0:0:
316,296,175820,1,0,0:0:0:0:
244,348,175994,2,0,P|224:312|236:256,1,80,0|8,0:0|0:0,0:0:0:0:
316,296,176343,2,0,P|368:200|312:80,1,240,0|8,0:0|0:0,0:0:0:0:
200,76,177041,6,0,B|201:80|212:83|212:83|199:94|199:94|217:94|217:94|205:105|205:105|221:101|221:101|208:112|208:112|224:108|224:108|214:123|214:123|225:126|233:140,1,160
140,188,177564,2,0,B|132:174|120:171|120:171|131:156|131:156|114:160|114:160|128:149|128:149|111:153|111:153|123:142|123:142|105:142|105:142|118:131|118:131|107:128|106:123,1,160,8|0,0:0|0:0,0:0:0:0:
140,188,178087,1,0,0:0:0:0:
80,252,178262,2,0,P|116:276|176:256,1,80,8|0,0:0|0:0,0:0:0:0:
235,292,178610,2,0,P|240:253|220:220,1,80
224,68,178959,2,0,P|203:101|208:140,1,80,8|0,0:0|0:0,0:0:0:0:
296,124,179308,2,0,P|348:168|364:276,1,160,0|2,0:0|0:0,0:0:0:0:
256,192,187680,12,0,189424,0:0:0:0:
436,64,189773,5,8,0:0:0:0:
256,184,190122,1,0,0:0:0:0:
56,316,190471,6,0,P|112:240|188:208,1,160,0|8,0:0|0:0,0:0:0:0:
348,120,191169,1,0,0:0:0:0:
436,64,191343,1,0,0:0:0:0:
440,168,191517,1,8,0:0:0:0:
348,216,191692,1,0,0:0:0:0:
256,168,191866,2,0,P|220:184|148:184,1,80
75,124,192215,2,0,P|115:120|152:104,1,80,8|0,0:0|0:0,0:0:0:0:
76,264,192738,5,0,0:0:0:0:
140,324,192913,1,8,0:0:0:0:
348,216,193262,5,0,0:0:0:0:
412,156,193436,1,0,0:0:0:0:
388,72,193610,2,0,P|352:44|296:48,1,80,8|0,0:0|0:0,0:0:0:0:
232,48,193959,1,0,0:0:0:0:
172,112,194134,1,0,0:0:0:0:
236,172,194308,1,8,0:0:0:0:
184,244,194483,2,0,P|144:280|96:288,2,80
240,312,195006,1,8,0:0:0:0:
288,248,195180,2,0,B|328:240|360:272|360:272|392:240|440:248,1,160
433,247,195704,1,8,0:0:0:0:
288,56,196052,6,0,P|248:44|200:64,1,80
252,132,196401,1,8,0:0:0:0:
252,132,196576,2,0,P|264:172|188:256,1,160
140,324,197099,2,0,L|60:280,1,80,8|0,0:0|0:0,0:0:0:0:
16,216,197448,1,0,0:0:0:0:
20,128,197622,1,0,0:0:0:0:
72,56,197797,2,0,P|120:48|156:64,1,80,8|0,0:0|0:0,0:0:0:0:
112,136,198145,2,0,P|156:144|248:216,1,160,0|8,0:0|0:0,0:0:0:0:
464,332,198843,6,0,P|428:312|384:300,1,80
304,320,199192,2,0,P|312:256|396:208,1,160,8|0,0:0|0:0,0:0:0:0:
388,207,199715,1,0,0:0:0:0:
448,144,199890,1,8,0:0:0:0:
388,80,200064,2,0,P|352:60|292:68,1,80
328,148,200413,2,0,P|288:148|248:124,1,80,0|8,0:0|0:0,0:0:0:0:
140,64,200762,6,0,L|56:104,1,80,0|8,0:0|0:0,0:0:0:0:
120,168,201110,2,0,L|88:252,1,80,0|8,0:0|0:0,0:0:0:0:
91,242,201459,1,0,0:0:0:0:
156,344,201634,5,0,0:0:0:0:
231,271,201808,1,0,0:0:0:0:
304,344,201983,1,8,0:0:0:0:
392,340,202157,2,0,P|448:340|472:320,1,80,0|0,0:0|0:0,0:0:0:0:
416,256,202506,1,0,0:0:0:0:
416,256,202855,2,0,B|412:168|352:112|352:112|304:132|252:84,1,240,0|8,0:0|0:0,0:0:0:0:
112,288,203727,5,8,0:0:0:0:
60,216,203901,1,0,0:0:0:0:
148,208,204076,2,0,P|164:168|192:144,1,80,8|0,0:0|0:0,0:0:0:0:
236,220,204424,2,0,P|272:172|360:128,1,160,8|8,0:0|0:0,0:0:0:0:
448,124,204948,1,0,0:0:0:0:
408,200,205122,1,0,0:0:0:0:
452,276,205297,1,0,0:0:0:0:
452,276,205645,2,0,P|384:328|208:344,1,240,0|8,0:0|0:0,0:0:0:0:
148,336,206343,6,0,P|96:332|64:300,1,80
2,296,206692,2,0,P|42:295|75:316,1,80,0|8,0:0|0:0,0:0:0:0:
192,80,207215,6,0,L|248:140,1,80
376,156,207564,2,0,L|321:97,1,80,8|0,0:0|0:0,0:0:0:0:
324,228,207913,2,0,L|380:288,1,80
248,276,208262,2,0,L|193:217,1,80,8|0,0:0|0:0,0:0:0:0:
148,292,208610,5,0,0:0:0:0:
256,59,208959,1,8,0:0:0:0:
402,269,209308,1,0,0:0:0:0:
472,227,209483,6,0,P|484:265|476:304,2,80,0|8|0,0:0|0:0|0:0,0:0:0:0:
388,120,210006,1,0,0:0:0:0:
214,93,210355,2,0,P|183:69|144:68,1,80,8|0,0:0|0:0,0:0:0:0:
152,155,210704,2,0,P|112:154|80:176,1,80
144,236,211052,5,8,0:0:0:0:
216,288,211227,1,0,0:0:0:0:
232,200,211401,2,0,P|263:175|302:174,1,80
294,261,211750,2,0,P|333:259|366:281,1,80,8|4,0:0|0:3,0:0:0:0:
384,196,212099,1,4,0:3:0:0:
416,116,212273,1,4,0:3:0:0:
364,44,212448,6,0,P|316:56|252:48,1,80,8|0,0:0|0:0,0:0:0:0:
196,56,212797,2,0,P|108:88|56:232,1,240
0,288,213494,2,0,P|68:308|136:256,1,160,8|0,0:0|0:0,0:0:0:0:
134,258,214017,1,0,0:0:0:0:
202,209,214192,6,0,B|264:188|352:228|360:264|332:304|276:288|264:252|316:176|376:160,1,320,8|8,0:0|0:0,0:0:0:0:
424,88,215064,2,0,P|454:113|463:152,2,80,4|0|4,0:3|0:0|0:3,0:0:0:0:
336,84,215587,1,2,0:0:0:0:
324,96,216983,5,8,0:0:0:0:
243,53,217157,1,0,0:0:0:0:
164,100,217331,1,8,0:0:0:0:
72,76,217506,1,0,0:0:0:0:
84,168,217680,1,8,0:0:0:0:
164,100,217855,1,0,0:0:0:0:
260,224,218204,6,0,P|312:280|360:276,1,120,0|2,0:0|0:0,0:0:0:0:
340,192,219076,1,0,0:0:0:0:
420,156,219424,1,2,0:0:0:0:
420,156,219599,2,0,P|383:110|324:108,1,120,0|2,0:0|0:0,0:0:0:0:
260,152,220297,5,0,0:0:0:0:
260,152,220471,1,0,0:0:0:0:
260,152,220645,1,0,0:0:0:0:
176,164,220994,2,0,P|200:216|256:236,1,120,0|2,0:0|0:0,0:0:0:0:
304,232,221692,1,0,0:0:0:0:
352,232,221866,2,0,L|432:232,1,80,0|2,0:0|0:0,0:0:0:0:
476,228,222390,2,0,P|500:192|496:144,1,80
120,80,223262,5,0,0:0:0:0:
64,148,223436,1,0,0:0:0:0:
120,216,223610,1,2,0:0:0:0:
280,148,223959,2,0,B|295:146|303:138|303:138|311:154|311:154|315:138|315:138|319:154|319:154|323:138|323:138|327:154|327:154|335:138|335:138|339:154|339:154|347:146|367:146,1,160,0|2,0:0|0:0,0:0:0:0:
120,216,224657,5,0,0:0:0:0:
64,148,224831,1,0,0:0:0:0:
120,80,225006,1,2,0:0:0:0:
264,288,225355,2,0,B|257:286|249:294|249:294|245:278|245:278|237:294|237:294|233:278|233:278|229:294|229:294|225:278|225:278|221:294|221:294|213:278|213:278|205:286|190:288,1,160,0|2,0:0|0:0,0:0:0:0:
388,112,226052,6,0,P|420:88|448:52,2,80,0|0|2,0:0|0:0|0:0,0:0:0:0:
124,120,226750,2,0,P|124:196|196:260,1,160,0|2,0:0|0:0,0:0:0:0:
440,304,227448,1,0,0:0:0:0:
468,220,227622,1,0,0:0:0:0:
380,228,227797,1,2,0:0:0:0:
380,228,227971,2,0,P|326:170|248:165,1,160
32,316,228669,6,8,L|-4:348,2,40,8|8|8,0:1|0:1|0:1,0:0:0:0:
120,312,229017,2,0,L|216:312,2,80,4|0|4,0:3|0:0|0:3,0:0:0:0:
76,236,229541,6,0,P|104:156|176:104,1,160,0|8,0:0|0:1,0:0:0:0:
244,76,230587,1,0,0:0:0:0:
320,32,230936,2,0,P|332:88|268:160,1,160,0|8,0:0|0:1,0:0:0:0:
312,228,231808,38,0,L|360:296,1,80
358,293,232331,1,0,0:1:0:0:
172,288,232680,2,0,L|124:308,1,40,0|0,0:0|0:0,0:0:0:0:
104,272,233029,2,0,L|52:273,1,40,8|0,0:0|0:0,0:0:0:0:
64,228,233378,2,0,L|14:210,1,40
8,176,233727,2,0,P|-8:132|12:92,1,80,0|0,0:0|0:0,0:0:0:0:
84,140,234424,5,8,0:0:0:0:
180,108,234599,1,0,0:0:0:0:
268,140,234773,1,0,0:0:0:0:
464,316,235122,6,0,P|404:288|384:252,1,80,8|0,0:0|0:0,0:0:0:0:
260,336,235471,2,0,P|298:282|338:269,1,80
172,212,235820,2,0,P|212:204|264:212,1,80,8|0,0:0|0:0,0:0:0:0:
272,48,236169,2,0,P|319:94|326:134,1,80
128,100,236517,2,0,P|147:65|179:42,1,80,8|0,0:0|0:0,0:0:0:0:
128,100,236866,2,0,P|108:134|76:157,1,80
40,236,237215,5,8,0:0:0:0:
52,276,237302,1,0,0:0:0:0:
80,308,237390,1,0,0:0:0:0:
120,328,237477,1,0,0:0:0:0:
164,336,237564,2,0,P|216:336|320:292,1,160,8|4,0:0|0:0,0:0:0:0:
476,56,238262,6,0,L|404:108,1,80,8|0,0:0|0:0,0:0:0:0:
348,164,238610,1,0,0:0:0:0:
328,80,238785,1,0,0:0:0:0:
264,136,238959,1,0,0:0:0:0:
248,52,239134,2,0,P|196:80|184:124,1,80,0|0,0:0|0:0,0:0:0:0:
264,136,239483,2,0,P|223:179|226:224,1,80,0|8,0:0|0:0,0:0:0:0:
136,212,239831,6,0,L|72:156,2,80
80,284,240355,1,8,0:0:0:0:
164,312,240529,1,0,0:0:0:0:
244,280,240704,2,0,P|276:296|344:288,1,80,4|0,0:0|0:0,0:0:0:0:
300,212,241052,2,0,P|335:216|396:185,1,80,8|0,0:0|0:0,0:0:0:0:
332,124,241401,2,0,P|366:113|410:61,2,80,0|0|8,0:0|0:0|0:0,0:0:0:0:
316,36,241924,2,0,P|256:64|192:144,1,160
196,134,242360,1,0,0:0:0:0:
196,134,242448,1,8,0:0:0:0:
136,196,242622,5,0,0:0:0:0:
88,268,242797,2,0,L|160:324,1,80,0|0,0:0|0:0,0:0:0:0:
151,317,243145,1,8,0:0:0:0:
236,348,243320,2,0,P|276:352|328:340,1,80,0|4,0:0|0:0,0:0:0:0:
380,288,243669,1,0,0:0:0:0:
432,216,243843,2,0,L|464:128,1,80,8|0,0:0|0:0,0:0:0:0:
404,72,244192,1,0,0:0:0:0:
364,144,244366,1,0,0:0:0:0:
316,60,244541,2,0,L|266:123,1,80,8|0,0:0|0:0,0:0:0:0:
284,208,244890,6,0,P|212:192|184:104,2,160,0|8|0,0:0|0:0|0:0,0:0:0:0:
448,268,245936,2,0,L|400:336,1,80,8|0,0:0|0:0,0:0:0:0:
316,352,246285,2,0,P|240:348|136:304,1,160,4|8,0:0|0:0,0:0:0:0:
92,268,246808,1,0,0:0:0:0:
36,200,246983,1,0,0:0:0:0:
92,132,247157,1,0,0:0:0:0:
176,152,247331,1,8,0:0:0:0:
408,184,247506,2,0,P|346:175|236:232,1,160,0|0,0:0|0:0,0:0:0:0:
176,272,248029,6,0,P|144:244|112:200,1,80,8|0,0:0|0:0,0:0:0:0:
36,200,248378,2,0,L|4:152,3,40
0,128,248727,2,0,P|24:64|56:56,1,80,8|0,0:0|0:0,0:0:0:0:
116,44,249076,2,0,B|168:33|216:62|216:62|253:33|277:46,1,160,4|8,0:0|0:0,0:0:0:0:
424,284,249773,5,0,0:0:0:0:
368,216,249948,1,0,0:0:0:0:
340,300,250122,1,8,0:0:0:0:
280,236,250297,2,0,L|196:280,2,80
280,148,250820,1,8,0:0:0:0:
188,136,250994,1,0,0:0:0:0:
48,64,251169,5,0,0:0:0:0:
100,136,251343,1,0,0:0:0:0:
148,216,251517,1,8,0:0:0:0:
148,216,251692,2,0,P|176:228|228:216,1,80,0|4,0:0|0:0,0:0:0:0:
464,60,252215,5,8,0:0:0:0:
436,144,252390,2,0,P|404:184|344:200,1,80
352,112,252738,2,0,P|296:116|208:60,1,160
124,88,253262,2,0,B|104:156|16:204|16:204|104:224|132:332,1,320
124,307,254308,5,8,0:0:0:0:
208,276,254483,1,0,0:0:0:0:
248,260,254570,1,0,0:0:0:0:
288,240,254657,2,0,P|376:188|416:128,1,160,4|8,0:0|0:0,0:0:0:0:
184,52,255355,2,0,L|136:136,1,80
144,121,255704,1,8,0:0:0:0:
108,200,255878,5,0,0:0:0:0:
76,280,256052,2,0,P|112:308|228:292,1,160,0|8,0:0|0:0,0:0:0:0:
288,240,256576,1,0,0:0:0:0:
372,272,256750,2,0,P|380:232|364:192,1,80
288,152,257099,1,8,0:0:0:0:
204,192,257273,1,0,0:0:0:0:
68,112,257448,6,0,P|160:176|208:192,1,160,4|8,0:0|0:0,0:0:0:0:
68,112,257971,1,0,0:0:0:0:
224,80,258145,2,0,P|296:112|380:112,1,160,4|8,0:0|0:0,0:0:0:0:
224,80,258669,2,0,L|160:48,2,40
288,240,259017,2,0,L|212:288,1,80,0|4,0:0|0:3,0:0:0:0:
352,336,259366,2,4,L|419:293,1,80
464,72,259890,5,8,0:0:0:0:
352,336,260238,1,0,0:0:0:0:
440,124,260587,1,8,0:0:0:0:
368,296,260936,1,0,0:0:0:0:
440,124,261285,1,8,0:0:0:0:
368,296,261634,6,0,P|352:252|308:208,1,80,0|0,0:0|0:0,0:0:0:0:
195,161,261983,2,0,P|224:189|244:224,1,80,8|0,0:0|0:0,0:0:0:0:
172,304,262331,2,0,P|144:268|100:240,1,80
48,192,262680,1,8,0:0:0:0:
52,104,262855,1,0,0:0:0:0:
132,144,263029,22,0,B|134:41|244:34|269:123|251:213|272:262|272:262|279:267,1,320,4|0,0:0|0:0,0:0:0:0:
271,259,264599,1,0,0:3:0:0:
271,259,264773,1,4,0:0:0:0:
271,259,264948,1,0,0:3:0:0:
28,332,265820,6,0,P|56:284|136:208,1,160,0|8,0:0|0:0,0:0:0:0:
384,176,266517,1,0,0:0:0:0:
384,176,266692,2,0,P|324:252|264:300,1,160
28,332,267390,5,0,0:0:0:0:
44,244,267564,1,8,0:0:0:0:
72,160,267738,2,0,P|108:112|156:92,1,80
160,184,268087,2,0,P|204:172|268:180,1,80,0|8,0:0|0:0,0:0:0:0:
400,176,268436,2,0,P|360:180|321:174,1,80
496,172,268959,5,8,0:0:0:0:
448,260,269134,1,0,0:0:0:0:
352,264,269308,1,0,0:0:0:0:
352,264,269483,2,0,P|308:300|264:312,1,80,0|8,0:0|0:0,0:0:0:0:
276,220,269831,2,0,P|228:240|122:233,1,160
122,232,270355,1,8,0:0:0:0:
96,60,270704,6,0,L|192:32,1,80
280,97,271052,2,0,L|204:120,1,80,8|0,0:0|0:0,0:0:0:0:
280,96,271401,2,0,P|336:151|424:163,1,160,0|8,0:0|0:0,0:0:0:0:
188,288,272099,5,0,0:0:0:0:
100,288,272273,1,0,0:0:0:0:
60,208,272448,1,8,0:0:0:0:
148,208,272622,2,0,P|176:136|276:212,1,240,0|8,0:0|0:0,0:0:0:0:
432,64,273494,5,0,0:0:0:0:
360,116,273669,1,0,0:0:0:0:
392,196,273843,1,8,0:0:0:0:
336,264,274017,1,0,0:0:0:0:
264,312,274192,2,0,P|196:332|84:324,1,160,0|8,0:0|0:0,0:0:0:0:
164,88,274890,6,0,L|248:88,1,80
164,168,275238,2,0,L|84:168,1,80,8|0,0:0|0:0,0:0:0:0:
232,264,275762,1,0,0:0:0:0:
296,204,275936,1,8,0:0:0:0:
360,264,276110,1,0,0:0:0:0:
296,204,276285,6,0,P|336:176|392:172,3,80,0|0|8|0,0:0|0:0|0:0|0:0,0:0:0:0:
452,156,276983,1,0,0:0:0:0:
256,192,277157,12,0,279773,0:0:0:0:
72,136,280122,38,0,L|152:136,1,80,0|8,0:0|0:0,0:0:0:0:
240,136,280820,2,0,P|268:126|283:107,2,40,0|0|8,0:0|0:0|0:0,0:0:0:0:
196,200,281343,2,0,P|196:252|220:284,1,80
272,224,281866,2,0,L|312:224,1,40,8|0,0:0|0:0,0:0:0:0:
356,220,282215,6,0,P|416:184|428:88,1,160,0|2,0:0|0:1,0:0:0:0:
