osu file format v13

[General]
AudioFilename: 47.mp3
AudioLeadIn: 0
PreviewTime: 78145
Countdown: 0
SampleSet: None
StackLeniency: 0.9
Mode: 0
LetterboxInBreaks: 0
WidescreenStoryboard: 0

[Editor]
Bookmarks: 704,28610,35151,56517,77448,106401,134308,156285,179657,201634,215587,228843,248204,271401,282913
DistanceSpacing: 1
BeatDivisor: 4
GridSize: 4
TimelineZoom: 1.8

[Metadata]
Title:Yonjuunana
TitleUnicode:ヨンジュウナナ
Artist:mikitoP
ArtistUnicode:みきとP
Creator:blackabyss
Version:Cries
Source:
Tags:Hatsune Miku 初音ミク 47 Fourty-Seven Vocaloid sequel CHRIS Kihhou Teru21
BeatmapID:442506
BeatmapSetID:171885

[Difficulty]
HPDrainRate:7
CircleSize:4.5
OverallDifficulty:8
ApproachRate:9
SliderMultiplier:2
SliderTickRate:1

[Events]
//Background and Video events
0,0,"41129295e.jpg",0,0
//Break Periods
2,28810,32894
2,101717,105801
2,179856,184290
//Storyboard Layer 0 (Background)
//Storyboard Layer 1 (Fail)
//Storyboard Layer 2 (Pass)
//Storyboard Layer 3 (Foreground)
//Storyboard Sound Samples
//Background Colour Transformations
3,100,163,162,255

[TimingPoints]
704,348.837209302326,4,2,1,30,1,0
704,-200,4,2,1,30,0,0
17448,-100,4,1,2,45,0,0
21983,-100,4,1,2,20,0,0
22331,-83.3333333333333,4,1,2,45,0,0
23029,-100,4,1,2,45,0,0
39076,-83.3333333333333,4,1,2,45,0,0
39250,-100,4,1,2,45,0,0
45006,-83.3333333333333,4,1,2,45,0,0
45180,-100,4,1,2,45,0,0
56517,-100,4,3,1,45,0,0
57738,-83.3333333333333,4,3,1,45,0,0
57913,-100,4,3,1,45,0,0
63320,-83.3333333333333,4,3,1,45,0,0
63494,-100,4,3,1,45,0,0
71692,-133.333333333333,4,3,1,45,0,0
72390,-100,4,1,2,45,0,0
77099,-83.3333333333333,4,1,2,45,0,0
77448,-100,4,1,2,45,0,0
78843,-100,4,1,1,65,0,1
101169,-83.3333333333333,4,1,2,45,0,0
101517,-100,4,1,2,45,0,0
111110,-83.3333333333333,4,2,1,30,0,0
111634,-100,4,1,2,45,0,0
117215,-83.3333333333333,4,1,2,45,0,0
117390,-100,4,1,2,45,0,0
130297,-83.3333333333333,4,1,2,45,0,0
130820,-100,4,1,2,45,0,0
134657,-100,4,3,1,45,0,0
135704,-83.3333333333333,4,3,1,45,0,0
135878,-100,4,3,1,45,0,0
137448,-83.3333333333333,4,3,1,45,0,0
137622,-100,4,3,1,45,0,0
138843,-83.3333333333333,4,3,1,45,0,0
139017,-100,4,3,1,45,0,0
149831,-133.333333333333,4,3,1,45,0,0
150529,-100,4,1,2,45,0,0
155238,-83.3333333333333,4,3,1,45,0,0
155587,-100,4,2,1,30,0,0
156983,-100,4,1,1,70,0,1
176517,-100,4,1,1,45,0,0
179657,-100,4,1,1,35,0,0
201634,-100,4,1,2,45,0,0
207215,-83.3333333333333,4,1,2,45,0,0
208785,-100,4,1,2,45,0,0
211401,-83.3333333333333,4,1,2,45,0,0
212448,-100,4,1,2,45,0,0
217680,-100,4,2,1,30,0,0
218204,-200,4,2,1,30,0,0
223262,-133.333333333333,4,2,1,30,0,0
223959,-133.333333333333,4,2,1,45,0,0
229541,-200,4,1,1,35,0,0
234599,-133.333333333333,4,1,1,35,0,0
235122,-83.3333333333333,4,1,1,45,0,0
237913,-100,4,1,1,70,0,1
248378,-100,4,1,1,80,0,1
249773,-100,4,1,1,70,0,1
263029,-133.333333333333,4,1,1,70,0,1
265122,-133.333333333333,4,1,1,50,0,1
265820,-100,4,1,1,45,0,0
276459,-83.3333333333333,4,1,1,45,0,0
276634,-100,4,1,1,45,0,0
279773,-100,4,2,1,35,0,0
280122,-200,4,1,2,30,0,0
282913,-200,4,2,1,20,0,0

[Colours]
Combo1 : 250,165,250
Combo2 : 157,224,150
Combo3 : 241,119,105
Combo4 : 181,249,242

[HitObjects]
88,236,704,6,0,P|72:184|88:128,1,100,0|2,0:0|0:0,0:0:0:0:
228,132,1401,2,0,P|240:179|224:236,1,100,0|2,0:0|0:0,0:0:0:0:
412,80,2099,1,0,0:0:0:0:
364,224,2448,1,2,0:0:0:0:
220,236,2797,5,0,0:0:0:0:
228,132,3145,1,2,0:0:0:0:
228,132,3320,2,0,P|276:96|328:88,1,100
360,144,3843,2,0,P|408:136|424:144,1,50,2|0,0:0|0:0,0:0:0:0:
396,208,4192,2,0,P|432:212|444:220,1,50
408,284,4541,1,2,0:0:0:0:
344,328,4715,2,0,P|264:344|188:328,1,150,0|2,0:0|0:0,0:0:0:0:
92,136,5587,2,0,P|140:120|176:80,1,100,0|2,0:0|0:0,0:0:0:0:
96,260,6285,6,0,P|140:284|176:324,1,100,0|2,0:0|0:0,0:0:0:0:
324,172,6983,2,0,P|280:148|244:96,1,100,0|2,0:0|0:0,0:0:0:0:
96,260,7680,1,0,0:0:0:0:
436,176,8029,1,2,0:0:0:0:
96,96,8378,1,0,0:0:0:0:
220,112,8552,2,0,L|288:96,2,50,0|2|0,0:0|0:0|0:0,0:0:0:0:
264,176,9076,6,0,P|292:208|296:280,1,100,0|2,0:0|0:0,0:0:0:0:
228,244,9599,2,0,P|209:290|152:316,1,100
152,240,10122,2,0,P|102:232|59:207,1,100,2|0,0:0|0:0,0:0:0:0:
344,120,10820,2,0,P|400:88|428:48,2,100,2|0|2,0:0|0:0|0:1,0:0:0:0:
172,304,11866,6,0,P|120:300|76:252,1,100,0|2,0:0|0:0,0:0:0:0:
160,84,12564,2,0,P|212:88|256:140,1,100,0|2,0:0|0:0,0:0:0:0:
468,328,13262,1,0,0:0:0:0:
160,84,13610,1,2,0:0:0:0:
324,200,13959,2,0,P|304:244|252:272,1,100,0|2,0:0|0:0,0:0:0:0:
244,192,14483,22,0,P|220:204|176:208,1,50
136,260,14831,2,0,P|155:275|180:284,1,50,0|2,0:0|0:0,0:0:0:0:
120,180,15180,2,0,P|102:162|88:136,1,50
160,84,15529,1,0,0:0:0:0:
160,84,15704,1,2,0:0:0:0:
160,84,15878,2,0,P|240:68|316:80,1,150,0|2,0:0|0:0,0:0:0:0:
412,128,16576,2,0,L|464:100,3,50,0|0|0|2,0:0|0:0|0:0|0:0,0:0:0:0:
80,328,17448,6,0,L|132:236,1,100,8|0,0:0|0:0,0:0:0:0:
304,60,17797,2,0,L|256:156,1,100
332,332,18145,2,0,L|380:236,1,100,8|0,0:0|0:0,0:0:0:0:
68,80,18494,2,0,L|160:132,1,100
420,160,18843,2,0,L|324:108,1,100,8|0,0:0|0:0,0:0:0:0:
112,268,19192,2,0,L|208:320,1,100
420,160,19541,2,0,L|364:256,1,100,8|0,0:0|0:0,0:0:0:0:
260,264,19890,5,0,0:0:0:0:
260,264,20064,1,0,0:0:0:0:
260,264,20238,2,0,P|238:214|320:96,1,200,8|0,0:0|0:0,0:0:0:0:
168,92,20762,1,0,0:0:0:0:
168,92,20936,1,8,0:0:0:0:
168,92,21110,2,0,P|124:48|72:48,1,100
96,124,21459,1,0,0:0:0:0:
108,148,21547,1,0,0:0:0:0:
120,172,21634,2,0,P|120:252|16:328,1,200,8|0,0:0|0:0,0:0:0:0:
349,217,22331,6,0,P|392:177|408:120,2,119.999996337891,8|0|2,0:0|0:0|0:0,0:0:0:0:
272,248,22855,1,0,0:0:0:0:
272,248,22942,1,0,0:0:0:0:
272,248,23029,6,0,P|176:252|80:340,1,200,0|8,0:0|0:0,0:0:0:0:
132,112,23727,1,0,0:0:0:0:
44,64,23901,1,0,0:0:0:0:
48,164,24076,1,8,0:0:0:0:
132,112,24250,2,0,P|204:128|332:88,1,200
412,160,24773,5,8,0:0:0:0:
376,264,24948,1,0,0:0:0:0:
348,292,25035,1,0,0:0:0:0:
320,320,25122,2,0,P|275:298|252:252,1,100
200,160,25471,1,8,0:0:0:0:
84,320,25645,6,0,P|127:296|153:254,1,100,0|8,0:0|0:0,0:0:0:0:
396,40,26169,1,0,0:0:0:0:
300,216,26517,2,0,P|244:236|188:240,1,100,8|0,0:0|0:0,0:0:0:0:
76,172,26866,2,0,P|140:172|192:152,1,100
392,196,27390,1,0,0:0:0:0:
368,288,27564,1,0,0:0:0:0:
144,44,27913,6,0,P|188:72|256:84,1,100,8|0,0:0|0:0,0:0:0:0:
236,172,28262,2,0,P|200:208|136:232,1,100
128,248,28523,1,0,0:0:0:0:
100,268,28610,1,8,0:0:0:0:
376,328,33494,6,0,L|392:276,3,50,0|0|0|0,0:0|0:0|0:0|0:0,0:0:0:0:
404,236,33843,1,8,0:0:0:0:
352,100,34017,1,0,0:0:0:0:
352,100,34192,6,0,P|312:124|236:124,1,100,0|0,0:0|0:0,0:0:0:0:
116,44,34541,2,0,P|157:71|181:115,1,100,8|0,0:0|0:0,0:0:0:0:
184,204,34890,1,0,0:0:0:0:
156,288,35064,2,0,P|118:319|69:328,1,100,0|8,0:0|0:0,0:0:0:0:
248,272,35413,6,0,P|312:240|448:260,1,200,8|0,0:0|0:0,0:0:0:0:
472,340,35936,1,8,0:0:0:0:
468,128,36110,1,0,0:0:0:0:
468,128,36285,2,0,L|356:96,1,100
204,132,36634,2,0,L|300:159,1,100,8|0,0:0|0:0,0:0:0:0:
396,192,36983,6,0,P|428:232|372:360,2,200,0|8|0,0:0|0:0|0:0,0:0:0:0:
316,232,37855,1,0,0:0:0:0:
236,272,38029,2,0,P|184:292|120:292,1,100,8|8,0:0|0:0,0:0:0:0:
56,232,38378,5,0,0:0:0:0:
160,88,38552,1,0,0:0:0:0:
76,136,38727,2,0,P|128:176|176:180,1,100,8|0,0:0|0:0,0:0:0:0:
232,136,39076,2,0,L|356:160,1,119.999996337891
349,158,39337,1,0,0:0:0:0:
349,158,39424,1,8,0:0:0:0:
348,264,39599,1,0,0:0:0:0:
316,284,39686,1,0,0:0:0:0:
284,300,39773,6,0,P|236:314|184:300,2,100,0|0|8,0:0|0:0|0:0,0:0:0:0:
236,220,40297,1,0,0:0:0:0:
166,61,40471,2,0,P|152:120|176:160,1,100
244,108,40820,1,0,0:0:0:0:
332,103,40994,6,0,P|372:142|432:299,1,200,8|0,0:0|0:0,0:0:0:0:
331,105,41517,2,0,P|318:152|284:192,1,100,8|0,0:0|0:0,0:0:0:0:
228,260,41866,1,0,0:0:0:0:
136,252,42041,1,0,0:0:0:0:
60,208,42215,2,0,P|47:256|67:304,1,100,8|0,0:0|0:0,0:0:0:0:
100,44,42564,6,0,P|160:48|196:84,2,100,0|0|8,0:0|0:0|0:0,0:0:0:0:
37,115,43087,1,0,0:0:0:0:
123,139,43262,2,0,P|102:183|60:208,1,100
100,44,43610,1,8,0:0:0:0:
188,24,43785,2,0,P|244:8|288:36,2,100,0|0|0,0:0|0:0|0:0,0:0:0:0:
232,104,44308,6,0,P|238:154|223:201,1,100,8|0,0:0|0:0,0:0:0:0:
124,140,44657,1,0,0:0:0:0:
328,64,44831,1,0,0:0:0:0:
408,224,45006,2,0,P|416:168|456:112,1,119.999996337891,8|0,0:0|0:0,0:0:0:0:
448,92,45267,1,0,0:0:0:0:
448,92,45355,6,0,L|352:128,1,100
264,152,45704,1,8,0:0:0:0:
124,140,45878,1,0,0:0:0:0:
124,140,46053,2,0,L|193:235,1,100
148,304,46402,1,8,0:0:0:0:
63,251,46576,6,0,P|25:162|65:73,1,200
155,28,47099,2,0,P|204:20|254:26,1,100,8|0,0:0|0:0,0:0:0:0:
306,109,47448,2,0,P|257:117|208:112,1,100
306,109,47797,1,8,0:0:0:0:
396,100,47971,1,0,0:0:0:0:
360,184,48145,6,0,P|408:280|492:348,2,200,0|8|0,0:0|0:0|0:0,0:0:0:0:
292,248,49017,1,0,0:0:0:0:
208,296,49192,2,0,P|196:244|216:188,1,100,8|0,0:0|0:0,0:0:0:0:
52,88,49541,1,0,0:0:0:0:
204,20,49715,1,0,0:0:0:0:
128,44,49890,6,0,P|135:93|120:144,1,100,8|0,0:0|0:0,0:0:0:0:
208,296,50238,2,0,P|196:244|208:188,1,100
252,80,50587,1,8,0:0:0:0:
252,80,50674,1,0,0:0:0:0:
252,80,50762,1,0,0:0:0:0:
280,188,50936,6,0,P|328:199|377:192,1,100
384,284,51285,1,8,0:0:0:0:
296,332,51459,1,0,0:0:0:0:
204,332,51634,2,0,B|164:332|164:332|148:352|120:364|96:356,2,100,0|0|8,0:0|0:0|0:0,0:0:0:0:
108,280,52157,6,0,P|72:189|100:95,1,200
172,20,52680,1,8,0:0:0:0:
244,91,52855,1,0,0:0:0:0:
431,55,53029,2,0,P|384:43|336:55,1,100
288,235,53378,2,0,P|336:248|384:236,1,100,8|0,0:0|0:0,0:0:0:0:
336,148,53727,6,0,P|432:152|484:236,1,200,0|8,0:0|0:0,0:0:0:0:
436,332,54250,2,0,P|384:356|348:332,1,100,0|0,0:0|0:0,0:0:0:0:
388,244,54599,1,0,0:0:0:0:
428,164,54773,1,8,0:0:0:0:
428,164,54948,1,0,0:0:0:0:
244,128,55122,2,0,P|293:121|340:152,1,100
276,212,55471,2,0,P|248:292|250:302,2,100,8|0|0,0:0|0:0|0:0,0:0:0:0:
108,132,55994,5,0,0:0:0:0:
168,224,56169,1,8,0:0:0:0:
180,336,56343,1,0,0:0:0:0:
152,340,56430,1,0,0:0:0:0:
128,340,56517,6,0,P|72:252|80:232,1,100,8|0,0:0|0:0,0:0:0:0:
70,268,56866,1,2,0:0:0:0:
160,252,57041,2,0,P|156:128|212:68,1,200
201,74,57564,1,2,0:0:0:0:
400,76,57738,2,0,P|336:72|280:48,1,119.999996337891,0|8,0:0|0:0,0:0:0:0:
284,50,58087,1,0,0:0:0:0:
268,140,58262,6,0,P|316:196|320:244,1,100,2|0,0:0|0:0,0:0:0:0:
224,224,58610,2,0,P|172:268|132:284,1,100,8|2,0:0|0:0,0:0:0:0:
256,352,58959,1,2,0:0:0:0:
256,56,59308,5,8,0:0:0:0:
208,132,59483,2,0,P|156:116|116:68,1,100,0|2,0:0|0:0,0:0:0:0:
300,132,59831,2,0,P|352:116|392:68,1,100,0|8,0:0|0:0,0:0:0:0:
383,84,60180,1,0,0:0:0:0:
424,176,60355,1,2,0:0:0:0:
384,272,60529,2,0,P|348:237|300:224,1,100,0|8,0:0|0:0,0:0:0:0:
176,264,60878,5,0,0:0:0:0:
176,264,60965,2,0,L|216:224,1,50,0|2,0:0|0:0,0:0:0:0:
168,120,61227,1,0,0:0:0:0:
168,120,61314,2,0,L|224:156,1,50,0|8,0:0|0:0,0:0:0:0:
348,112,61576,1,0,0:0:0:0:
348,112,61663,2,0,L|304:156,1,50,0|2,0:0|0:0,0:0:0:0:
368,240,61924,1,0,0:0:0:0:
340,268,62012,1,0,0:0:0:0:
308,292,62099,1,8,0:0:0:0:
231,320,62273,6,0,P|159:316|128:290,1,100,0|8,0:0|0:0,0:0:0:0:
88,228,62622,1,0,0:0:0:0:
146,158,62797,2,0,P|194:143|242:156,1,100,2|0,0:0|0:0,0:0:0:0:
88,228,63145,5,8,0:0:0:0:
64,140,63320,2,0,P|48:83|71:29,1,119.999996337891,0|2,0:0|0:0,0:0:0:0:
63,139,63668,1,0,0:0:0:0:
147,158,63843,2,0,P|206:190|235:234,1,100,8|0,0:0|0:0,0:0:0:0:
313,197,64192,2,0,P|327:131|352:104,2,100,2|0|8,0:0|0:0|0:0,0:0:0:0:
408,180,64715,1,0,0:0:0:0:
380,273,64890,6,0,P|373:322|340:359,1,100,2|0,0:0|0:0,0:0:0:0:
200,248,65238,1,8,0:0:0:0:
200,248,65413,2,0,P|249:253|287:285,1,100,0|2,0:0|0:0,0:0:0:0:
168,160,65762,1,0,0:0:0:0:
260,160,65936,1,8,0:0:0:0:
260,160,66110,2,0,B|332:160|348:136|376:88|392:60|440:52,1,200
460,140,66634,6,0,P|432:188|436:248,1,100,8|0,0:0|0:0,0:0:0:0:
416,264,66895,1,0,0:0:0:0:
396,296,66983,1,2,0:0:0:0:
308,312,67157,2,4,L|252:336,2,50,0|0|8,0:0|0:0|0:0,0:0:0:0:
264,224,67506,6,4,L|312:204,2,50,0|0|2,0:0|0:0|0:0,0:0:0:0:
176,244,67855,1,0,0:0:0:0:
84,224,68029,1,8,0:0:0:0:
84,224,68204,2,0,P|116:132|212:72,1,200
288,64,68727,1,8,0:0:0:0:
376,52,68901,2,0,P|368:108|320:144,1,100,0|2,0:0|0:0,0:0:0:0:
160,260,69424,5,10,0:0:0:0:
472,188,69773,1,2,0:0:0:0:
80,296,70122,1,8,0:0:0:0:
64,108,70471,6,0,P|117:118|168:108,1,100,8|0,0:0|0:0,0:0:0:0:
304,184,70820,2,0,P|256:176|200:188,1,100,2|0,0:0|0:0,0:0:0:0:
348,108,71169,2,0,P|401:122|448:104,1,100,8|0,0:0|0:0,0:0:0:0:
348,108,71517,1,2,0:0:0:0:
256,108,71692,2,0,B|186:129|155:206|155:206|191:291|272:300,1,300.000011444092
348,108,72564,5,0,0:0:0:0:
424,188,72738,1,0,0:0:0:0:
412,228,72826,1,0,0:0:0:0:
388,260,72913,1,0,0:0:0:0:
356,284,73000,1,0,0:0:0:0:
320,296,73087,1,0,0:0:0:0:
206,287,73262,6,0,P|157:296|108:288,1,100,0|0,0:0|0:0,0:0:0:0:
108,288,73610,1,8,0:0:0:0:
352,48,73959,2,0,P|396:32|448:52,1,100,0|0,0:0|0:0,0:0:0:0:
444,48,74308,1,8,0:0:0:0:
84,84,74657,6,0,L|184:140,1,100,0|0,0:0|0:0,0:0:0:0:
171,132,75006,1,8,0:0:0:0:
396,132,75355,1,0,0:0:0:0:
464,192,75529,2,0,P|416:220|360:216,2,100,0|8|0,0:0|0:0|0:0,0:0:0:0:
396,132,76052,6,0,B|416:76|396:44|360:24|312:24|292:80|292:80|244:4|192:80|192:80|144:16|104:56,1,400,4|2,0:0|0:2,0:0:0:0:
64,288,77099,2,0,P|160:336|288:296,1,239.999992675781,0|2,0:0|0:0,0:0:0:0:
220,232,77622,1,2,0:2:0:0:
164,160,77796,1,0,0:2:0:0:
316,92,77971,2,0,P|260:120|240:164,1,100,2|0,0:2|0:2,0:0:0:0:
332,192,78320,2,0,L|404:268,2,100,0|4|0,0:3|0:3|0:3,0:0:0:0:
64,304,78843,6,0,P|136:240|144:212,1,100
156,68,79192,2,0,P|144:116|164:160,1,100,8|0,0:0|0:0,0:0:0:0:
220,232,79541,1,0,0:0:0:0:
248,140,79715,2,0,L|324:76,2,100,0|8|0,0:0|0:0|0:0,0:0:0:0:
384,264,80238,5,0,0:0:0:0:
312,208,80413,1,0,0:0:0:0:
212,320,80587,1,8,0:0:0:0:
220,232,80762,1,0,0:0:0:0:
136,260,80936,2,0,P|64:248|36:236,2,100,0|0|8,0:0|0:0|0:0,0:0:0:0:
248,140,81459,6,0,P|276:84|312:64,1,100
220,232,81808,2,0,P|184:304|152:320,1,100,0|8,0:0|0:0,0:0:0:0:
80,312,82157,1,0,0:0:0:0:
32,212,82331,1,0,0:0:0:0:
96,88,82506,1,0,0:0:0:0:
236,44,82680,2,0,L|332:112,1,100,8|0,0:0|0:0,0:0:0:0:
404,152,83029,1,0,0:0:0:0:
500,176,83204,2,0,P|476:228|436:244,1,100,0|8,0:0|0:0,0:0:0:0:
80,312,83727,5,0,0:0:0:0:
120,232,83901,1,0,0:0:0:0:
172,304,84076,2,0,P|212:248|208:208,1,100,8|0,0:0|0:0,0:0:0:0:
211,219,84337,1,0,0:0:0:0:
211,219,84424,1,0,0:0:0:0:
216,68,84599,2,0,L|156:148,1,100,0|8,0:0|0:0,0:0:0:0:
68,164,84948,2,0,P|28:200|44:252,2,100,0|0|0,0:0|0:0|0:0,0:0:0:0:
100,80,85471,1,8,0:0:0:0:
396,72,85645,6,0,L|300:152,1,100
348,292,85994,2,0,L|424:227,1,100,0|8,0:0|0:0,0:0:0:0:
365,43,86343,2,0,L|289:143,1,100
364,268,86692,2,0,L|421:186,1,100,0|8,0:0|0:0,0:0:0:0:
212,340,87041,1,0,0:0:0:0:
212,340,87215,1,0,0:0:0:0:
186,233,87390,1,0,0:0:0:0:
186,233,87564,6,0,P|198:140|290:115,1,200,8|0,0:0|0:0,0:0:0:0:
268,200,88087,2,0,P|272:272|236:296,1,100,0|8,0:0|0:0,0:0:0:0:
76,349,88436,1,0,0:0:0:0:
160,320,88610,1,0,0:0:0:0:
187,232,88785,2,0,L|84:184,1,100,0|8,0:0|0:0,0:0:0:0:
143,76,89134,2,0,P|190:60|239:69,1,100
289,145,89483,2,0,P|243:164|196:152,1,100,0|8,0:0|0:0,0:0:0:0:
108,160,89831,1,0,0:0:0:0:
76,192,89919,1,0,0:0:0:0:
48,228,90006,6,0,L|48:348,1,100
136,336,90355,2,0,P|192:288|232:292,1,100,8|0,0:0|0:0,0:0:0:0:
368,188,90704,1,0,0:0:0:0:
300,256,90878,1,0,0:0:0:0:
388,280,91052,2,0,P|421:315|470:319,1,100,8|0,0:0|0:0,0:0:0:0:
368,188,91401,2,0,P|304:108|272:108,1,100
232,76,91750,1,8,0:0:0:0:
120,96,91924,1,0,0:0:0:0:
172,204,92099,6,0,P|116:220|84:292,2,100,0|0|8,0:0|0:0|0:0,0:0:0:0:
168,296,92622,2,0,L|284:296,1,100
378,151,92971,2,0,P|335:174|308:216,1,100,0|8,0:0|0:0,0:0:0:0:
360,288,93320,2,0,P|396:321|412:368,1,100
360,288,93669,1,0,0:0:0:0:
308,216,93843,1,8,0:0:0:0:
291,127,94017,2,0,P|236:49|136:64,1,200
200,128,94541,1,8,0:0:0:0:
140,196,94715,1,0,0:0:0:0:
84,264,94890,5,0,0:0:0:0:
156,316,95064,2,0,P|204:328|256:316,1,100,0|8,0:0|0:0,0:0:0:0:
328,268,95413,1,0,0:0:0:0:
360,220,95500,1,0,0:0:0:0:
392,180,95587,1,0,0:0:0:0:
266,40,95762,2,0,P|293:82|336:108,1,100,0|8,0:0|0:0,0:0:0:0:
392,180,96110,2,0,L|284:184,1,100
200,184,96459,1,0,0:0:0:0:
108,48,96634,6,0,P|60:68|28:116,2,100,8|0|0,0:0|0:0|0:0,0:0:0:0:
120,136,97157,1,0,0:0:0:0:
200,184,97331,2,0,L|284:280,1,100,8|0,0:0|0:0,0:0:0:0:
200,184,97680,1,0,0:0:0:0:
200,92,97855,1,0,0:0:0:0:
304,56,98029,1,8,0:0:0:0:
408,92,98204,2,0,P|372:132|372:204,1,100
420,244,98552,1,0,0:0:0:0:
240,248,98727,6,0,P|288:264|356:236,1,100,8|0,0:0|0:0,0:0:0:0:
420,244,99076,1,0,0:0:0:0:
200,92,99250,1,0,0:0:0:0:
240,248,99424,1,8,0:0:0:0:
52,92,99599,1,0,0:0:0:0:
52,92,99773,6,0,P|96:128|124:188,1,100
144,252,100122,2,0,P|112:296|104:344,2,100,8|0|0,0:0|0:0|0:0,0:0:0:0:
240,248,100645,1,0,0:0:0:0:
188,172,100820,1,8,0:0:0:0:
188,172,100907,1,0,0:0:0:0:
188,172,100994,1,0,0:0:0:0:
220,88,101169,6,0,P|332:116|456:48,1,239.999992675781,0|2,0:0|0:0,0:0:0:0:
88,184,106401,5,8,0:0:0:0:
160,132,106576,1,0,0:0:0:0:
196,116,106663,1,0,0:0:0:0:
232,108,106750,1,4,0:0:0:0:
408,304,107099,1,8,0:0:0:0:
316,340,107273,6,0,P|288:280|252:256,1,100
180,220,107622,1,0,0:0:0:0:
248,160,107797,2,0,P|276:113|324:88,1,100,8|0,0:0|0:0,0:0:0:0:
344,184,108145,5,0,0:0:0:0:
432,212,108320,2,0,P|404:258|356:280,1,100,0|8,0:0|0:0,0:0:0:0:
180,220,108669,2,0,L|104:128,1,100
180,220,109017,1,0,0:0:0:0:
256,52,109192,2,0,L|324:132,1,100,8|0,0:0|0:0,0:0:0:0:
256,52,109541,1,0,0:0:0:0:
400,308,109890,5,8,0:0:0:0:
104,312,110238,1,0,0:0:0:0:
180,220,110413,1,0,0:0:0:0:
256,52,110587,1,8,0:0:0:0:
329,218,110762,1,0,0:0:0:0:
180,220,111110,6,0,B|280:264|256:296|256:296|232:264|332:216,1,239.999992675781,0|0,0:0|0:0,0:0:0:0:
140,28,111983,1,8,0:0:0:0:
180,28,112070,1,0,0:0:0:0:
216,36,112157,1,0,0:0:0:0:
252,52,112244,1,0,0:0:0:0:
284,72,112331,6,0,P|392:168|404:252,1,200,0|8,0:0|0:0,0:0:0:0:
164,232,113029,1,0,0:0:0:0:
136,264,113204,1,0,0:0:0:0:
108,292,113552,5,0,0:0:0:0:
334,86,113901,6,0,P|287:114|256:152,1,100,0|8,0:0|0:0,0:0:0:0:
252,256,114250,1,0,0:0:0:0:
196,328,114424,1,0,0:0:0:0:
108,292,114599,2,0,P|93:239|61:202,1,100,0|8,0:0|0:0,0:0:0:0:
206,172,114948,6,0,P|255:164|304:176,1,100
400,170,115297,2,0,P|353:183|304:176,1,100,0|8,0:0|0:0,0:0:0:0:
220,60,115645,2,0,L|148:148,1,100
360,288,115994,2,0,L|432:204,1,100,0|8,0:0|0:0,0:0:0:0:
280,352,116343,2,0,B|232:240|132:240|132:240|160:176|120:128,1,300,0|8,0:0|0:0,0:0:0:0:
440,64,117215,2,0,P|380:132|332:160,1,119.999996337891
324,168,117477,1,0,0:0:0:0:
292,184,117564,1,8,0:0:0:0:
36,328,117913,6,0,P|84:292|148:280,1,100
207,159,118262,2,0,P|165:186|116:192,1,100,8|0,0:0|0:0,0:0:0:0:
208,160,118610,2,0,P|223:108|266:77,1,100
344,116,118959,1,8,0:0:0:0:
344,116,119134,2,0,P|396:216|244:284,1,300,0|8,0:0|0:0,0:1:0:0:
344,116,120006,6,0,P|404:76|424:40,2,100,0|0|8,0:0|0:0|0:0,0:0:0:0:
256,164,120529,1,0,0:0:0:0:
168,116,120704,2,0,P|108:76|88:40,1,100
256,164,121052,2,0,P|256:216|288:264,1,100,8|0,0:0|0:0,0:0:0:0:
348,188,121401,2,0,L|464:188,1,100
352,312,121750,1,8,0:0:0:0:
352,312,121924,2,0,B|252:320|176:332|28:240|128:204,1,300,0|8,0:0|0:0,0:0:0:0:
120,132,122622,6,0,P|146:86|196:80,1,100
236,80,122884,1,0,0:0:0:0:
280,80,122971,2,0,P|333:82|368:116,1,100,0|8,0:0|0:0,0:0:0:0:
448,152,123320,1,0,0:0:0:0:
448,192,123407,1,0,0:0:0:0:
448,232,123494,5,0,0:0:0:0:
368,276,123669,2,0,P|308:276|256:308,1,100,0|8,0:0|0:0,0:0:0:0:
188,324,124017,1,0,0:0:0:0:
203,235,124192,1,0,0:0:0:0:
96,156,124366,2,0,L|114:254,1,100,0|8,0:0|0:0,0:0:0:0:
160,84,124715,1,0,0:0:0:0:
251,80,124890,6,0,P|304:76|352:56,2,100,0|0|8,0:0|0:0|0:0,0:0:0:0:
284,164,125413,1,0,0:0:0:0:
324,244,125587,2,0,P|364:284|376:344,1,100
200,320,125936,1,8,0:0:0:0:
200,320,126110,6,8,P|116:160|32:208,1,300,0|8,0:0|0:0,0:0:0:0:
47,188,126808,2,0,L|104:80,1,100
368,156,127157,2,0,L|316:260,1,100,0|8,0:0|0:0,0:0:0:0:
216,344,127506,1,0,0:0:0:0:
120,320,127680,5,0,0:0:0:0:
288,92,127855,1,0,0:0:0:0:
216,344,128029,1,8,0:0:0:0:
220,152,128204,1,0,0:0:0:0:
220,252,128378,1,0,0:0:0:0:
136,200,128552,1,0,0:0:0:0:
300,196,128727,1,8,0:0:0:0:
388,92,128901,6,0,L|274:93,1,100
120,152,129250,2,0,L|228:152,1,100,0|8,0:0|0:0,0:0:0:0:
320,252,129599,2,0,L|196:252,1,100
320,252,129948,1,0,0:0:0:0:
408,252,130122,1,8,0:0:0:0:
388,92,130297,6,0,P|196:40|56:152,1,359.999989013672,0|8,0:0|0:0,0:0:0:0:
408,252,131169,1,0,0:0:0:0:
320,252,131343,2,0,P|248:248|200:216,2,100,0|8|0,0:0|0:0|0:0,0:0:0:0:
324,160,131866,5,0,0:0:0:0:
316,116,131954,1,0,0:3:0:0:
296,76,132041,1,0,0:0:0:0:
264,44,132128,1,0,0:3:0:0:
224,24,132215,1,8,0:0:0:0:
148,208,132564,5,0,0:0:0:0:
168,248,132651,1,0,0:3:0:0:
192,284,132739,1,0,0:0:0:0:
228,312,132826,1,0,0:3:0:0:
267,328,132913,1,8,0:0:0:0:
100,80,133262,6,0,P|172:100|256:196,1,200,0|8,0:0|0:0,0:0:0:0:
392,136,133785,2,0,L|332:224,1,100
348,304,134134,1,0,0:0:0:0:
392,136,134308,1,8,0:0:0:0:
52,188,134657,6,0,P|96:212|168:204,1,100,8|0,0:0|0:0,0:0:0:0:
232,232,135006,1,2,0:0:0:0:
268,72,135180,2,0,P|226:99|205:143,1,100,0|8,0:0|0:0,0:0:0:0:
144,212,135529,1,0,0:0:0:0:
232,232,135704,2,0,L|336:312,1,119.999996337891,2|0,0:0|0:0,0:0:0:0:
327,305,135965,1,0,0:0:0:0:
327,305,136052,5,8,0:0:0:0:
380,232,136227,2,0,P|416:184|420:136,1,100,0|2,0:0|0:0,0:0:0:0:
373,69,136576,2,0,P|341:107|332:156,1,100,0|2,0:0|0:0,0:0:0:0:
180,228,136924,2,0,P|228:237|275:222,1,100,0|8,0:0|0:0,0:0:0:0:
408,140,137273,1,0,0:0:0:0:
436,164,137360,1,0,0:0:0:0:
464,196,137448,6,0,P|464:256|416:320,1,119.999996337891,2|0,0:0|0:0,0:0:0:0:
356,352,137797,2,0,P|307:361|258:353,1,100,8|0,0:0|0:0,0:0:0:0:
80,308,138145,2,0,L|180:308,1,100,2|0,0:0|0:0,0:0:0:0:
256,256,138494,1,8,0:0:0:0:
200,168,138669,1,0,0:0:0:0:
224,136,138756,1,0,0:0:0:0:
248,112,138843,6,0,P|292:92|372:104,1,119.999996337891,8|0,0:0|0:0,0:0:0:0:
312,208,139192,1,2,0:0:0:0:
362,99,139366,1,0,0:0:0:0:
431,199,139541,1,8,0:0:0:0:
312,208,139715,1,0,0:0:0:0:
192,216,139890,1,2,0:0:0:0:
260,315,140064,1,0,0:0:0:0:
248,100,140238,6,0,P|196:88|128:104,1,100,8|0,0:0|0:0,0:0:0:0:
72,52,140587,1,2,0:0:0:0:
76,144,140762,2,0,P|72:220|56:244,1,100,0|8,0:0|0:0,0:0:0:0:
76,144,141110,1,0,0:0:0:0:
156,100,141285,2,0,L|256:100,1,100,2|0,0:0|0:0,0:0:0:0:
284,120,141547,1,0,0:0:0:0:
316,136,141634,6,0,P|364:164|424:140,1,100,8|0,0:0|0:0,0:0:0:0:
484,200,141983,1,2,0:0:0:0:
412,252,142157,2,0,P|363:244|322:271,1,100,0|8,0:0|0:0,0:0:0:0:
412,252,142506,1,0,0:0:0:0:
484,200,142680,2,0,L|432:112,1,100,2|0,0:0|0:0,0:0:0:0:
408,84,142942,1,0,0:0:0:0:
384,56,143029,5,8,0:0:0:0:
300,24,143204,2,0,P|248:40|212:76,1,100,0|2,0:0|0:0,0:0:0:0:
130,117,143552,2,0,P|178:103|215:70,1,100,0|8,0:0|0:0,0:0:0:0:
136,24,143901,1,0,0:0:0:0:
56,68,144076,2,0,P|44:128|72:184,1,100,2|0,0:0|0:0,0:0:0:0:
220,360,144424,6,0,P|206:251|120:208,1,200,8|2,0:0|0:0,0:0:0:0:
132,116,144948,1,0,0:0:0:0:
132,116,145035,2,0,L|176:88,1,50,0|8,0:0|0:0,0:0:0:0:
340,92,145297,1,0,0:0:0:0:
340,92,145384,2,0,L|296:120,1,50,0|2,0:0|0:0,0:0:0:0:
392,196,145645,1,0,0:0:0:0:
364,216,145733,1,0,0:0:0:0:
332,236,145820,6,0,P|282:281|246:281,1,100,2|0,0:0|0:0,0:0:0:0:
260,192,146169,1,8,0:0:0:0:
120,152,146343,2,0,L|183:229,1,100,0|2,0:0|0:0,0:0:0:0:
120,152,146692,1,0,0:0:0:0:
80,72,146866,2,0,P|128:56|172:80,1,100,8|0,0:0|0:0,0:0:0:0:
256,84,147215,6,0,B|256:120|344:72|344:72|428:24|428:64,2,200,2|8|2,0:0|0:0|0:0,0:0:0:0:
208,160,148087,1,0,0:0:0:0:
160,236,148262,2,0,P|147:283|109:315,1,100,8|0,0:0|0:0,0:0:0:0:
272,236,148610,6,0,P|284:283|322:315,1,100,2|0,0:0|0:0,0:0:0:0:
360,232,148959,1,8,0:0:0:0:
360,232,149134,1,0,0:0:0:0:
359,68,149308,2,0,L|312:156,1,100,2|0,0:0|0:0,0:0:0:0:
248,100,149657,1,8,0:0:0:0:
280,24,149831,6,0,B|280:-28|154:42|154:42|25:123|25:63,1,300.000011444092,2|8,0:0|0:0,0:0:0:0:
12,180,150704,1,8,0:0:0:0:
64,260,150878,1,0,0:0:0:0:
92,288,150965,1,0,0:0:0:0:
124,312,151052,2,0,L|152:340,3,33.3333333333333,0|0|0|0,0:0|0:0|0:0|0:0,0:0:0:0:
256,276,151401,6,0,L|364:248,1,100
256,276,151750,1,8,0:0:0:0:
212,200,151924,1,0,0:0:0:0:
208,48,152099,2,0,L|316:68,1,100
208,48,152448,1,8,0:0:0:0:
120,68,152622,1,0,0:0:0:0:
264,124,152797,6,0,L|364:152,1,100
264,124,153145,1,8,0:0:0:0:
172,128,153320,1,0,0:0:0:0:
172,128,153407,1,0,0:0:0:0:
172,128,153494,1,0,0:0:0:0:
216,208,153669,2,0,P|268:228|296:272,2,100,0|8|0,0:0|0:0|0:0,0:0:0:0:
212,300,154192,6,0,B|148:316|148:256|148:256|76:268|76:208|76:208|20:220|-12:136|32:72|100:96,1,400
388,96,155238,2,0,P|404:164|308:304,1,239.999992675781,0|2,0:0|0:1,0:0:0:0:
268,224,155762,2,2,P|216:196|164:208,2,100,0|0|0,0:0|0:0|0:0,0:2:0:0:
388,96,156285,21,0,0:0:0:0:
456,36,156459,1,2,0:0:0:0:
88,320,156808,2,0,P|180:256|184:240,1,100
240,144,157157,2,0,P|148:208|144:224,1,100,0|8,0:0|0:0,0:0:0:0:
308,192,157506,2,0,P|400:128|404:112,1,100
456,36,157855,2,0,P|408:44|364:80,1,100,0|8,0:0|0:0,0:0:0:0:
336,280,158204,2,0,P|248:292|156:108,1,300,0|8,0:0|0:0,0:0:0:0:
360,124,158901,6,0,P|396:160|376:224,2,100,0|0|0,0:0|0:0|0:0,0:0:0:0:
296,60,159424,1,8,0:0:0:0:
106,52,159599,2,0,P|154:63|204:55,1,100
296,60,159948,1,0,0:0:0:0:
237,312,160122,1,8,0:0:0:0:
433,142,160297,1,0,0:0:0:0:
175,164,160471,1,0,0:0:0:0:
397,298,160645,1,0,0:0:0:0:
308,196,160820,1,8,0:0:0:0:
308,196,160994,2,0,P|244:116|156:68,1,200
84,120,161517,2,0,L|20:200,1,100,8|0,0:0|0:0,0:0:0:0:
112,264,161866,5,0,0:0:0:0:
204,280,162041,2,0,P|232:188|252:168,1,100,0|8,0:0|0:0,0:0:0:0:
280,112,162390,1,0,0:0:0:0:
324,120,162477,1,0,0:0:0:0:
360,132,162564,2,0,L|364:248,1,100
420,304,162913,2,0,L|472:216,1,100,8|0,0:0|0:0,0:0:0:0:
420,304,163262,2,0,L|320:344,1,100
204,280,163610,6,0,P|192:216|156:184,1,100,8|0,0:0|0:0,0:0:0:0:
56,92,163959,2,0,P|68:156|104:188,1,100
24,296,164308,2,0,P|88:284|132:224,1,100,8|0,0:0|0:0,0:0:0:0:
228,80,164656,2,0,P|164:92|132:128,1,100
172,200,165006,2,0,P|224:200|260:168,1,100,8|0,0:0|0:0,0:0:0:0:
348,194,165355,6,0,L|315:100,1,100
448,208,165704,1,8,0:0:0:0:
448,208,165878,2,0,P|440:160|312:100,1,200
252,36,166401,1,8,0:0:0:0:
160,36,166576,1,0,0:0:0:0:
5,145,166750,2,0,P|39:108|80:80,1,100
192,200,167099,2,0,P|160:240|117:264,1,100,8|0,0:0|0:0,0:0:0:0:
192,200,167448,6,0,P|216:155|254:123,1,100
360,112,167797,2,0,L|412:220,1,100,8|0,0:0|0:0,0:0:0:0:
383,242,168058,1,0,0:0:0:0:
361,281,168145,2,0,P|307:314|166:275,1,200,0|8,0:0|0:0,0:0:0:0:
116,204,168669,1,0,0:0:0:0:
71,51,168843,6,0,P|116:74|141:116,1,100
116,204,169192,1,8,0:0:0:0:
116,204,169366,2,0,P|148:120|248:96,1,200
340,88,169890,1,8,0:0:0:0:
380,244,170064,6,0,P|408:200|396:140,1,100
340,88,170413,2,0,P|312:132|324:192,1,100,0|8,0:0|0:0,0:0:0:0:
116,204,170762,2,0,P|188:200|92:268,1,300,0|8,0:0|0:0,0:0:0:0:
116,204,171459,2,0,L|48:116,1,100
340,88,171808,2,0,L|401:167,1,100,0|8,0:0|0:0,0:0:0:0:
204,68,172157,2,0,P|228:136|260:292,1,200
255,260,172680,1,8,0:0:0:0:
92,76,173029,6,0,P|32:116|16:192,2,150,0|0|0,0:0|0:0|0:0,0:0:0:0:
188,193,173727,2,0,P|139:193|100:164,1,100
168,104,174076,1,8,0:0:0:0:
252,132,174250,2,0,P|300:116|356:132,1,100
441,120,174599,2,0,P|393:136|336:120,1,100,0|8,0:0|0:0,0:0:0:0:
304,204,174948,6,0,P|288:256|296:308,2,100,0|0|0,0:0|0:0|0:0,0:0:0:0:
216,112,175471,1,8,0:0:0:0:
120,96,175645,1,0,0:0:0:0:
155,179,175820,2,0,P|153:229|132:274,1,100
216,112,176169,2,0,P|272:80|396:140,1,200,8|0,0:0|0:0,0:0:0:0:
336,284,176692,5,0,0:0:0:0:
304,268,176779,1,0,0:0:0:0:
276,248,176866,2,0,L|212:336,1,100,8|0,0:0|0:0,0:0:0:0:
104,288,177215,1,0,0:0:0:0:
104,252,177302,1,0,0:0:0:0:
104,216,177390,2,0,L|40:132,1,100,0|8,0:0|0:0,0:0:0:0:
120,44,177738,1,0,0:0:0:0:
148,64,177826,1,0,0:0:0:0:
176,84,177913,2,0,L|280:84,1,100
376,144,178262,6,0,L|376:276,1,100,8|0,0:0|0:0,0:0:0:0:
216,244,178610,2,0,L|216:144,1,100,8|0,0:0|0:0,0:0:0:0:
216,244,178959,2,0,L|130:295,1,100,8|0,0:0|0:0,0:0:0:0:
376,244,179308,2,0,L|200:356,1,200,0|2,0:0|0:0,0:0:0:0:
212,108,184890,6,4,P|256:36|292:112,1,200,4|12,0:0|0:0,0:0:0:0:
256,284,185587,1,0,0:0:0:0:
256,256,185936,1,8,0:0:0:0:
211,107,186285,6,4,P|132:83|149:164,1,200,4|12,0:0|0:0,0:3:0:0:
352,228,186983,1,0,0:3:0:0:
328,204,187331,1,8,0:3:0:0:
256,192,187680,12,8,189424,0:0:0:0:
256,40,189773,5,0,0:0:0:0:
256,332,190122,1,8,0:0:0:0:
56,192,190471,6,0,P|124:160|280:208,1,200,0|8,0:0|0:0,0:0:0:0:
200,268,190994,2,0,L|260:148,1,100
288,100,191343,1,0,0:0:0:0:
448,44,191517,1,8,0:0:0:0:
288,100,191692,1,0,0:0:0:0:
448,120,191866,1,0,0:0:0:0:
288,100,192041,1,0,0:0:0:0:
448,192,192215,1,8,0:0:0:0:
448,192,192390,2,0,P|384:220|360:348,1,200
355,338,192913,1,8,0:0:0:0:
180,56,193262,6,0,P|192:112|168:164,1,100
180,56,193610,1,8,0:0:0:0:
108,200,193785,2,0,P|96:144|120:92,1,100
108,200,194134,1,0,0:0:0:0:
200,256,194308,1,8,0:0:0:0:
300,228,194483,2,0,P|376:192|384:172,2,100,0|0|0,0:0|0:0|0:0,0:0:0:0:
200,256,195006,1,8,0:0:0:0:
108,292,195180,2,0,P|52:320|8:316,1,100
108,292,195529,2,0,P|92:240|116:192,1,100,0|8,0:0|0:0,0:0:0:0:
312,56,196052,6,0,P|392:72|412:100,1,100
332,140,196401,1,8,0:0:0:0:
356,228,196576,2,0,P|276:212|256:184,1,100
356,228,196924,2,0,L|440:312,1,100,0|8,0:0|0:0,0:0:0:0:
352,352,197273,1,0,0:0:0:0:
267,202,197448,1,0,0:0:0:0:
260,352,197622,1,0,0:0:0:0:
184,176,197797,1,8,0:0:0:0:
196,264,197971,2,0,P|164:316|100:340,1,100
131,334,198320,1,0,0:0:0:0:
108,248,198494,1,8,0:0:0:0:
408,64,198843,6,0,L|336:152,1,100
284,208,199192,1,8,0:0:0:0:
360,256,199366,2,0,P|300:296|228:284,1,100
131,334,199715,1,0,0:0:0:0:
196,264,199890,1,8,0:0:0:0:
284,208,200064,1,0,0:0:0:0:
352,144,200238,6,0,L|300:52,1,100
212,48,200587,1,8,0:0:0:0:
145,113,200762,2,0,L|181:213,1,100,0|0,0:0|0:0,0:0:0:0:
28,248,201110,2,0,P|64:220|84:160,1,100,0|8,0:0|0:0,0:0:0:0:
16,108,201459,1,0,0:0:0:0:
40,84,201547,1,0,0:0:0:0:
70,60,201634,6,0,P|117:74|145:115,1,100
124,204,201983,1,8,0:0:0:0:
212,176,202157,1,0,0:0:0:0:
236,88,202331,1,0,0:0:0:0:
304,148,202506,1,0,0:0:0:0:
324,60,202680,1,8,0:0:0:0:
324,60,202855,2,0,B|404:80|412:168|364:220|364:220|436:316,1,300,0|8,0:0|0:0,0:0:0:0:
144,116,203727,6,0,P|84:112|44:88,2,100,0|0|8,0:0|0:0|0:0,0:0:0:0:
228,80,204250,1,0,0:0:0:0:
324,60,204424,1,0,0:0:0:0:
392,136,204599,1,0,0:0:0:0:
340,244,204773,1,8,0:0:0:0:
232,296,204948,2,0,P|148:284|108:304,1,100
340,244,205297,1,0,0:0:0:0:
340,244,205645,2,0,P|208:120|92:44,1,300,0|8,0:0|0:0,0:0:0:0:
48,120,206343,2,0,P|32:172|44:236,1,100
151,275,206692,2,0,P|125:233|120:184,1,100,0|8,0:0|0:0,0:0:0:0:
192,80,207041,1,0,0:0:0:0:
404,80,207215,6,0,L|268:80,1,119.999996337891
64,192,207564,2,0,L|192:192,1,119.999996337891,8|0,0:0|0:0,0:0:0:0:
372,288,207913,2,0,L|440:184,1,119.999996337891
256,60,208262,2,0,L|256:184,1,119.999996337891,8|0,0:0|0:0,0:0:0:0:
128,292,208610,2,0,L|60:188,1,119.999996337891,0|0,0:0|0:0,0:0:0:0:
256,60,208959,1,8,0:0:0:0:
256,336,209308,1,0,0:0:0:0:
372,288,209483,5,0,0:0:0:0:
420,208,209657,2,0,P|436:156|476:120,2,100,8|0|0,0:0|0:0|0:0,0:0:0:0:
372,288,210180,1,0,0:0:0:0:
253,161,210355,2,0,P|279:202|328:208,1,100,8|0,0:0|0:0,0:0:0:0:
336,116,210704,1,0,0:0:0:0:
148,48,210878,6,0,P|120:84|64:108,2,100,0|8|0,0:0|0:0|0:0,0:0:0:0:
256,36,211401,2,0,L|376:36,1,119.999996337891
168,176,211750,2,0,L|308:176,1,119.999996337891,8|0,0:0|0:0,0:0:0:0:
436,280,212099,2,4,L|304:284,1,119.999996337891
87,219,212448,6,0,P|162:275|252:200,1,200,8|0,0:0|0:0,0:0:0:0:
168,176,212971,2,0,L|104:56,1,100,0|8,0:0|0:0,0:0:0:0:
168,176,213320,1,0,0:0:0:0:
252,140,213494,2,0,P|304:124|352:136,2,100,0|0|8,0:0|0:0|0:0,0:0:0:0:
304,212,214017,6,0,P|328:288|286:332,1,100
239,337,214366,1,0,0:0:0:0:
143,294,214541,1,8,0:0:0:0:
85,180,214715,1,0,0:0:0:0:
160,80,214890,2,4,P|112:56|56:60,2,100,0|4|0,0:0|0:3|0:0,0:3:0:0:
256,112,215413,1,4,0:3:0:0:
360,172,215587,1,2,0:0:0:0:
128,68,216983,5,8,0:0:0:0:
64,128,217157,1,0,0:0:0:0:
192,216,217331,1,8,0:0:0:0:
156,300,217506,1,0,0:0:0:0:
332,224,217680,1,8,0:0:0:0:
364,308,217855,2,0,P|416:312|472:344,2,100,4|4|4,0:3|0:3|0:3,0:0:0:0:
272,288,218378,5,0,0:0:0:0:
192,216,218727,1,2,0:0:0:0:
168,104,219076,1,0,0:0:0:0:
368,104,219424,2,0,L|268:104,1,100,2|0,0:0|0:0,0:0:0:0:
376,268,220122,5,2,0:0:0:0:
280,308,220471,1,0,0:0:0:0:
168,320,220820,1,2,0:0:0:0:
84,260,221169,2,0,P|56:216|48:160,1,100,0|2,0:0|0:0,0:0:0:0:
100,96,221866,2,0,P|128:140|136:196,1,100,0|2,0:0|0:0,0:0:0:0:
100,96,222564,5,0,0:0:0:0:
200,64,222913,1,2,0:0:0:0:
328,332,223262,1,0,0:0:0:0:
376,256,223436,1,0,0:0:0:0:
428,336,223610,1,2,0:0:0:0:
284,248,223785,2,0,L|212:204,1,75.0000028610231,0|8,0:0|0:3,0:0:0:0:
52,188,224308,5,2,0:0:0:0:
328,146,224657,1,0,0:0:0:0:
328,56,224831,1,0,0:0:0:0:
408,96,225005,1,2,0:0:0:0:
240,100,225180,2,0,P|184:136|160:136,1,75.0000028610231,0|8,0:0|0:3,0:0:0:0:
256,328,225704,5,2,0:0:0:0:
100,212,226052,2,0,P|180:208|156:140,1,150.000005722046,0|2,0:0|0:0,0:0:0:0:
400,60,226750,1,0,0:0:0:0:
252,188,227099,1,2,0:0:0:0:
432,132,227448,1,0,0:0:0:0:
252,240,227797,1,2,0:0:0:0:
468,208,228145,1,0,0:0:0:0:
252,280,228494,1,2,0:0:0:0:
336,124,228843,5,8,0:1:0:0:
208,56,229017,1,0,0:0:0:0:
108,200,229192,1,4,0:3:0:0:
136,284,229366,1,4,0:3:0:0:
200,216,229541,6,0,L|300:216,1,100,8|0,0:0|0:0,0:0:0:0:
424,216,230238,1,8,0:0:0:0:
420,128,230413,2,0,L|376:88,1,50
320,136,230762,2,0,L|244:68,1,100
245,69,231285,1,0,0:0:0:0:
88,96,231634,1,8,0:0:0:0:
88,260,231808,6,0,L|40:304,2,50,0|0|0,0:0|0:0|0:0,0:0:0:0:
156,208,232331,2,0,P|204:192|264:216,1,100,0|0,0:0|0:0,0:0:0:0:
324,176,232855,2,0,L|364:136,1,50,0|8,0:0|0:0,0:0:0:0:
328,256,233204,2,0,L|376:280,1,50
452,200,233552,1,0,0:0:0:0:
452,104,233727,2,0,P|396:64|364:52,1,100,0|0,0:0|0:0,0:0:0:0:
184,56,234424,1,8,0:0:0:0:
64,192,234599,6,0,P|100:204|140:192,1,75.0000028610231
444,296,235122,2,0,L|320:296,1,119.999996337891,8|0,0:0|0:0,0:0:0:0:
184,176,235471,2,0,L|184:52,1,119.999996337891,8|0,0:0|0:0,0:0:0:0:
176,296,235820,2,0,L|52:296,1,119.999996337891,8|0,0:0|0:0,0:0:0:0:
300,232,236169,2,0,L|404:152,1,119.999996337891,8|0,0:0|0:0,0:0:0:0:
128,96,236517,5,0,0:0:0:0:
32,48,236692,1,0,0:0:0:0:
88,236,236866,1,8,0:0:0:0:
176,296,237041,1,0,0:0:0:0:
188,196,237215,5,0,0:0:0:0:
212,156,237302,1,0,0:0:0:0:
240,116,237390,1,0,0:0:0:0:
276,84,237477,1,0,0:0:0:0:
312,52,237564,1,8,0:0:0:0:
344,48,237622,6,0,L|384:48,1,39.9999987792969
408,28,237738,2,0,L|452:48,1,39.9999987792969
460,120,237913,6,0,P|488:196|424:308,1,200,4|8,0:0|0:0,0:0:0:0:
344,240,238436,1,0,0:0:0:0:
292,336,238610,2,0,P|220:320|180:288,1,100
136,244,238959,1,8,0:0:0:0:
90,74,239134,2,0,P|74:120|88:168,1,100
208,192,239483,5,0,0:0:0:0:
254,126,239657,2,0,P|208:104|156:136,1,100,8|0,0:0|0:0,0:0:0:0:
208,192,240006,2,0,L|304:240,2,100,0|0|8,0:0|0:0|0:0,0:0:0:0:
304,60,240529,6,0,P|344:104|408:116,1,100,0|4,0:0|0:0,0:0:0:0:
452,172,240878,2,0,L|408:288,1,100,0|8,0:0|0:0,0:0:0:0:
208,192,241227,2,0,L|243:98,1,100
416,264,241576,2,0,L|296:298,1,100,0|8,0:0|0:0,0:0:0:0:
208,192,241924,1,0,0:0:0:0:
116,192,242099,2,0,P|84:156|72:100,1,100,0|0,0:0|0:0,0:0:0:0:
124,32,242448,1,8,0:0:0:0:
160,116,242622,1,0,0:0:0:0:
165,270,242797,6,0,P|128:238|115:190,1,100
208,192,243145,1,8,0:0:0:0:
216,36,243320,2,0,P|196:84|148:124,1,100,0|4,0:0|0:0,0:0:0:0:
208,192,243669,1,0,0:0:0:0:
296,212,243843,2,0,P|304:260|352:300,1,100,8|0,0:0|0:0,0:0:0:0:
388,220,244192,1,0,0:0:0:0:
208,192,244366,1,0,0:0:0:0:
128,152,244541,1,8,0:0:0:0:
120,244,244715,1,0,0:0:0:0:
164,312,244890,6,0,P|80:332|40:240,2,200,0|8|0,0:0|0:0|0:0,0:0:0:0:
120,244,245762,2,0,L|180:160,1,100,0|8,0:0|0:0,0:0:0:0:
256,64,246110,1,0,0:0:0:0:
344,80,246285,2,0,P|416:116|440:164,1,100,4|0,0:0|0:0,0:0:0:0:
340,184,246634,5,8,0:0:0:0:
332,276,246808,2,0,L|232:324,1,100
156,340,247157,2,0,P|152:288|200:248,1,100,0|8,0:0|0:0,0:0:0:0:
108,64,247506,2,0,P|224:60|304:96,1,200
336,112,247942,1,0,0:0:0:0:
368,136,248029,1,8,0:0:0:0:
392,168,248116,1,0,0:0:0:0:
400,208,248204,1,8,0:0:0:0:
268,292,248378,6,0,P|212:320|152:304,1,100
68,292,248727,1,8,0:0:0:0:
104,188,248901,2,0,L|184:116,1,100,0|4,0:0|0:0,0:0:0:0:
272,52,249250,1,0,0:0:0:0:
439,109,249424,2,0,P|407:71|360:60,1,100,8|0,0:0|0:0,0:0:0:0:
360,152,249773,2,0,P|391:189|439:201,1,100,0|0,0:0|0:0,0:0:0:0:
360,152,250122,1,8,0:0:0:0:
272,132,250297,2,0,L|180:184,1,100,0|0,0:0|0:0,0:0:0:0:
108,224,250645,1,0,0:0:0:0:
144,308,250820,2,0,P|192:324|244:300,1,100,8|0,0:0|0:0,0:0:0:0:
272,132,251169,6,0,P|280:200|304:220,1,100
388,240,251517,1,8,0:0:0:0:
444,308,251692,2,0,P|396:328|340:312,1,100,0|4,0:0|0:0,0:0:0:0:
144,308,252041,1,0,0:0:0:0:
108,224,252215,6,0,L|44:136,1,100,8|0,0:0|0:0,0:0:0:0:
108,224,252564,2,0,P|176:152|284:196,1,200,0|8,0:0|0:0,0:0:0:0:
344,128,253087,1,0,0:0:0:0:
424,88,253262,2,0,P|437:134|414:180,1,100,0|0,0:0|0:0,0:0:0:0:
264,172,253610,2,0,P|250:125|273:79,1,100,8|0,0:0|0:0,0:0:0:0:
340,216,253959,2,0,L|276:316,1,100
68,188,254308,1,8,0:0:0:0:
104,104,254483,1,0,0:0:0:0:
136,80,254570,1,0,0:0:0:0:
168,60,254657,6,0,P|224:52|276:64,1,100,4|0,0:0|0:0,0:0:0:0:
348,92,255006,1,8,0:0:0:0:
436,92,255180,2,0,P|412:156|364:184,1,100
341,257,255529,2,0,P|353:209|388:174,1,100,0|8,0:0|0:0,0:0:0:0:
436,260,255878,1,0,0:0:0:0:
384,332,256052,6,0,P|336:356|292:332,1,100
236,272,256401,1,8,0:0:0:0:
99,275,256576,2,0,L|176:340,1,100
236,272,256924,1,0,0:0:0:0:
160,176,257099,1,8,0:0:0:0:
224,56,257273,1,0,0:0:0:0:
356,52,257448,6,0,P|424:80|464:120,1,100,4|0,0:0|0:0,0:0:0:0:
224,56,257797,1,8,0:0:0:0:
356,52,257971,1,0,0:0:0:0:
296,176,258145,2,0,P|368:200|392:216,1,100,4|0,0:0|0:0,0:0:0:0:
160,176,258494,1,8,0:0:0:0:
296,176,258669,1,0,0:0:0:0:
296,176,258756,1,0,0:0:0:0:
296,176,258843,5,0,0:0:0:0:
332,300,259017,1,0,0:0:0:0:
404,102,259192,1,8,0:0:0:0:
462,305,259366,1,0,0:0:0:0:
296,175,259541,1,0,0:0:0:0:
60,312,259890,1,8,0:0:0:0:
256,36,260238,5,4,0:0:0:0:
140,328,260587,1,8,0:0:0:0:
268,116,260936,1,0,0:0:0:0:
216,344,261285,1,8,0:0:0:0:
448,64,261634,6,0,P|424:107|381:131,1,100,4|0,0:0|0:0,0:0:0:0:
315,198,261983,2,0,P|338:155|381:131,1,100,8|0,0:0|0:0,0:0:0:0:
404,220,262331,1,0,0:0:0:0:
344,284,262506,1,0,0:0:0:0:
316,200,262680,1,8,0:0:0:0:
256,128,262855,1,0,0:0:0:0:
256,128,263029,22,0,B|176:64|100:144|152:220|232:264|260:304|260:304|300:332,1,300,4|4,0:0|0:0,0:0:0:0:
256,128,264076,1,0,0:0:0:0:
256,128,264424,2,0,B|336:64|412:144|360:220|280:264|252:304|252:304|212:332,1,300,4|0,0:0|0:0,0:0:0:0:
56,328,265645,5,0,0:0:0:0:
56,328,265733,1,0,0:0:0:0:
56,328,265820,2,0,P|108:272|84:160,1,200,0|8,0:0|0:0,0:0:0:0:
228,85,266343,1,0,0:0:0:0:
83,159,266517,1,0,0:0:0:0:
243,185,266692,1,0,0:0:0:0:
151,228,266866,1,8,0:0:0:0:
232,276,267041,2,0,P|268:320|384:268,1,200
304,220,267564,5,8,0:0:0:0:
412,56,267738,2,0,L|340:132,1,100
156,155,268087,2,0,L|228:85,1,100,0|8,0:0|0:0,0:0:0:0:
156,156,268436,2,0,P|172:208|136:248,1,100
308,320,268959,1,8,0:0:0:0:
368,135,269134,1,0,0:0:0:0:
428,321,269308,1,0,0:0:0:0:
465,206,269483,1,0,0:0:0:0:
270,206,269657,1,8,0:0:0:0:
368,136,269831,2,0,P|276:112|188:32,1,200
128,104,270355,6,0,P|152:168|140:216,1,100,8|0,0:0|0:0,0:0:0:0:
271,206,270704,2,0,L|192:268,1,100
270,206,271052,1,8,0:0:0:0:
204,144,271227,1,0,0:0:0:0:
236,112,271314,1,0,0:0:0:0:
265,91,271401,6,0,P|315:78|394:101,1,100
412,159,271750,2,0,L|357:257,1,100,8|0,0:0|0:0,0:0:0:0:
285,292,272099,1,0,0:0:0:0:
186,246,272273,1,0,0:0:0:0:
164,126,272448,1,8,0:0:0:0:
97,186,272622,2,0,P|66:127|168:40,1,200
260,28,273145,1,8,0:0:0:0:
448,56,273320,6,0,L|348:56,1,100
276,108,273669,2,0,P|252:160|276:220,1,100,0|8,0:0|0:0,0:0:0:0:
232,288,274017,2,0,P|261:249|260:199,1,100
52,36,274541,1,8,0:0:0:0:
120,308,274890,5,0,0:0:0:0:
256,32,275064,1,0,0:0:0:0:
52,184,275238,1,8,0:0:0:0:
328,188,275413,1,0,0:0:0:0:
368,107,275762,5,0,0:0:0:0:
391,251,275936,1,8,0:0:0:0:
457,121,276110,1,0,0:0:0:0:
471,210,276285,1,0,0:0:0:0:
328,188,276459,2,0,P|272:192|208:152,1,119.999996337891,0|8,0:0|0:0,0:0:0:0:
152,104,276808,1,0,0:0:0:0:
256,192,276983,12,2,279773,0:0:0:0:
444,84,280122,38,0,P|384:68|340:96,1,100,0|8,0:0|0:0,0:0:0:0:
400,152,280645,2,0,L|448:192,2,50,0|0|0,0:0|0:0|0:0,0:0:0:0:
312,152,281169,1,8,0:0:0:0:
232,152,281343,2,0,L|124:152,1,100
64,260,281866,2,0,L|124:288,1,50,8|0,0:0|0:0,0:0:0:0:
156,216,282215,1,0,0:0:0:0:
192,288,282390,6,0,P|252:272|352:296,1,150,8|2,0:0|0:1,0:0:0:0:
