osu file format v10

[General]
AudioFilename: mikitoP-Sarishinohara.mp3
AudioLeadIn: 0
PreviewTime: 22633
Countdown: 0
SampleSet: Normal
StackLeniency: 0.7
Mode: 0
LetterboxInBreaks: 0

[Editor]
DistanceSpacing: 0.5
BeatDivisor: 4
GridSize: 4

[Metadata]
Title:Sarishinohara
TitleUnicode:Sarishinohara
Artist:mikitoP
ArtistUnicode:mikitoP
Creator:tutuhaha
Version:Thanks
Source:Vocaloid
Tags:hatsune miku
BeatmapID:183346
BeatmapSetID:60953

[Difficulty]
HPDrainRate:7
CircleSize:4
OverallDifficulty:7
ApproachRate:8
SliderMultiplier:1.8
SliderTickRate:1

[Events]
//Background and Video events
0,0,"BG.jpg"
Video,0,"Video.flv"
//Break Periods
2,82064,85994
2,147842,159994
2,193855,194883
//Storyboard Layer 0 (Background)
//Storyboard Layer 1 (Fail)
//Storyboard Layer 2 (Pass)
//Storyboard Layer 3 (Foreground)
//Storyboard Sound Samples
//Background Colour Transformations
3,100,163,162,255

[TimingPoints]
1856,444.444444444444,4,1,1,50,1,0
8967,-133.333333333333,4,1,1,50,0,0
9411,-100,4,1,1,50,0,0
10744,-133.333333333333,4,1,1,50,0,0
11189,-100,4,1,1,50,0,0
12522,-133.333333333333,4,1,1,50,0,0
12967,-100,4,1,1,50,0,0
14522,-133.333333333333,4,1,1,50,0,0
14967,-100,4,1,1,50,0,0
16078,-133.333333333333,4,2,1,40,0,0
22300,-200,4,1,1,50,0,0
22744,-133.333333333333,4,1,1,40,0,0
37189,-100,4,1,1,50,0,0
51633,-133.333333333333,4,1,1,50,0,0
53411,-200,4,1,1,20,0,0
54744,-133.333333333333,4,1,1,50,0,0
55189,-100,4,1,1,60,0,1
80078,-100,4,1,1,50,0,0
93411,-100,4,1,1,30,0,0
93744,-100,4,1,1,50,0,0
100967,-100,4,1,1,40,0,0
102300,-133.333333333333,4,1,1,40,0,0
102744,-100,4,1,1,40,0,0
104967,-133.333333333333,4,1,1,40,0,0
105411,-100,4,1,1,40,0,0
107411,-100,4,1,1,50,0,0
108522,-100,4,2,1,40,0,0
111411,-100,4,1,1,40,0,0
112078,-133.333333333333,4,1,1,40,0,0
112522,-100,4,1,1,40,0,0
115189,-100,4,1,1,50,0,0
119189,-100,4,1,1,60,0,1
144078,-200,4,1,1,40,0,0
147633,-200,4,1,1,30,0,0
161855,-133.333333333333,4,1,1,40,0,0
176078,-100,4,1,1,50,0,0
184078,-133.333333333333,4,1,1,50,0,0
184967,-100,4,1,1,50,0,0
185855,-133.333333333333,4,1,1,50,0,0
188522,-133.333333333333,4,1,1,50,0,0
188967,-100,4,1,1,50,0,0
189411,-100,4,1,1,50,0,0
189855,-83.3333333333333,4,1,1,50,0,0
190300,-100,4,1,1,50,0,0
192744,-133.333333333333,4,1,1,50,0,0
195633,-133.333333333333,4,1,1,40,0,0
200078,-200,4,1,1,20,0,0
200967,-133.333333333333,4,1,1,40,0,0
202744,-100,4,1,1,50,0,0
209855,-100,4,1,1,60,0,1
220522,-133.333333333333,4,1,1,50,0,1
222078,-100,4,1,1,50,0,1
225855,-100,4,1,1,60,0,1
238300,-100,4,1,1,50,0,0
241855,-133.333333333333,4,1,1,50,0,0
242300,-100,4,1,1,50,0,0
243633,-133.333333333333,4,1,1,50,0,0
244078,-100,4,1,1,50,0,0
245411,-133.333333333333,4,1,1,50,0,0
245855,-100,4,1,1,50,0,0
250744,-133.333333333333,4,1,1,50,0,0
251189,-100,4,1,1,50,0,0
252522,-133.333333333333,4,1,1,50,0,0
252967,-100,4,1,1,50,0,0
257411,-83.3333333333333,4,1,1,50,0,0
257855,-100,4,1,1,50,0,0
259189,-83.3333333333333,4,1,1,50,0,0
259633,-66.6666666666667,4,1,1,50,0,0
260855,-100,4,1,1,10,0,0

[Colours]
Combo1 : 166,175,215
Combo2 : 240,243,131
Combo3 : 88,98,122
Combo4 : 158,220,152

[HitObjects]
108,284,7856,1,0,0:0:0
120,196,8078,2,0,B|168:200|188:248,2,90,0|0|8,0:0|0:0|0:0,0:0:0
252,172,8744,5,0,0:0:0
240,152,8856,1,0,0:0:0
224,136,8967,2,0,B|172:88|80:128,1,135.000005149842,4|8,0:0|0:0,0:0:0
44,216,9633,1,0,0:0:0
88,316,9856,2,0,B|128:292|144:248,1,90
128,140,10300,2,0,B|132:80|180:60,1,90,8|0,0:0|0:0,0:0:0
324,120,10744,6,0,B|324:196|272:244,1,135.000005149842,0|8,0:0|0:0,0:0:0
224,96,11411,1,0,0:0:0
232,76,11522,1,0,0:0:0
244,56,11633,2,0,B|280:24|332:24,1,90
420,80,12078,2,0,B|440:124|416:180,1,90,8|0,0:0|0:0,0:0:0
372,316,12522,6,0,B|304:276|300:200,1,135.000005149842,4|8,0:0|0:0,0:0:0
256,108,13189,1,0,0:0:0
156,72,13411,2,0,B|96:76|68:132,1,90
56,220,13856,2,0,B|52:272|84:312,1,90,8|0,0:0|0:0,0:0:0
232,344,14300,5,0,0:0:0
232,344,14522,2,0,B|236:264|160:224,1,135.000005149842
160,212,15078,1,0,0:0:0
152,192,15189,2,0,B|132:140|152:92,2,90,0|0|8,0:0|0:0|0:0,0:0:0
292,108,15856,1,0,0:0:0
296,128,15967,1,0,0:0:0
292,152,16078,6,0,B|288:192|260:216,2,67.5000025749208,2|0|8,0:0|0:0|0:0,0:0:0
112,56,16967,1,2,0:0:0
56,140,17189,2,0,B|36:180,2,33.7500012874604,0|0|8,0:0|0:0|0:0,0:0:0
252,192,17855,5,2,0:0:0
337,152,18078,1,8,0:0:0
377,237,18300,1,8,0:0:0
291,277,18522,1,0,0:0:0
248,159,18744,5,2,0:0:0
370,149,18967,1,8,0:0:0
380,270,19189,1,8,0:0:0
259,280,19411,1,0,0:0:0
264,128,19633,6,0,B|288:100|284:60,2,67.5000025749208,2|8|8,0:0|0:0|0:0,0:0:0
172,140,20300,1,0,0:0:0
100,200,20522,1,2,0:0:0
76,292,20744,1,8,0:0:0
100,304,20855,1,0,0:0:0
128,312,20967,2,0,B|172:308|200:272,1,67.5000025749208,8|0,0:0|0:0,0:0:0
252,216,21411,5,2,0:0:0
336,128,21633,1,8,0:0:0
440,192,21855,1,8,0:0:0
496,84,22078,1,2,0:0:0
320,40,22300,6,0,B|212:40,1,90,4|0,0:0|0:0,0:0:0
213,40,22855,1,0,0:0:0
195,40,22967,1,0,0:0:0
80,112,23189,6,0,B|68:156|88:196,1,67.5000025749208,6|0,0:0|0:0,0:0:0
128,260,23633,1,8,0:0:0
384,260,24078,1,0,0:0:0
432,180,24300,1,0,0:0:0
432,84,24522,1,8,0:0:0
80,84,24967,6,0,B|88:128|128:148,1,67.5000025749208
200,180,25411,1,8,0:0:0
292,160,25633,1,0,0:0:0
292,160,26078,2,0,B|336:168|352:212,2,67.5000025749208,0|8|0,0:0|0:0|0:0,0:0:0
252,72,26744,6,0,B|200:28|112:56,1,135.000005149842,2|8,0:0|0:0,0:0:0
124,332,27633,1,0,0:0:0
124,332,28078,1,8,0:0:0
124,332,28522,6,0,B|168:344|204:320,2,67.5000025749208,0|0|8,0:0|0:0|0:0,0:0:0
56,268,29189,1,0,0:0:0
48,172,29411,1,8,0:0:0
124,80,29633,1,0,0:0:0
168,192,29855,1,8,0:0:0
464,172,30300,6,0,B|312:172,1,135.000005149842,2|8,0:0|0:0,0:0:0
52,80,31189,2,0,B|204:80,1,135.000005149842,0|8,0:0|0:0,0:0:0
280,56,31855,1,0,0:0:0
372,44,32078,6,0,B|412:40|444:68,2,67.5000025749208,0|0|8,0:0|0:0|0:0,0:0:0
380,136,32744,2,0,B|356:216|268:228,1,135.000005149842
228,96,33411,2,0,B|268:104|288:140,1,67.5000025749208,8|0,0:0|0:0,0:0:0
336,208,33855,5,2,0:0:0
352,300,34078,2,0,B|352:336|328:372,2,67.5000025749208,0|8|0,0:0|0:0|0:0,0:0:0
256,304,34744,1,0,0:0:0
256,304,35189,1,8,0:0:0
72,108,35633,5,0,0:0:0
160,140,35855,1,0,0:0:0
220,216,36078,1,8,0:0:0
256,304,36300,1,0,0:0:0
256,304,36744,2,0,B|332:304,1,67.5000025749208,0|8,0:0|0:0,0:0:0
220,216,37189,1,0,0:0:0
200,228,37300,1,0,0:0:0
184,244,37411,6,0,B|160:292|172:336,1,90,4|0,0:0|0:0,0:0:0
124,176,37855,2,0,B|148:132|212:120,1,90,8|0,0:0|0:0,0:0:0
32,140,38300,2,0,B|0:204|36:296,1,135
36,292,38744,2,0,B|64:336|108:352,1,90,8|0,0:0|0:0,0:0:0
176,268,39189,5,2,0:0:0
272,316,39411,1,0,0:0:0
348,240,39633,1,8,0:0:0
444,288,39855,1,0,0:0:0
344,208,40078,5,0,0:0:0
304,328,40300,1,0,0:0:0
204,252,40522,1,8,0:0:0
156,368,40744,1,0,0:0:0
128,208,40967,6,0,B|156:160|224:160,1,90
300,124,41411,1,8,0:0:0
300,124,41633,2,0,B|344:100|360:44,1,90
436,132,42078,1,0,0:0:0
436,132,42300,1,8,0:0:0
356,204,42522,6,0,B|308:232|248:224|216:188|204:140,1,180,2|0,0:0|0:0,0:0:0
267,43,43189,2,0,B|304:72|300:124,1,90,8|0,0:0|0:0,0:0:0
280,228,43633,1,0,0:0:0
404,300,43855,1,0,0:0:0
280,228,44078,1,8,0:0:0
404,300,44300,5,0,0:0:0
424,288,44411,1,0,0:0:0
436,268,44522,2,0,B|456:224|432:176,1,90,4|0,0:0|0:0,0:0:0
388,84,44967,1,8,0:0:0
124,84,45411,2,0,B|156:156|248:140,1,135
252,128,45855,2,0,B|328:200,1,90,8|0,0:0|0:0,0:0:0
156,172,46300,6,0,B|108:184|60:156,1,90,2|0,0:0|0:0,0:0:0
216,44,46744,2,0,B|264:32|312:60,1,90,8|0,0:0|0:0,0:0:0
392,116,47189,1,0,0:0:0
320,196,47411,1,0,0:0:0
408,260,47633,1,8,0:0:0
332,336,47855,1,0,0:0:0
440,272,48078,6,0,B|456:224|424:180,1,90,0|0,0:0|0:0,0:0:0
324,116,48522,2,0,B|272:108|232:144,1,90,8|0,0:0|0:0,0:0:0
188,256,48967,2,0,B|164:296|108:304,1,90
28,212,49411,2,0,B|44:160|88:144|88:144|88:128|120:112,1,135,8|0,0:0|0:0,0:0:0
128,96,49855,6,0,B|176:112|224:92,1,90,2|0,0:0|0:0,0:0:0
308,40,50300,1,8,0:0:0
256,192,50522,1,4,0:0:0
256,192,50967,1,0,0:0:0
332,268,51189,1,8,0:0:0
172,248,51411,1,0,0:0:0
256,192,51633,6,0,B|308:176|336:120,1,101.250003862381,4|0,0:0|0:0,0:0:0
292,64,52078,2,0,B|256:32|176:44,1,101.250003862381,0|0,0:0|0:0,0:0:0
128,72,52522,1,8,0:0:0
72,148,52744,1,0,0:0:0
136,220,52967,1,8,0:0:0
136,220,53411,6,0,B|160:228|172:256,3,45,0|0|0|0,0:0|0:0|0:0|0:0,0:0:0
140,340,54300,1,0,0:0:0
140,340,54744,2,0,B|208:344|248:292,1,101.250003862381
264,236,55189,6,0,B|256:180|292:136,1,90,4|0,0:0|0:0,0:0:0
400,40,55633,2,0,B|424:120|388:192,1,135,8|0,0:0|0:0,0:0:0
352,204,56078,2,0,B|328:160|276:148,1,90
124,188,56522,2,0,B|96:224|96:280,1,90,8|0,0:0|0:0,0:0:0
200,148,56967,6,0,B|180:100|124:100|124:100|132:60|188:28,1,180,0|8,0:0|0:0,0:0:0
280,60,57633,1,0,0:0:0
356,136,57855,1,0,0:0:0
360,160,57967,1,0,0:0:0
360,184,58078,2,0,B|356:240|316:264,1,90,0|8,0:0|0:0,0:0:0
216,288,58522,1,0,0:0:0
116,248,58744,6,0,B|116:196|156:160,1,90
264,52,59189,2,0,B|312:108|268:208,1,135,8|0,0:0|0:0,0:0:0
228,204,59633,2,0,B|196:168|144:168,1,90
144,328,60078,2,0,B|184:360|236:356,1,90,8|0,0:0|0:0,0:0:0
116,248,60522,6,0,B|64:240|40:192|40:192|72:160|60:108,1,180,0|8,0:0|0:0,0:0:0
152,56,61189,1,0,0:0:0
272,124,61411,1,0,0:0:0
264,104,61522,1,0,0:0:0
256,84,61633,1,0,0:0:0
216,216,61855,2,0,B|224:268|272:292,1,90,8|8,0:0|0:0,0:0:0
288,296,62189,1,0,0:0:0
312,300,62300,6,0,B|372:304|440:276|460:200,1,180,4|8,0:0|0:0,0:0:0
420,112,62967,1,0,0:0:0
336,44,63189,1,0,0:0:0
336,44,63633,1,8,0:0:0
176,340,64078,6,0,B|176:264|96:224,1,135
88,224,64522,1,8,0:0:0
100,320,64744,2,0,B|136:320|180:296|200:240|176:184,1,180
88,224,65411,1,8,0:0:0
24,152,65633,1,0,0:0:0
44,140,65744,1,0,0:0:0
64,132,65855,6,0,B|136:128|168:44,1,135
172,32,66300,1,8,0:0:0
256,100,66522,2,0,B|332:188,1,90
256,284,66967,2,0,B|180:196,1,90,0|8,0:0|0:0,0:0:0
256,100,67411,6,0,B|272:48|324:36,1,90
412,84,67855,1,8,0:0:0
444,188,68078,1,8,0:0:0
412,292,68300,6,0,B|376:324|304:308|276:260|280:204,1,180
280,200,68855,1,0,0:0:0
284,176,68967,1,8,0:0:0
292,156,69078,1,0,0:0:0
304,140,69189,1,0,0:0:0
184,36,69411,6,0,B|136:56|120:108,1,90,4|0,0:0|0:0,0:0:0
20,224,69855,2,0,B|76:176|152:188,1,135,8|0,0:0|0:0,0:0:0
200,200,70300,2,0,B|180:244|204:296,1,90
335,287,70744,2,0,B|356:244|336:200,1,90,8|0,0:0|0:0,0:0:0
268,140,71189,6,0,B|296:104|356:112|356:112|364:64|416:40,1,180,0|8,0:0|0:0,0:0:0
460,136,71855,1,0,0:0:0
416,232,72078,1,0,0:0:0
408,252,72189,1,0,0:0:0
392,268,72300,2,0,B|344:296|292:272,1,90,0|8,0:0|0:0,0:0:0
224,208,72744,1,0,0:0:0
204,100,72967,6,0,B|208:52|264:28,1,90
416,64,73411,2,0,B|447:100|424:157,1,90,8|0,0:0|0:0,0:0:0
408,164,73744,1,0,0:0:0
388,172,73855,2,0,B|344:196|292:172,1,90
132,132,74300,2,0,B|88:124|44:148,1,90,8|0,0:0|0:0,0:0:0
52,264,74744,5,0,0:0:0
52,264,74967,1,0,0:0:0
148,212,75189,2,0,B|196:196|220:144,1,90,8|0,0:0|0:0,0:0:0
224,132,75522,1,0,0:0:0
232,112,75633,2,0,B|264:72|316:72,1,90
432,92,76078,5,8,0:0:0
444,136,76189,1,0,0:0:0
440,180,76300,1,8,0:0:0
420,220,76411,1,8,0:0:0
384,248,76522,2,0,B|324:260|280:208,1,90,4|0,0:0|0:0,0:0:0
180,116,76967,6,0,B|156:72|96:68,1,90,8|0,0:0|0:0,0:0:0
64,128,77300,2,0,B|52:172|0:200,1,90
20,268,77633,2,0,B|60:352,2,90,0|8|0,0:0|0:0|0:0,0:0:0
152,172,78300,6,0,B|168:116|136:76|136:76|232:44,1,180,0|8,0:0|0:0,0:0:0
316,32,78967,1,0,0:0:0
420,220,79411,1,8,0:0:0
92,164,79855,1,0,0:0:0
92,164,79967,1,0,0:0:0
92,164,80078,1,4,0:0:0
256,192,80189,12,0,81855,0:0:0
460,328,86744,6,0,B|464:276|424:228,1,90,8|0,0:0|0:0,0:0:0
396,144,87189,1,2,0:0:0
396,144,87633,1,8,0:0:0
160,44,88078,1,0,0:0:0
116,144,88300,1,0,0:0:0
124,252,88522,1,8,0:0:0
124,252,88967,6,0,B|168:232|220:248,1,90,0|0,0:0|0:0,0:0:0
288,320,89411,1,8,0:0:0
288,320,89633,2,0,B|228:288|228:188|280:156,1,180
406,172,90300,2,0,B|392:220|344:232,1,90,8|0,0:0|0:0,0:0:0
320,232,90633,1,0,0:0:0
296,228,90744,6,0,B|260:184|196:184,1,90,2|0,0:0|0:0,0:0:0
112,176,91189,2,0,B|55:170|10:215,1,90,8|0,0:0|0:0,0:0:0
100,280,91633,1,0,0:0:0
168,76,92078,1,8,0:0:0
256,272,92522,5,0,0:0:0
308,176,92744,1,0,0:0:0
388,248,92967,1,8,0:0:0
436,152,93189,1,0,0:0:0
416,276,93411,6,0,B|408:324,1,45,0|0,0:0|0:0,0:0:0
328,148,93744,2,0,B|335:103,1,45,0|8,0:0|0:0,0:0:0
280,296,94078,1,0,0:0:0
264,312,94189,1,0,0:0:0
244,320,94300,6,0,B|196:332|152:288,1,90,2|0,0:0|0:0,0:0:0
124,196,94744,2,0,B|112:136|148:96,1,90,8|0,0:0|0:0,0:0:0
280,52,95189,2,0,B|288:120|228:176,1,135
212,184,95633,2,0,B|168:208|112:192,1,90,8|0,0:0|0:0,0:0:0
48,116,96078,5,0,0:0:0
164,68,96300,1,0,0:0:0
212,184,96522,1,8,0:0:0
328,136,96744,1,0,0:0:0
328,136,97189,6,0,B|380:140|408:180,1,90,0|8,0:0|0:0,0:0:0
356,292,97633,1,0,0:0:0
264,204,97855,2,0,B|228:164|240:104,1,90,2|0,0:0|0:0,0:0:0
172,36,98300,1,8,0:0:0
172,36,98744,5,0,0:0:0
92,108,98967,1,0,0:0:0
72,212,99189,1,8,0:0:0
96,316,99411,1,4,0:0:0
168,172,99633,1,0,0:0:0
312,340,100967,5,0,0:0:0
272,236,101189,1,0,0:0:0
280,216,101300,1,0,0:0:0
284,192,101411,6,0,B|280:140|320:104,1,90,6|0,0:0|0:0,0:0:0
416,56,101855,1,8,0:0:0
313,110,102078,1,0,0:0:0
416,56,102300,6,0,B|464:112|444:192,1,135.000005149842,0|8,0:0|0:0,0:0:0
396,276,102967,1,0,0:0:0
296,236,103189,5,0,0:0:0
192,168,103411,1,0,0:0:0
124,276,103633,1,8,0:0:0
232,344,103855,1,0,0:0:0
232,344,104300,5,0,0:0:0
156,280,104522,1,8,0:0:0
220,204,104744,1,0,0:0:0
300,260,104967,6,0,B|380:248|416:176,1,135.000005149842,2|8,0:0|0:0,0:0:0
380,96,105633,1,0,0:0:0
300,36,105855,1,0,0:0:0
300,36,106300,1,8,0:0:0
220,356,106744,1,0,0:0:0
148,288,106967,1,0,0:0:0
112,196,107189,1,8,0:0:0
100,96,107411,5,0,0:0:0
100,96,107522,1,0,0:0:0
100,96,107633,1,0,0:0:0
216,168,107855,1,0,0:0:0
148,288,108078,1,0,0:0:0
148,288,108522,5,2,0:0:0
228,332,109411,1,2,0:0:0
316,348,110300,1,2,0:0:0
396,312,111189,5,0,0:0:0
463,259,111411,1,0,0:0:0
324,263,111633,1,8,0:0:0
433,178,111855,1,0,0:0:0
416,164,111967,1,0,0:0:0
396,152,112078,6,0,B|372:80|280:68,1,135.000005149842,2|8,0:0|0:0,0:0:0
192,96,112744,1,0,0:0:0
108,164,112967,1,0,0:0:0
108,164,113411,1,8,0:0:0
404,220,113855,5,0,0:0:0
320,152,114078,1,0,0:0:0
212,140,114300,1,8,0:0:0
108,164,114522,1,0,0:0:0
108,164,114967,5,0,0:0:0
92,204,115078,1,0,0:0:0
96,248,115189,2,0,B|112:296|160:308,1,90,8|0,0:0|0:0,0:0:0
316,336,115633,5,4,0:0:0
248,252,115855,2,0,B|208:128,1,90,0|8,0:0|0:0,0:0:0
368,232,116300,1,0,0:0:0
300,148,116522,2,0,B|260:24,1,90
424,116,116967,1,8,0:0:0
368,232,117189,1,0,0:0:0
328,248,117300,1,0,0:0:0
284,252,117411,6,0,B|236:244|208:188,1,90,4|0,0:0|0:0,0:0:0
152,80,117855,2,0,B|120:40|60:40,1,90,8|0,0:0|0:0,0:0:0
60,56,118189,1,0,0:0:0
48,76,118300,2,0,B|60:124|48:172,1,90
124,244,118744,2,0,B|104:288|56:316,1,90,8|0,0:0|0:0,0:0:0
72,148,119189,6,0,B|96:100|144:88,1,90,4|0,0:0|0:0,0:0:0
300,104,119633,2,0,B|368:120|392:212,1,135,8|0,0:0|0:0,0:0:0
384,220,120078,2,0,B|368:272|300:280,1,90
192,180,120522,2,0,B|172:136|92:128,1,90,8|0,0:0|0:0,0:0:0
212,264,120967,6,0,B|264:252|280:196|280:196|328:200|348:248,1,180,0|8,0:0|0:0,0:0:0
440,284,121633,1,0,0:0:0
428,176,121855,2,0,B|412:128|352:104,1,90
216,60,122300,2,0,B|170:37|111:62,1,90,8|0,0:0|0:0,0:0:0
60,140,122744,5,0,0:0:0
148,204,122967,1,0,0:0:0
256,200,123189,2,0,B|272:124|360:100,1,135,8|0,0:0|0:0,0:0:0
364,116,123633,2,0,B|396:156|452:156,1,90
412,260,124078,1,8,0:0:0
312,296,124300,1,0,0:0:0
296,312,124411,1,0,0:0:0
276,324,124522,6,0,B|228:356|140:324|144:240,1,180,0|8,0:0|0:0,0:0:0
204,164,125189,2,0,B|240:204|232:256,1,90
180,340,125633,1,0,0:0:0
72,348,125855,2,0,B|36:308|40:248,1,90,8|0,0:0|0:0,0:0:0
44,244,126189,1,0,0:0:0
52,224,126300,6,0,B|108:228|144:192|152:144|120:96,1,180,4|8,0:0|0:0,0:0:0
212,40,126967,1,0,0:0:0
212,40,127078,2,0,B|296:28|344:108,1,135
272,211,127633,2,0,B|240:172|244:128,1,90,8|0,0:0|0:0,0:0:0
392,64,128078,6,0,B|452:104|424:200,1,135,0|0,0:0|0:0,0:0:0
416,204,128522,1,8,0:0:0
408,312,128744,2,0,B|356:320|304:272|304:224|316:180,1,180
392,64,129411,1,8,0:0:0
292,100,129633,1,0,0:0:0
272,92,129744,1,0,0:0:0
252,84,129855,6,0,B|172:72|120:140,1,135
108,136,130300,2,0,B|156:160|168:220,1,90,8|0,0:0|0:0,0:0:0
240,280,130744,1,0,0:0:0
344,312,130967,2,0,B|464:320|480:200,2,180,0|8|0,0:0|0:0|0:0,0:0:0
388,156,132078,5,8,0:0:0
388,156,132300,2,0,B|328:188|264:144|256:96|256:56,1,180
156,32,132967,1,8,0:0:0
128,68,133078,1,0,0:0:0
124,112,133189,1,0,0:0:0
132,156,133300,1,0,0:0:0
156,196,133411,6,0,B|172:248|148:288,1,90,4|0,0:0|0:0,0:0:0
104,380,133855,2,0,B|132:320|220:308,1,135,8|0,0:0|0:0,0:0:0
228,324,134300,2,0,B|256:364|316:368,1,90
440,280,134744,2,0,B|412:240|352:236,1,90,8|0,0:0|0:0,0:0:0
372,48,135189,5,0,0:0:0
276,144,135411,1,0,0:0:0
176,56,135633,2,0,B|156:104|104:120,1,90,8|0,0:0|0:0,0:0:0
76,220,136078,1,0,0:0:0
100,224,136189,1,0,0:0:0
124,224,136300,1,0,0:0:0
148,220,136411,1,0,0:0:0
168,212,136522,2,0,B|200:184|264:188,1,90,8|0,0:0|0:0,0:0:0
340,324,136967,6,0,B|416:320|448:240,1,135
436,228,137411,2,0,B|400:192|404:140,1,90,8|0,0:0|0:0,0:0:0
324,72,137855,1,0,0:0:0
220,48,138078,1,0,0:0:0
112,56,138300,2,0,B|60:68|40:128,1,90,8|0,0:0|0:0,0:0:0
48,276,138744,6,0,B|104:276|152:236|148:176|132:144,1,180,0|8,0:0|0:0,0:0:0
220,48,139411,1,0,0:0:0
256,168,139633,2,0,B|264:216|308:248,1,90
404,316,140078,1,8,0:0:0
436,284,140189,1,0,0:0:0
452,240,140300,1,8,0:0:0
452,196,140411,1,8,0:0:0
440,152,140522,6,0,B|432:104|388:72,1,90,4|0,0:0|0:0,0:0:0
236,36,140967,2,0,B|192:16|140:36,1,90,8|0,0:0|0:0,0:0:0
128,40,141300,2,0,B|60:84|60:168,1,135
224,224,141855,2,0,B|260:192|264:144,1,90,8|0,0:0|0:0,0:0:0
124,232,142300,6,0,B|124:280|172:316|172:316|144:344|80:332,1,180,0|8,0:0|0:0,0:0:0
8,272,142967,1,0,0:0:0
232,32,143411,1,0,0:0:0
280,136,143633,1,8,0:0:0
396,144,143855,1,0,0:0:0
404,260,144078,6,0,B|360:244|304:256,1,90,6|8,0:0|0:0,0:0:0
240,304,144744,1,0,0:0:0
160,260,144967,2,0,B|152:220|116:200,1,67.5,8|0,0:0|0:0,0:0:0
60,168,145411,2,0,B|92:120,1,45,8|0,0:0|0:0,0:0:0
136,56,145856,6,0,B|184:36|236:52|236:52|212:80|244:136,1,180
304,188,146967,1,0,0:0:0
392,212,147189,1,8,0:0:0
416,208,147300,1,0,0:0:0
440,204,147411,1,0,0:0:0
480,36,147633,5,2,0:0:0
424,64,160744,5,0,0:0:0
424,64,160856,1,0,0:0:0
424,64,160967,2,0,B|408:136|316:156,1,135,4|0,0:0|0:0,0:0:0
256,100,161856,6,0,B|216:52|124:52,1,135.000005149842,4|0,0:0|0:0,0:0:0
32,216,162744,2,0,B|80:240|144:208,1,101.250003862381,8|0,0:0|0:0,0:0:0
200,188,163189,2,0,B|240:268,1,67.5000025749208
308,304,163633,5,0,0:0:0
368,232,163856,1,0,0:0:0
456,264,164078,1,0,0:0:0
492,176,164300,1,0,0:0:0
492,176,164744,2,0,B|488:132|456:112,1,67.5000025749208
396,52,165189,1,0,0:0:0
380,68,165300,1,0,0:0:0
360,80,165411,6,0,B|284:88|224:24,1,135.000005149842,4|0,0:0|0:0,0:0:0
144,52,166078,1,0,0:0:0
72,116,166300,2,0,B|36:184,1,67.5000025749208,8|0,0:0|0:0,0:0:0
104,288,166744,2,0,B|135:228,1,67.5000025749208
200,160,167189,5,0,0:0:0
296,152,167411,1,0,0:0:0
388,172,167633,1,0,0:0:0
436,252,167856,2,0,B|464:284|472:328,1,67.5000025749208
352,356,168300,1,0,0:0:0
336,344,168411,1,0,0:0:0
320,332,168522,2,0,B|292:300|284:256,1,67.5000025749208
260,100,168967,6,0,B|300:52|392:52,1,135.000005149842,4|0,0:0|0:0,0:0:0
480,216,169856,2,0,B|432:240|368:208,1,101.250003862381,8|0,0:0|0:0,0:0:0
312,188,170300,2,0,B|272:268,1,67.5000025749208
196,288,170744,5,0,0:0:0
128,224,170967,1,0,0:0:0
40,264,171189,1,0,0:0:0
20,172,171411,1,0,0:0:0
108,124,171633,2,0,B|120:88|168:68,1,67.5000025749208
188,56,171967,1,0,0:0:0
224,40,172078,2,0,B|264:44|288:80,1,67.5000025749208
376,204,172522,6,0,B|401:235|392:277,2,67.5000025749208,4|0|0,0:0|0:0|0:0,0:0:0
320,124,173189,1,0,0:0:0
308,260,173411,2,0,B|280:332|188:348,1,135.000005149842,8|0,0:0|0:0,0:0:0
56,64,174300,5,0,0:0:0
148,76,174522,1,0,0:0:0
224,132,174744,1,8,0:0:0
276,212,174967,2,0,B|328:256|424:232,1,135.000005149842
420,224,175522,1,0,0:0:0
436,212,175633,1,8,0:0:0
392,76,175856,1,0,0:0:0
372,84,175967,1,0,0:0:0
352,88,176078,6,0,B|276:80|232:20,1,135,4|0,0:0|0:0,0:0:0
216,28,176522,1,8,0:0:0
112,56,176744,2,0,B|40:112|64:232,1,180
168,344,177411,2,0,B|208:368|264:360,1,90,8|0,0:0|0:0,0:0:0
272,348,177744,1,0,0:0:0
288,332,177856,6,0,B|320:292|380:296,2,90,0|0|8,0:0|0:0|0:0,0:0:0
384,200,178522,2,0,B|280:192|212:268,1,180
196,256,179078,1,0,0:0:0
172,252,179189,2,0,B|128:228|120:168,1,90,8|0,0:0|0:0,0:0:0
80,84,179633,6,0,B|128:68|184:88,1,90
316,148,180078,2,0,B|361:170|386:224,1,90,8|0,0:0|0:0,0:0:0
384,232,180411,1,0,0:0:0
388,256,180522,2,0,B|396:312|440:340,2,90,0|0|8,0:0|0:0|0:0,0:0:0
496,244,181189,1,0,0:0:0
472,140,181411,6,0,B|444:100|384:96,1,90
308,36,181856,1,8,0:0:0
200,28,182078,2,0,B|112:24|72:100,1,135
64,92,182522,2,0,B|92:144|72:200,1,90,0|8,0:0|0:0,0:0:0
92,288,182967,1,0,0:0:0
108,304,183078,1,0,0:0:0
128,316,183189,6,0,B|172:344|240:320,1,90,4|0,0:0|0:0,0:0:0
368,280,183633,2,0,B|418:268|450:203,1,90,8|0,0:0|0:0,0:0:0
364,80,184078,2,0,B|324:44|248:60,1,101.250003862381
252,56,184522,2,0,B|240:96|196:112,1,67.5000025749208,8|0,0:0|0:0,0:0:0
112,188,184967,6,0,B|140:232|212:236,1,90
348,236,185411,2,0,B|398:247|452:199,1,90,8|0,0:0|0:0,0:0:0
444,196,185744,1,0,0:0:0
452,176,185856,2,0,B|448:96|376:64,1,135.000005149842,0|8,0:0|0:0,0:0:0
32,32,186744,6,0,B|32:72|60:108,1,67.5000025749208,4|0,0:0|0:0,0:0:0
108,172,187189,2,0,B|136:200|181:205,1,67.5000025749208,8|0,0:0|0:0,0:0:0
272,216,187633,2,0,B|312:216|348:188,1,67.5000025749208
440,132,188078,2,0,B|468:103|473:58,1,67.5000025749208,8|0,0:0|0:0,0:0:0
304,44,188522,6,0,B|276:24|231:30,1,67.5000025749208
100,64,188967,2,0,B|53:84|32:128,1,90,8|0,0:0|0:0,0:0:0
156,228,189411,2,0,B|216:224|252:184,1,90
408,132,189856,2,0,B|476:124|520:156,1,107.999996704102,8|8,0:0|0:0,0:0:0
372,256,190300,6,0,B|264:220|280:96,1,180,4|8,0:0|0:0,0:0:0
152,40,190967,1,0,0:0:0
136,56,191078,1,0,0:0:0
124,76,191189,2,0,B|96:120|112:184,1,90
24,232,191633,2,0,B|76:288|164:264,1,135,8|0,0:0|0:0,0:0:0
164,280,192078,6,0,B|216:268|268:296,1,90,0|0,0:0|0:0,0:0:0
276,288,192411,1,0,0:0:0
300,288,192522,1,8,0:0:0
368,176,192744,2,0,B|300:125|218:167,1,135,4|0,0:0|0:0,0:0:0
220,164,193300,1,0,0:0:0
203,176,193411,1,8,0:0:0
124,113,193633,1,0,0:0:0
112,208,195633,6,0,B|116:252|164:276,1,67.5000025749208,4|0,0:0|0:0,0:0:0
264,340,196078,2,0,B|288:268|236:200,1,135.000005149842,0|8,0:0|0:0,0:0:0
448,48,196967,1,0,0:0:0
428,140,197189,1,0,0:0:0
364,212,197411,5,0,0:0:0
256,152,197633,1,8,0:0:0
256,272,197856,1,0,0:0:0
256,272,198300,6,0,B|180:264|152:180,1,135.000005149842,8|0,0:0|0:0,0:0:0
152,52,198967,1,0,0:0:0
232,104,199189,2,0,B|256:136|256:176,2,67.5000025749208,0|0|8,0:0|0:0|0:0,0:0:0
232,104,200078,6,0,B|240:80|264:64,3,45
328,132,200967,6,0,B|324:204|244:240,1,135.000005149842,4|8,0:0|0:0,0:0:0
160,240,201633,1,0,0:0:0
68,220,201856,2,0,B|36:200|28:160,1,67.5000025749208,8|0,0:0|0:0,0:0:0
156,100,202300,2,0,B|196:96|220:68,1,67.5000025749208,8|0,0:0|0:0,0:0:0
248,64,202633,1,0,0:0:0
284,64,202744,6,0,B|400:36|464:144,1,180,4|8,0:0|0:0,0:0:0
404,216,203411,1,0,0:0:0
384,228,203522,1,0,0:0:0
364,240,203633,2,0,B|312:236|288:184,1,90
208,124,204078,2,0,B|184:80|116:72,1,90,8|0,0:0|0:0,0:0:0
8,120,204522,6,0,B|36:204|128:208,1,135
108,228,204967,2,0,B|136:268|204:272,1,90,8|0,0:0|0:0,0:0:0
292,260,205411,2,0,B|344:236|356:180,1,90
420,112,205856,2,0,B|439:58|408:10,1,90,8|0,0:0|0:0,0:0:0
252,32,206300,5,4,0:0:0
148,64,206522,1,0,0:0:0
80,148,206744,1,8,0:0:0
60,256,206967,5,0,0:0:0
152,312,207411,1,8,0:0:0
256,336,207856,1,12,0:0:0
364,340,208300,5,0,0:0:0
292,260,208522,1,8,0:0:0
260,156,208744,1,0,0:0:0
256,48,208967,1,8,0:0:0
280,52,209078,1,0,0:0:0
300,60,209189,1,0,0:0:0
316,72,209300,1,0,0:0:0
332,88,209411,2,0,B|364:136|352:184,1,90,8|0,0:0|0:0,0:0:0
204,232,209856,6,0,B|168:204|164:140,1,90,4|0,0:0|0:0,0:0:0
60,68,210300,2,0,B|20:136|44:208,1,135,8|0,0:0|0:0,0:0:0
60,248,210744,2,0,B|76:296|140:308,1,90
288,304,211189,2,0,B|336:284|348:228,1,90,8|0,0:0|0:0,0:0:0
456,120,211633,6,0,B|456:80|368:48|320:64|284:96,1,180,0|8,0:0|0:0,0:0:0
244,172,212300,1,0,0:0:0
140,196,212522,2,0,B|132:148|160:100,1,90
304,44,212967,2,0,B|356:40|392:80,1,90,8|0,0:0|0:0,0:0:0
432,228,213411,6,0,B|384:312|268:304,1,180,0|8,0:0|0:0,0:0:0
172,308,214078,1,0,0:0:0
152,300,214189,1,0,0:0:0
132,288,214300,2,0,B|88:264|68:204,1,90
68,60,214744,2,0,B|120:56|164:104,1,90,8|0,0:0|0:0,0:0:0
260,208,215189,6,0,B|312:228|368:208,2,90,0|0|8,0:0|0:0|0:0,0:0:0
252,100,215856,1,0,0:0:0
228,96,215967,1,0,0:0:0
204,92,216078,2,0,B|152:72|96:92,1,90
60,180,216522,1,8,0:0:0
68,224,216633,1,0,0:0:0
92,264,216744,1,8,0:0:0
132,288,216856,1,8,0:0:0
176,296,216967,6,0,B|224:292|256:240,1,90,4|0,0:0|0:0,0:0:0
288,120,217411,2,0,B|304:72|288:20,1,90,8|0,0:0|0:0,0:0:0
344,24,217744,2,0,B|368:76|440:80|472:48,1,135
456,160,218300,1,8,0:0:0
456,160,218522,1,8,0:0:0
356,288,218744,6,0,B|296:248|304:152,1,135
296,148,219189,1,8,0:0:0
216,76,219411,2,0,B|168:40|88:60|64:96|60:140,1,180
60,144,219967,1,0,0:0:0
68,168,220078,1,8,0:0:0
84,188,220189,1,0,0:0:0
108,200,220300,1,0,0:0:0
216,284,220522,6,0,B|304:284,2,67.5000025749208,4|0|0,0:0|0:0|0:0,0:0:0
160,88,221411,2,0,B|80:88,2,67.5000025749208,0|0|8,0:0|0:0|0:0,0:0:0
256,36,222078,1,0,0:0:0
280,40,222189,1,0,0:0:0
300,52,222300,6,0,B|344:72|360:132,1,90
376,280,222744,2,0,B|392:325|361:378,1,90,8|0,0:0|0:0,0:0:0
216,308,223189,2,0,B|120:272|116:148,1,180,0|8,0:0|0:0,0:0:0
160,72,223856,1,8,0:0:0
180,80,223967,1,0,0:0:0
200,92,224078,6,0,B|224:136|212:188,1,90
104,300,224522,2,0,B|60:324|8:312,1,90,8|0,0:0|0:0,0:0:0
48,156,224967,2,0,B|68:108|124:96,1,90
136,104,225300,1,0,0:0:0
156,116,225411,2,0,B|208:120|248:72,1,90,8|0,0:0|0:0,0:0:0
396,32,225856,6,0,B|336:132,1,90,4|0,0:0|0:0,0:0:0
197,209,226300,2,0,B|244:132,1,90,8|0,0:0|0:0,0:0:0
332,244,226744,2,0,B|272:344,1,90,8|0,0:0|0:0,0:0:0
216,172,227189,2,0,B|262:94,1,90,8|0,0:0|0:0,0:0:0
288,56,227522,1,0,0:0:0
328,40,227633,6,0,B|344:92|400:112|452:112|496:68,1,180,4|8,0:0|0:0,0:0:0
420,152,228300,1,0,0:0:0
408,172,228411,2,0,B|328:280,1,135
182,316,228967,2,0,B|236:244,1,90,8|0,0:0|0:0,0:0:0
188,156,229411,6,0,B|184:88|104:56|40:80,1,180,0|8,0:0|0:0,0:0:0
120,224,230078,2,0,B|180:264|260:236|278:173,1,180
348,104,230744,1,8,0:0:0
448,144,230967,5,0,0:0:0
440,164,231078,1,0,0:0:0
432,184,231189,2,0,B|384:180|340:220,1,90,4|0,0:0|0:0,0:0:0
200,284,231633,2,0,B|160:312|104:304,1,90,8|0,0:0|0:0,0:0:0
48,220,232078,1,0,0:0:0
40,112,232300,2,0,B|80:84|136:96,1,90,0|8,0:0|0:0,0:0:0
272,160,232744,6,0,B|344:168|376:236|360:300,1,180
268,348,233411,1,8,0:0:0
172,300,233633,1,0,0:0:0
160,280,233744,1,0,0:0:0
148,260,233856,2,0,B|128:216|144:164,1,90
256,56,234300,1,8,0:0:0
260,100,234411,1,0,0:0:0
284,136,234522,1,0,0:0:0
324,156,234633,1,0,0:0:0
368,160,234744,6,0,B|420:160|460:108,1,90,4|0,0:0|0:0,0:0:0
344,48,235189,2,0,B|300:36|256:56,1,90,8|0,0:0|0:0,0:0:0
184,60,235522,2,0,B|172:112|128:132,1,90
112,200,235856,2,0,B|28:244,2,90,0|8|0,0:0|0:0|0:0,0:0:0
156,336,236522,6,0,B|248:296|260:176,1,180,0|8,0:0|0:0,0:0:0
256,88,237189,1,0,0:0:0
256,88,237633,1,8,0:0:0
256,88,238078,1,0,0:0:0
256,88,238300,1,0,0:0:0
256,192,238411,12,0,240967,0:0:0
256,192,241411,5,8,0:0:0
288,296,241633,1,0,0:0:0
308,288,241744,1,0,0:0:0
328,276,241856,6,0,B|376:224|352:140,1,135,0|8,0:0|0:0,0:0:0
292,60,242522,1,0,0:0:0
188,36,242744,2,0,B|136:48|108:104,1,90
96,248,243189,2,0,B|112:300|180:320,1,90,8|0,0:0|0:0,0:0:0
180,316,243522,1,0,0:0:0
204,312,243633,6,0,B|208:232|296:196,1,135.000005149842,0|8,0:0|0:0,0:0:0
316,104,244300,1,0,0:0:0
404,44,244522,1,0,0:0:0
496,140,244744,1,0,0:0:0
372,200,244967,1,8,0:0:0
476,288,245189,1,0,0:0:0
460,304,245300,1,0,0:0:0
444,320,245411,6,0,B|368:348|296:292,1,135,4|8,0:0|0:0,0:0:0
256,216,246078,1,0,0:0:0
220,116,246300,2,0,B|208:72|144:48,1,90
92,200,246744,2,0,B|76:248|28:268,1,90,8|0,0:0|0:0,0:0:0
36,288,247078,1,0,0:0:0
40,308,247189,6,0,B|80:364|180:336,1,135
188,324,247633,1,8,0:0:0
208,220,247856,2,0,B|232:168|356:160|376:220,1,180
404,308,248522,1,8,0:0:0
300,280,248744,1,8,0:0:0
292,236,248856,1,0,0:0:0
292,192,248967,6,0,B|308:140|360:120,1,90,4|0,0:0|0:0,0:0:0
484,100,249411,2,0,B|484:152|436:184,1,90,8|0,0:0|0:0,0:0:0
348,125,249856,2,0,B|332:80|276:64,1,90
124,36,250300,2,0,B|80:15|29:43,1,90,8|0,0:0|0:0,0:0:0
32,60,250633,1,0,0:0:0
28,84,250744,6,0,B|44:156|128:176,1,135,0|8,0:0|0:0,0:0:0
160,272,251411,1,0,0:0:0
240,344,251633,1,0,0:0:0
364,296,251856,1,0,0:0:0
288,184,252078,1,8,0:0:0
416,144,252300,1,0,0:0:0
404,124,252411,1,0,0:0:0
392,104,252522,6,0,B|312:104|272:20,1,135.000005149842,4|8,0:0|0:0,0:0:0
172,28,253189,1,0,0:0:0
76,80,253411,2,0,B|68:132|100:180,1,90
240,236,253856,2,0,B|292:244|340:212,1,90,8|0,0:0|0:0,0:0:0
352,60,254300,5,0,0:0:0
416,144,254522,1,0,0:0:0
432,252,254744,2,0,B|384:232|328:252,1,90,8|0,0:0|0:0,0:0:0
324,260,255078,1,0,0:0:0
308,276,255189,2,0,B|276:320|224:324,1,90
212,320,255522,1,0,0:0:0
188,316,255633,1,8,0:0:0
56,60,256078,6,0,B|136:60|156:144,1,135,4|0,0:0|0:0,0:0:0
140,208,256522,2,0,B|176:176|252:184,1,90,8|4,0:0|0:0,0:0:0
480,44,257189,1,0,0:0:0
480,44,257300,1,0,0:0:0
480,44,257411,2,0,B|460:184,1,107.999996704102,8|0,0:0|0:0,0:0:0
456,324,257856,6,0,B|376:324|356:240,1,135,4|0,0:0|0:0,0:0:0
372,176,258300,2,0,B|336:208|260:200,1,90,8|4,0:0|0:0,0:0:0
32,44,258967,1,0,0:0:0
32,44,259078,1,0,0:0:0
32,44,259189,2,0,B|52:184,1,107.999996704102,8|0,0:0|0:0,0:0:0
255,105,259633,5,12,0:0:0
174,165,259856,1,0,0:0:0
337,165,260078,1,8,0:0:0
205,261,260300,1,12,0:0:0
306,261,260744,5,4,0:0:0
256,192,260856,12,2,264522,0:0:0
