osu file format v10

[General]
AudioFilename: mikitoP-Sarishinohara.mp3
AudioLeadIn: 0
PreviewTime: 22633
Countdown: 0
SampleSet: Normal
StackLeniency: 0.7
Mode: 0
LetterboxInBreaks: 0

[Editor]
DistanceSpacing: 1
BeatDivisor: 4
GridSize: 4

[Metadata]
Title:Sarishinohara
TitleUnicode:Sarishinohara
Artist:mikitoP
ArtistUnicode:mikitoP
Creator:tutuhaha
Version:Normal
Source:Vocaloid
Tags:hatsune miku
BeatmapID:184235
BeatmapSetID:60953

[Difficulty]
HPDrainRate:3
CircleSize:3
OverallDifficulty:3
ApproachRate:4
SliderMultiplier:1.1
SliderTickRate:1

[Events]
//Background and Video events
0,0,"BG.jpg"
Video,0,"Video.flv"
//Break Periods
2,82074,85869
2,147852,160536
//Storyboard Layer 0 (Background)
//Storyboard Layer 1 (Fail)
//Storyboard Layer 2 (Pass)
//Storyboard Layer 3 (Foreground)
//Storyboard Sound Samples
//Background Colour Transformations
3,100,163,162,255

[TimingPoints]
1856,444.444444444444,4,1,1,50,1,0
11078,-100,4,1,2,50,0,0
16078,-100,4,2,1,40,0,0
22300,-100,4,1,2,50,0,0
22744,-100,4,1,2,40,0,0
37189,-100,4,1,2,50,0,0
40189,-100,4,1,1,50,0,0
46300,-100,4,1,2,50,0,0
50633,-100,4,1,1,50,0,0
51744,-100,4,1,2,50,0,0
53411,-100,4,1,2,20,0,0
55189,-100,4,1,2,60,0,1
65078,-100,4,1,1,60,0,1
71189,-100,4,1,2,60,0,1
80078,-100,4,1,2,50,0,0
93411,-100,4,1,1,50,0,0
96189,-100,4,1,2,50,0,0
99633,-100,4,1,1,40,0,0
100300,-100,4,2,1,20,0,0
100967,-100,4,1,1,40,0,0
107411,-100,4,1,2,50,0,0
108522,-100,4,2,1,40,0,0
112078,-100,4,1,1,40,0,0
115189,-100,4,1,2,50,0,0
119189,-100,4,1,2,60,0,1
128633,-100,4,1,1,60,0,1
135189,-100,4,1,2,60,0,1
143189,-100,4,1,1,60,0,1
144078,-100,4,1,1,20,0,0
176078,-100,4,1,1,50,0,0
181411,-100,4,1,2,50,0,0
192855,-100,4,1,1,50,0,0
195633,-100,4,1,1,40,0,0
200078,-100,4,1,1,20,0,0
200967,-100,4,1,2,40,0,0
202744,-100,4,1,2,50,0,0
205300,-100,4,1,1,50,0,0
209855,-100,4,1,2,60,0,1
219522,-100,4,1,1,60,0,1
220522,-100,4,1,2,50,0,1
222078,-100,4,1,2,50,0,1
225855,-100,4,1,2,60,0,1
228522,-100,4,1,1,60,0,1
229522,-100,4,1,2,60,0,1
231967,-100,4,1,1,60,0,1
238300,-100,4,1,2,50,0,0
248078,-100,4,1,1,50,0,0
250744,-100,4,1,2,50,0,0
260855,-100,4,1,2,10,0,0

[Colours]
Combo1 : 166,175,215
Combo2 : 240,243,131
Combo3 : 88,98,122
Combo4 : 158,220,152

[HitObjects]
68,192,8078,2,0,B|64:256|108:304,2,110,4|8|4,0:0|0:0|0:0,0:0:0
128,100,9411,1,8,0:0:0
236,120,9856,2,0,B|292:144|352:104,1,110,0|8,0:0|0:0,0:0:0
436,52,10744,2,0,B|364:96|400:200,1,165
404,252,11633,2,0,B|320:332,1,110,0|8,0:0|0:0,0:0:0
216,336,12522,6,0,B|224:268|148:200|56:244,2,220
324,316,14744,1,8,0:0:0
348,208,15189,2,0,B|340:148|264:120,1,110,0|8,0:0|0:0,0:0:0
244,24,16078,6,0,B|248:120|152:160|76:136,1,220,2|0,0:0|0:0,0:0:0
40,44,17411,1,8,0:0:0
40,44,17855,6,0,B|104:156,1,110,2|0,0:0|0:0,0:0:0
200,112,18744,2,0,B|264:224,1,110,0|8,0:0|0:0,0:0:0
272,316,19633,6,0,B|252:228|348:168|432:208,1,220,2|0,0:0|0:0,0:0:0
448,304,20967,1,8,0:0:0
448,304,21411,6,0,B|412:200,1,110,2|0,0:0|0:0,0:0:0
308,232,22300,2,0,P|304:176|328:124,1,110,4|8,0:0|0:0,0:0:0
248,52,23189,6,0,B|128:52,1,110,6|8,0:0|0:0,0:0:0
92,152,24078,2,0,B|202:152,1,110,0|8,0:0|0:0,0:0:0
228,260,24967,2,0,B|276:320|400:312|428:224,2,220,0|0|2,0:0|0:0|0:0,0:0:0
144,188,27189,5,8,0:0:0
56,124,27633,2,0,B|92:76|160:80,1,110,0|8,0:0|0:0,0:0:0
256,120,28522,2,0,B|300:244|440:220,1,220
480,124,29855,1,8,0:0:0
420,32,30300,6,0,B|296:32,1,110,2|8,0:0|0:0,0:0:0
248,120,31189,2,0,B|128:120,1,110,0|8,0:0|0:0,0:0:0
32,88,32078,2,0,B|116:100|132:220|84:272,1,220
184,324,33411,1,8,0:0:0
256,240,33855,6,0,B|256:112,1,110,2|8,0:0|0:0,0:0:0
356,84,34744,2,0,B|356:204,1,110,0|8,0:0|0:0,0:0:0
436,268,35633,2,0,B|396:344|292:348,1,165
300,347,37411,6,0,B|180:348,1,110,4|8,0:0|0:0,0:0:0
148,244,38300,2,0,B|268:244,1,110,0|8,0:0|0:0,0:0:0
276,136,39189,2,0,B|336:140|400:96,1,110,2|8,0:0|0:0,0:0:0
400,60,39855,2,0,B|496:200,1,165,0|8,0:0|0:0,0:0:0
432,288,40967,5,0,0:0:0
324,312,41411,1,8,0:0:0
224,264,41855,2,0,B|192:212|112:208,1,110,0|8,0:0|0:0,0:0:0
52,132,42744,2,0,B|144:68,1,110,2|8,0:0|0:0,0:0:0
188,40,43411,2,0,B|228:132|336:136,1,165,0|8,0:0|0:0,0:0:0
356,236,44522,6,0,B|388:224|424:228,2,55,0|0|8,0:0|0:0|0:0,0:0:0
332,344,45411,2,0,B|272:352|212:304,1,110,0|8,0:0|0:0,0:0:0
120,296,46300,2,0,B|136:212|64:132,1,165,2|0,0:0|0:0,0:0:0
144,60,47411,2,0,B|212:60,1,55,0|8,0:0|0:0,0:0:0
252,156,48078,6,0,B|300:192|412:160|428:68,1,220
484,172,49411,1,8,0:0:0
416,260,49855,2,0,B|344:312|248:284,2,165,2|4|8,0:0|0:0|0:0,0:0:0
332,192,51633,6,0,B|300:80|156:64,1,220,4|0,0:0|0:0,0:0:0
72,124,52967,1,8,0:0:0
72,124,53411,1,4,0:0:0
460,336,55189,6,0,B|456:268|412:236,1,110,4|8,0:0|0:0,0:0:0
312,204,56078,2,0,B|256:196|232:136,1,110,0|8,0:0|0:0,0:0:0
172,48,56967,6,0,B|8:124,1,165
24,172,57855,1,0,0:0:0
88,260,58300,1,8,0:0:0
184,316,58744,6,0,B|280:264,1,110,0|8,0:0|0:0,0:0:0
212,180,59633,2,0,B|308:128,1,110,0|8,0:0|0:0,0:0:0
404,72,60522,6,0,B|480:116|476:232,1,165
444,256,61411,1,0,0:0:0
352,316,61855,1,8,0:0:0
244,340,62300,6,0,B|148:272|184:132,1,220,4|0,0:0|0:0,0:0:0
272,84,63633,1,8,0:0:0
376,120,64078,6,0,B|348:180|288:188,1,110,0|8,0:0|0:0,0:0:0
248,216,64744,2,0,B|156:208|128:120,1,165,0|8,0:0|0:0,0:0:0
184,24,65855,6,0,B|248:36|280:96,1,110,0|8,0:0|0:0,0:0:0
280,140,66522,2,0,B|292:208|356:224,2,110,0|8|0,0:0|0:0|0:0,0:0:0
172,112,67855,6,0,P|156:92|148:64,2,55,0|8|0,0:0|0:0|0:0,0:0:0
96,192,68744,2,0,P|88:224|68:248,1,55,0|8,0:0|0:0,0:0:0
144,324,69411,5,4,0:0:0
236,268,69855,1,8,0:0:0
268,164,70300,2,0,B|292:108|356:88,1,110,0|8,0:0|0:0,0:0:0
348,200,71189,6,0,B|256:224|184:156,1,165
140,152,72078,2,0,B|16:152,1,110,0|8,0:0|0:0,0:0:0
88,60,72967,5,0,0:0:0
196,44,73411,1,8,0:0:0
300,80,73855,2,0,B|360:104|380:180,1,110,0|8,0:0|0:0,0:0:0
468,216,74744,6,0,B|388:180|308:220,1,165
296,272,75633,2,0,B|192:216,1,110,0|8,0:0|0:0,0:0:0
96,184,76522,6,0,B|132:76|276:48,1,220,4|0,0:0|0:0,0:0:0
356,104,77855,1,8,0:0:0
400,204,78300,2,0,B|324:240|240:200,1,165
164,124,79411,2,0,B|44:124,1,110,0|8,0:0|0:0,0:0:0
256,192,80078,12,4,81855,0:0:0
384,176,87189,5,2,0:0:0
320,264,87633,1,8,0:0:0
216,300,88078,2,0,P|160:284|124:240,1,110,0|8,0:0|0:0,0:0:0
80,144,88967,2,0,B|58:92|88:38|88:38|142:12|204:30,2,220,0|0|2,0:0|0:0|0:0,0:0:0
60,252,91189,5,8,0:0:0
136,332,91633,2,0,B|264:332,1,110,0|8,0:0|0:0,0:0:0
260,224,92522,2,0,B|256:160|196:124,1,110,0|8,0:0|0:0,0:0:0
152,140,93189,2,0,B|184:56|300:44,1,165
380,88,94300,5,6,0:0:0
380,88,94744,1,8,0:0:0
452,172,95189,2,0,B|452:304,1,110,0|8,0:0|0:0,0:0:0
352,324,96078,2,0,B|348:244|264:192|176:220,2,220,0|0|2,0:0|0:0|0:0,0:0:0
240,324,98300,5,8,0:0:0
132,300,98744,2,0,B|88:260|92:200,1,110,0|8,0:0|0:0,0:0:0
144,104,99633,2,0,B|312:104,1,165,2|4,0:0|0:0,0:0:0
309,104,101411,6,0,B|400:112|448:208,1,165,4|0,0:0|0:0,0:0:0
440,248,102300,2,0,B|312:248,1,110,0|8,0:0|0:0,0:0:0
252,328,103189,2,0,B|76:328,1,165
48,224,104300,2,0,B|52:184|80:164,1,55,0|8,0:0|0:0,0:0:0
124,80,104967,6,0,B|168:156|280:148|324:88,1,220
424,100,106300,1,8,0:0:0
416,208,106744,2,0,B|288:208,1,110,0|8,0:0|0:0,0:0:0
252,212,107411,2,0,B|264:272|224:320,1,110
176,336,108078,1,8,0:0:0
80,284,108522,6,0,B|64:160|176:88,1,220,4|0,0:0|0:0,0:0:0
256,156,109855,1,2,0:0:0
345,94,110300,2,0,B|448:160|432:284,1,220
340,344,111633,1,8,0:0:0
256,272,112078,6,0,B|256:96,1,165
216,68,112967,2,0,B|168:104|92:88,1,110,0|8,0:0|0:0,0:0:0
24,156,113855,2,0,B|88:216|196:192,1,165,0|0,0:0|0:0,0:0:0
256,272,114967,2,0,B|332:272,1,55,0|8,0:0|0:0,0:0:0
416,240,115633,6,0,B|428:176|400:120,1,110,4|8,0:0|0:0,0:0:0
364,32,116522,2,0,B|310:68|290:128,1,110,0|8,0:0|0:0,0:0:0
204,180,117411,6,0,B|200:272|84:300|24:248,1,220
96,164,118744,1,8,0:0:0
172,84,119189,6,0,B|236:72|284:116,1,110,4|8,0:0|0:0,0:0:0
324,208,120078,2,0,B|348:264|416:280,1,110,0|8,0:0|0:0,0:0:0
424,168,120967,6,0,B|376:92|280:116,1,165
236,144,121855,2,0,B|204:192|220:256,1,110,0|8,0:0|0:0,0:0:0
132,320,122744,5,0,0:0:0
132,320,123189,1,8,0:0:0
76,224,123633,2,0,B|56:168|84:108,1,110,0|8,0:0|0:0,0:0:0
180,164,124522,6,0,B|240:228|340:196,1,165
368,156,125411,2,0,B|408:112|384:48,1,110,0|8,0:0|0:0,0:0:0
280,80,126300,5,4,0:0:0
176,120,126744,1,8,0:0:0
108,208,127189,1,0,0:0:0
96,316,127633,1,8,0:0:0
204,292,128078,6,0,B|264:284|296:232,1,110,0|8,0:0|0:0,0:0:0
296,180,128744,2,8,B|384:204|408:304,1,165,0|8,0:0|0:0,0:0:0
324,368,129855,6,0,B|208:368,1,110,0|8,0:0|0:0,0:0:0
172,332,130522,2,0,B|112:276|136:164,1,165,0|8,0:0|0:0,0:0:0
148,128,131411,1,0,0:0:0
252,160,131855,6,0,B|268:196|296:212,1,55,0|8,0:0|0:0,0:0:0
312,252,132300,2,0,B|388:208|488:248,1,165,0|8,0:0|0:0,0:0:0
436,136,133411,6,0,B|340:52,1,110,4|8,0:0|0:0,0:0:0
260,120,134300,2,0,B|164:36,1,110,0|8,0:0|0:0,0:0:0
104,128,135189,6,0,B|52:208|108:300,1,165
140,320,136078,2,0,B|196:344|256:328,2,110,0|8|0,0:0|0:0|0:0,0:0:0
188,220,137411,5,8,0:0:0
256,132,137855,2,0,B|388:132,1,110,0|8,0:0|0:0,0:0:0
468,180,138744,6,0,B|388:156|368:40,1,165
320,36,139633,1,0,0:0:0
212,52,140078,1,8,0:0:0
112,92,140522,6,0,B|20:172|76:300,1,220,4|0,0:0|0:0,0:0:0
180,308,141855,1,8,0:0:0
236,212,142300,2,0,B|312:116,1,110,0|8,0:0|0:0,0:0:0
332,76,142967,2,0,B|424:92|464:188,1,165,4|0,0:0|0:0,0:0:0
396,264,144078,1,0,0:0:0
256,192,144189,12,4,147633,0:0:0
84,96,161856,6,0,B|212:96,1,110,4|0,0:0|0:0,0:0:0
244,192,162744,2,0,B|112:192,1,110,8|0,0:0|0:0,0:0:0
84,288,163633,2,0,B|216:288,1,110
240,316,164300,2,0,B|308:264|420:288,1,165
436,180,165411,5,0,0:0:0
364,100,165856,1,0,0:0:0
256,76,166300,1,8,0:0:0
148,96,166744,1,0,0:0:0
56,156,167189,2,0,B|32:220|76:276,1,110
92,308,167856,2,0,B|160:356|272:332,1,165
256,224,168967,6,0,B|256:88,1,110,4|0,0:0|0:0,0:0:0
348,52,169856,2,0,B|472:72|504:200,1,220,8|0,0:0|0:0,0:0:0
428,272,171189,1,0,0:0:0
320,244,171633,2,0,B|280:204|288:124,1,110,0|0,0:0|0:0,0:0:0
384,92,172522,6,0,B|176:200,1,220,0|8,0:0|0:0,0:0:0
80,200,173856,1,0,0:0:0
132,104,174300,2,0,B|284:24,2,165
128,216,176078,6,0,B|144:280|200:300,1,110,4|8,0:0|0:0,0:0:0
228,340,176744,2,0,B|260:264|360:236,1,165,0|8,0:0|0:0,0:0:0
392,136,177856,2,0,B|272:136,1,110,0|8,0:0|0:0,0:0:0
260,84,178522,2,0,B|168:104|92:36,1,165,0|8,0:0|0:0,0:0:0
52,144,179633,5,0,0:0:0
96,244,180078,1,8,0:0:0
184,312,180522,2,0,B|248:324|296:280,1,110,0|8,0:0|0:0,0:0:0
284,176,181411,2,0,B|328:100|432:96,1,165
476,192,182522,2,0,B|504:256,1,55,0|8,0:0|0:0,0:0:0
420,320,183189,6,0,B|288:308|284:168,1,220
256,72,184522,1,8,0:0:0
180,148,184967,6,0,B|20:328,1,220
136,356,186300,1,8,0:0:0
220,284,186744,6,0,B|300:192,1,110,4|8,0:0|0:0,0:0:0
392,248,187633,2,0,B|472:156,1,110,0|8,0:0|0:0,0:0:0
368,116,188522,6,0,B|336:64|268:56,1,110,0|8,0:0|0:0,0:0:0
172,80,189411,2,0,B|112:96|92:176,1,110,0|8,0:0|0:0,0:0:0
48,252,190300,6,0,B|124:336|268:300,1,220,4|0,0:0|0:0,0:0:0
256,192,191633,1,8,0:0:0
288,88,192078,6,0,B|376:60|460:108,2,165,0|8|8,0:0|0:0|0:0,0:0:0
256,192,193633,12,4,195633,0:0:0
256,192,196522,5,8,0:0:0
256,192,197411,2,0,B|208:80|64:92,1,220,0|8,0:0|0:0,0:0:0
96,200,198744,1,0,0:0:0
120,308,199189,5,0,0:0:0
120,308,200078,2,0,B|344:308,1,220,0|0,0:0|0:0,0:0:0
428,244,201411,1,8,0:0:0
492,156,201856,2,0,B|376:156,1,110,0|8,0:0|0:0,0:0:0
272,148,202744,6,0,B|188:148|128:44,1,165,4|0,0:0|0:0,0:0:0
92,92,203633,2,0,B|20:192,1,110,0|8,0:0|0:0,0:0:0
136,204,204522,2,0,B|40:344,2,165,0|0|8,0:0|0:0|0:0,0:0:0
244,192,206300,6,0,B|244:68,1,110,0|8,0:0|0:0,0:0:0
292,56,206967,2,0,B|328:96|400:96,2,110,0|8|8,0:0|0:0|0:0,0:0:0
184,60,208300,2,0,B|120:64|80:120,1,110
40,132,208967,2,0,B|100:232,1,110,0|8,0:0|0:0,0:0:0
176,304,209856,5,4,0:0:0
176,304,210300,1,8,0:0:0
284,324,210744,2,0,B|348:320|384:268,1,110,0|8,0:0|0:0,0:0:0
360,168,211633,6,0,B|180:168,1,165
144,148,212522,1,0,0:0:0
64,72,212967,1,8,0:0:0
36,180,213411,6,0,B|48:240|116:272,1,110,0|8,0:0|0:0,0:0:0
208,296,214300,2,0,B|248:260|316:264,1,110,0|8,0:0|0:0,0:0:0
420,248,215189,6,0,B|408:160|300:120,1,165
264,112,216078,1,0,0:0:0
172,52,216522,1,8,0:0:0
172,52,216967,6,0,B|112:164,1,110,4|8,0:0|0:0,0:0:0
196,228,217856,2,0,B|136:340,1,110,0|8,0:0|0:0,0:0:0
252,344,218744,2,0,B|344:352|400:264,2,165,0|0|8,0:0|0:0|0:0,0:0:0
200,244,220522,6,0,B|36:80,1,220,4|0,0:0|0:0,0:0:0
148,48,221856,1,8,0:0:0
220,132,222300,6,0,B|312:228,1,110,0|8,0:0|0:0,0:0:0
404,184,223189,2,0,B|327:104,1,110,0|8,0:0|0:0,0:0:0
236,44,224078,6,0,B|112:24|40:144,1,220,4|0,0:0|0:0,0:0:0
84,236,225411,1,8,0:0:0
156,320,225856,6,0,B|224:316|260:248,1,110,4|8,0:0|0:0,0:0:0
360,264,226744,2,0,B|408:220|416:152,1,110,0|8,0:0|0:0,0:0:0
360,72,227633,6,0,B|240:72,1,110,4|8,0:0|0:0,0:0:0
200,48,228300,2,0,B|164:128|60:136,1,165,0|8,0:0|0:0,0:0:0
60,244,229411,6,0,B|104:324|212:336,1,165
232,232,230522,2,0,B|232:160,1,55,0|8,0:0|0:0,0:0:0
280,80,231189,6,0,B|344:76|396:128,1,110,0|8,0:0|0:0,0:0:0
412,160,231856,2,0,B|452:236|404:336,1,165,0|8,0:0|0:0,0:0:0
312,272,232967,6,0,B|200:204,1,110,0|8,0:0|0:0,0:0:0
296,136,233856,2,0,B|184:68,1,110,0|8,0:0|0:0,0:0:0
92,92,234744,5,4,0:0:0
92,92,235189,1,8,0:0:0
76,200,235633,2,0,B|96:256|164:272,1,110,0|8,0:0|0:0,0:0:0
248,328,236522,6,0,B|336:240,1,110,0|8,0:0|0:0,0:0:0
316,196,237189,2,0,B|416:192|448:84,1,165,0|0,0:0|0:0,0:0:0
332,84,238300,1,0,0:0:0
256,192,238411,12,0,240967,0:0:0
396,296,241856,6,0,B|336:316|272:284,1,110,4|8,0:0|0:0,0:0:0
220,204,242744,2,0,B|192:144|132:128,1,110,0|8,0:0|0:0,0:0:0
144,240,243633,6,0,B|236:272|320:208,1,165
352,196,244522,2,0,B|396:68,1,110,0|8,0:0|0:0,0:0:0
280,64,245411,5,0,0:0:0
280,64,245856,1,8,0:0:0
180,112,246300,1,0,0:0:0
180,112,246744,1,8,0:0:0
96,180,247189,6,0,B|96:244|148:280,1,110,0|8,0:0|0:0,0:0:0
172,320,247856,2,0,B|348:272,1,165,0|8,0:0|0:0,0:0:0
344,168,248967,6,0,B|238:198,1,110,4|8,0:0|0:0,0:0:0
256,84,249856,2,0,B|150:114,1,110,0|8,0:0|0:0,0:0:0
72,192,250744,6,0,B|168:216|180:320,1,165
220,340,251633,1,0,0:0:0
328,332,252078,1,8,0:0:0
420,268,252522,6,0,B|468:224|472:148,1,110,0|8,0:0|0:0,0:0:0
400,88,253411,2,0,B|264:88,1,110,0|8,0:0|0:0,0:0:0
184,60,254300,6,0,B|88:60|40:160,1,165
64,196,255189,2,0,B|120:304,1,110,0|8,0:0|0:0,0:0:0
208,356,256078,6,0,B|304:356|352:256,1,165,4|4,0:0|0:0,0:0:0
416,192,257189,2,0,B|416:124,1,55,0|8,0:0|0:0,0:0:0
328,72,257856,6,0,B|232:72|184:172,1,165,4|4,0:0|0:0,0:0:0
136,248,258967,2,0,B|136:320,1,55,0|8,0:0|0:0,0:0:0
236,260,259633,6,0,B|244:180|168:136|128:136,1,165,4|4,0:0|0:0,0:0:0
40,112,260744,1,4,0:0:0
256,192,260856,12,2,264522,0:0:0
