osu file format v10

[General]
AudioFilename: mikitoP-Sarishinohara.mp3
AudioLeadIn: 0
PreviewTime: 22633
Countdown: 0
SampleSet: Normal
StackLeniency: 0.7
Mode: 0
LetterboxInBreaks: 0

[Editor]
DistanceSpacing: 1.3
BeatDivisor: 4
GridSize: 4

[Metadata]
Title:Sarishinohara
TitleUnicode:Sarishinohara
Artist:mikitoP
ArtistUnicode:mikitoP
Creator:tutuhaha
Version:Hard
Source:Vocaloid
Tags:hatsune miku
BeatmapID:182000
BeatmapSetID:60953

[Difficulty]
HPDrainRate:5
CircleSize:4
OverallDifficulty:6
ApproachRate:7
SliderMultiplier:1.4
SliderTickRate:1

[Events]
//Background and Video events
0,0,"BG.jpg"
Video,0,"Video.flv"
//Break Periods
2,82064,85844
2,147842,160733
//Storyboard Layer 0 (Background)
//Storyboard Layer 1 (Fail)
//Storyboard Layer 2 (Pass)
//Storyboard Layer 3 (Foreground)
//Storyboard Sound Samples
//Background Colour Transformations
3,100,163,162,255

[TimingPoints]
1856,444.444444444444,4,1,1,50,1,0
16078,-100,4,2,1,40,0,0
22300,-100,4,1,1,50,0,0
22744,-100,4,1,1,40,0,0
37189,-100,4,1,1,50,0,0
53411,-133.333333333333,4,1,1,20,0,0
54744,-100,4,1,1,30,0,0
55189,-100,4,1,1,60,0,1
80078,-100,4,1,1,50,0,0
99633,-100,4,1,1,40,0,0
100967,-100,4,1,1,40,0,0
107411,-100,4,1,1,50,0,0
108522,-100,4,2,1,40,0,0
111633,-100,4,1,1,40,0,0
115189,-100,4,1,1,50,0,0
119189,-100,4,1,1,60,0,1
144078,-133.333333333333,4,1,1,40,0,0
161633,-100,4,1,1,40,0,0
176078,-100,4,1,1,50,0,0
195633,-100,4,1,1,40,0,0
200078,-100,4,1,1,20,0,0
200967,-100,4,1,1,40,0,0
202744,-100,4,1,1,50,0,0
209855,-100,4,1,1,60,0,1
220522,-100,4,1,1,50,0,1
225855,-100,4,1,1,60,0,1
238300,-100,4,1,1,50,0,0
260855,-100,4,1,1,10,0,0

[Colours]
Combo1 : 166,175,215
Combo2 : 240,243,131
Combo3 : 88,98,122
Combo4 : 158,220,152

[HitObjects]
120,192,7856,1,0,0:0:0
148,280,8078,2,0,B|180:300|232:288,1,70,4|0,0:0|0:0,0:0:0
304,308,8522,2,0,B|316:256|276:224,1,70,8|0,0:0|0:0,0:0:0
228,176,8967,6,0,B|332:48,1,140,4|8,0:0|0:0,0:0:0
404,52,9633,1,0,0:0:0
456,128,9856,2,0,B|424:148|364:136,1,70
264,80,10300,2,0,B|240:48|192:48,1,70,8|0,0:0|0:0,0:0:0
200,140,10744,6,0,B|111:248,1,140,0|8,0:0|0:0,0:0:0
144,332,11411,1,0,0:0:0
56,308,11633,2,0,B|28:276|32:236,1,70
56,108,12078,2,0,B|80:76|120:76,1,70,8|0,0:0|0:0,0:0:0
128,168,12522,6,0,B|232:292,1,140,0|8,0:0|0:0,0:0:0
288,336,13189,1,0,0:0:0
288,336,13411,2,0,B|232:288|272:192,1,140,0|8,0:0|0:0,0:0:0
404,88,14300,5,0,0:0:0
404,88,14522,1,0,0:0:0
228,40,14967,1,8,0:0:0
144,68,15189,2,0,B|104:76|80:112,1,70
56,236,15633,2,0,B|52:280|76:316,1,70,8|0,0:0|0:0,0:0:0
144,248,16078,6,0,B|160:168|232:136,2,140,2|8|2,0:0|0:0|0:0,0:0:0
304,336,17411,1,8,0:0:0
420,196,17855,6,0,B|344:180|288:232,1,140,2|8,0:0|0:0,0:0:0
208,272,18522,1,0,0:0:0
120,296,18744,2,0,B|88:308|40:304,1,70,2|0,0:0|0:0,0:0:0
76,216,19189,2,0,B|112:196|152:204,1,70,8|0,0:0|0:0,0:0:0
208,272,19633,6,0,P|284:276|344:228,2,140,2|8|2,0:0|0:0|0:0,0:0:0
272,100,20967,1,8,0:0:0
432,196,21411,6,0,B|392:220|344:212,1,70,2|0,0:0|0:0,0:0:0
316,288,21855,2,0,B|280:260|272:216,1,70,8|0,0:0|0:0,0:0:0
256,144,22300,1,4,0:0:0
256,144,22744,1,8,0:0:0
256,52,23189,6,0,B|108:52,1,140,6|8,0:0|0:0,0:0:0
256,260,24078,2,0,B|332:260,2,70,0|0|8,0:0|0:0|0:0,0:0:0
172,100,24967,6,0,B|88:100,2,70,0|0|8,0:0|0:0|0:0,0:0:0
240,160,25633,2,0,B|316:156|352:80,1,140
436,52,26300,2,0,B|436:136,1,70,8|0,0:0|0:0,0:0:0
350,225,26744,6,0,B|350:81,1,140,2|8,0:0|0:0,0:0:0
162,159,27633,2,0,B|162:303,1,140,0|8,0:0|0:0,0:0:0
256,144,28522,6,0,B|256:68,2,70,0|0|8,0:0|0:0|0:0,0:0:0
256,236,29189,1,0,0:0:0
192,300,29411,2,0,B|168:332|120:336,1,70
120,244,29855,2,0,B|80:176|120:88,1,140,8|2,0:0|0:0,0:0:0
280,40,30744,5,8,0:0:0
280,40,31189,2,0,B|444:40,1,140,0|8,0:0|0:0,0:0:0
268,140,32078,2,0,B|192:140,2,70,0|0|8,0:0|0:0|0:0,0:0:0
356,164,32744,2,0,B|396:224|372:308,1,140
328,376,33411,1,8,0:0:0
240,360,33633,6,0,B|200:300|224:216,1,140,2|0,0:0|0:0,0:0:0
256,140,34300,1,8,0:0:0
256,140,34744,2,0,B|104:140,1,140,0|8,0:0|0:0,0:0:0
96,52,35411,1,0,0:0:0
188,48,35633,6,0,B|200:88|184:128,1,70
164,204,36078,2,0,B|152:244|112:268,1,70,8|0,0:0|0:0,0:0:0
124,259,36744,1,0,0:0:0
196,316,36967,1,8,0:0:0
284,332,37189,1,0,0:0:0
376,320,37411,6,0,B|448:292|468:196,1,140,4|8,0:0|0:0,0:0:0
348,76,38300,2,0,B|276:104|256:200,1,140,0|8,0:0|0:0,0:0:0
304,260,38967,1,0,0:0:0
356,184,39189,6,0,B|340:144|284:124,1,70,2|0,0:0|0:0,0:0:0
224,96,39633,2,0,B|188:80|144:92,1,70,8|0,0:0|0:0,0:0:0
92,152,40078,1,0,0:0:0
108,240,40300,1,0,0:0:0
176,300,40522,1,8,0:0:0
264,320,40744,1,0,0:0:0
204,196,40967,6,0,B|180:160|184:112,2,70,0|0|8,0:0|0:0|0:0,0:0:0
288,232,41633,1,0,0:0:0
372,264,41855,2,0,B|396:184|360:104,1,140,0|8,0:0|0:0,0:0:0
288,84,42522,6,0,B|364:100|428:40,1,140,2|0,0:0|0:0,0:0:0
480,116,43189,2,0,B|500:152|496:192,1,70,8|0,0:0|0:0,0:0:0
368,228,43633,2,0,B|348:192|352:152,2,70,0|0|8,0:0|0:0|0:0,0:0:0
288,272,44300,1,0,0:0:0
204,308,44522,5,0,0:0:0
116,280,44744,1,0,0:0:0
56,212,44967,1,8,0:0:0
164,64,45411,2,0,B|232:96|244:204,1,140,0|8,0:0|0:0,0:0:0
88,280,46300,6,0,B|92:200|168:160,1,140,2|8,0:0|0:0,0:0:0
224,228,46967,2,0,B|268:296|356:292,1,140
408,228,47633,1,8,0:0:0
420,136,47855,1,0,0:0:0
392,48,48078,6,0,B|240:48,1,140,0|8,0:0|0:0,0:0:0
96,144,48967,2,0,B|252:144,1,140,0|8,0:0|0:0,0:0:0
392,240,49855,5,6,0:0:0
392,240,50078,2,0,B|224:240,2,140,8|4|0,0:0|0:0|0:0,0:0:0
432,160,51189,2,0,B|436:120|408:88,1,70,8|0,0:0|0:0,0:0:0
336,44,51633,5,4,0:0:0
336,44,52078,1,0,0:0:0
256,208,52522,1,8,0:0:0
176,160,52744,1,0,0:0:0
136,76,52967,1,8,0:0:0
40,244,53411,6,0,B|160:224|240:324,1,210.000008010865,4|0,0:0|0:0,0:0:0
228,310,54744,1,8,0:0:0
380,208,55189,6,0,B|416:196|436:152,1,70,4|0,0:0|0:0,0:0:0
348,128,55633,2,0,B|316:60|220:48,2,140,8|0|8,0:0|0:0|0:0,0:0:0
280,192,56744,1,0,0:0:0
204,240,56967,6,0,B|120:220|96:132,1,140,0|8,0:0|0:0,0:0:0
128,64,57633,1,0,0:0:0
216,40,57855,2,0,B|276:80|276:164,1,140,0|8,0:0|0:0,0:0:0
116,244,58744,6,0,B|104:208|120:168,1,70
200,212,59189,2,0,B|276:232|304:332,1,140,8|0,0:0|0:0,0:0:0
388,308,59855,2,0,B|432:304|456:272,2,70,0|8|0,0:0|0:0|0:0,0:0:0
384,216,60522,6,0,B|364:140|280:112,1,140,0|8,0:0|0:0,0:0:0
212,156,61189,1,0,0:0:0
184,244,61411,2,0,B|244:288|320:256,1,140,0|8,0:0|0:0,0:0:0
336,76,62300,6,0,B|276:32|200:64,1,140,4|8,0:0|0:0,0:0:0
128,232,63189,1,0,0:0:0
128,232,63633,1,8,0:0:0
268,348,64078,6,0,B|300:296|240:264|288:200,1,140,0|8,0:0|0:0,0:0:0
360,252,64744,2,0,B|384:192|360:148|304:120,1,140
236,104,65411,1,8,0:0:0
144,112,65633,1,0,0:0:0
56,216,65855,6,0,B|128:232|192:184,1,140,0|8,0:0|0:0,0:0:0
236,104,66522,2,0,B|388:104,1,140,0|8,0:0|0:0,0:0:0
460,264,67411,6,0,B|316:264,1,140,0|8,0:0|0:0,0:0:0
232,240,68078,1,8,0:0:0
184,164,68300,2,0,B|152:96|48:92,1,140
16,168,68967,1,8,0:0:0
120,316,69411,6,0,B|184:356|264:324,1,140,4|8,0:0|0:0,0:0:0
404,224,70300,2,0,B|376:200|320:196,1,70
252,180,70744,2,0,B|212:172|184:144,1,70,8|0,0:0|0:0,0:0:0
132,76,71189,6,0,B|200:36|288:72,1,140,0|8,0:0|0:0,0:0:0
344,112,71855,1,0,0:0:0
380,196,72078,2,0,B|388:268|340:328,1,140,0|8,0:0|0:0,0:0:0
160,312,72967,6,0,B|205:255|281:246,1,140,0|8,0:0|0:0,0:0:0
368,228,73633,1,0,0:0:0
452,192,73855,2,0,B|468:160|452:116,1,70
380,72,74300,2,0,B|348:56|304:72,1,70,8|0,0:0|0:0,0:0:0
224,84,74744,6,0,B|152:96|120:184,1,140,0|8,0:0|0:0,0:0:0
124,264,75411,1,0,0:0:0
212,292,75633,2,0,B|256:296|288:268,1,70
348,156,76078,6,0,B|264:140|200:196,2,140,8|4|8,0:0|0:0|0:0,0:0:0
424,108,77189,2,0,B|372:144|372:236,1,140
292,276,77855,2,0,B|272:312|232:324,1,70,8|0,0:0|0:0,0:0:0
148,324,78300,6,0,B|76:292|68:192,1,140,0|8,0:0|0:0,0:0:0
112,84,78967,2,0,B|196:216,1,140,0|8,0:0|0:0,0:0:0
256,32,79855,1,0,0:0:0
256,32,80078,1,0,0:0:0
256,192,80189,12,0,81855,0:0:0
188,104,86744,6,0,B|108:104,1,70,8|0,0:0|0:0,0:0:0
72,180,87189,2,0,B|144:196|168:272,1,140,2|8,0:0|0:0,0:0:0
340,332,88078,1,0,0:0:0
412,276,88300,1,0,0:0:0
444,192,88522,1,8,0:0:0
320,60,88967,6,0,B|280:64|256:96,2,70,0|0|8,0:0|0:0|0:0,0:0:0
336,148,89633,2,0,B|296:216|212:216,1,140
128,212,90300,2,0,B|80:120,1,70,8|0,0:0|0:0,0:0:0
56,68,90744,5,2,0:0:0
144,44,90967,1,0,0:0:0
232,60,91189,1,8,0:0:0
352,196,91633,2,0,B|312:256|216:256,1,140,0|8,0:0|0:0,0:0:0
324,100,92522,6,0,B|364:96|392:116,1,70
464,168,92967,2,0,B|456:208|476:248,1,70,8|0,0:0|0:0,0:0:0
420,312,93411,2,0,B|340:312,2,70,0|0|8,0:0|0:0|0:0,0:0:0
256,232,94300,6,0,B|104:232,1,140,6|8,0:0|0:0,0:0:0
176,60,95189,2,0,B|316:60,1,140,0|8,0:0|0:0,0:0:0
404,80,95855,1,0,0:0:0
468,144,96078,6,0,B|492:172|496:212,2,70,0|0|8,0:0|0:0|0:0,0:0:0
408,212,96744,2,0,B|268:288,1,140
179,235,97411,2,0,B|240:200,1,70,8|0,0:0|0:0,0:0:0
288,72,97855,6,0,B|148:148,2,140,2|8|0,0:0|0:0|0:0,0:0:0
468,52,99189,1,8,0:0:0
468,52,99633,5,2,0:0:0
424,132,100967,2,0,B|336:132,1,70
268,168,101411,6,0,B|252:248|156:284,1,140,2|8,0:0|0:0,0:0:0
200,92,102300,2,0,B|256:40|352:48,1,140,0|8,0:0|0:0,0:0:0
412,88,102967,1,0,0:0:0
456,168,103189,6,0,B|456:208|428:240,2,70,0|0|8,0:0|0:0|0:0,0:0:0
364,168,103855,2,0,B|216:128,1,140
140,104,104522,1,8,0:0:0
44,256,104967,6,0,B|84:324|176:328,1,140,2|8,0:0|0:0,0:0:0
248,304,105633,1,0,0:0:0
308,236,105855,2,0,B|356:176|456:184,1,140,0|8,0:0|0:0,0:0:0
456,272,106522,6,0,B|448:192|516:148,1,140
464,72,107189,2,0,B|396:32,1,70,8|0,0:0|0:0,0:0:0
312,48,107633,1,8,0:0:0
232,88,107855,1,8,0:0:0
184,168,108078,1,0,0:0:0
52,292,108522,5,2,0:0:0
52,292,109411,1,2,0:0:0
52,292,110300,2,0,B|160:332|264:272,1,210,2|0,0:0|0:0,0:0:0
332,112,111411,2,0,B|292:112|264:136,2,70,2|8|0,0:0|0:0|0:0,0:0:0
328,204,112078,6,0,B|368:272|460:272,1,140,2|8,0:0|0:0,0:0:0
488,96,112967,2,0,B|448:28|356:28,1,140,0|8,0:0|0:0,0:0:0
192,44,113855,6,0,B|152:48|124:80,2,70,0|0|8,0:0|0:0|0:0,0:0:0
196,136,114522,2,0,B|280:256,1,140
332,324,115189,1,8,0:0:0
388,152,115633,6,0,B|404:116|448:104,2,70,4|0|8,0:0|0:0|0:0,0:0:0
364,240,116300,1,0,0:0:0
300,176,116522,2,0,B|285:139|308:99,2,70,0|0|8,0:0|0:0|0:0,0:0:0
348,252,117189,1,0,0:0:0
256,260,117411,6,0,B|219:244|208:200,1,70
140,92,117855,2,0,B|120:64|64:60,1,70,8|0,0:0|0:0,0:0:0
80,152,118300,1,0,0:0:0
52,240,118522,1,8,0:0:0
80,328,118744,1,8,0:0:0
232,224,119189,6,0,B|232:184|204:156,1,70,4|0,0:0|0:0,0:0:0
232,72,119633,2,0,B|388:72,1,140,8|0,0:0|0:0,0:0:0
440,132,120300,1,0,0:0:0
460,220,120522,2,0,B|376:220,1,70,8|0,0:0|0:0,0:0:0
332,288,120967,6,0,B|296:216|208:204,1,140,0|8,0:0|0:0,0:0:0
152,260,121633,1,0,0:0:0
104,184,121855,2,0,B|56:128|84:24,1,140,0|8,0:0|0:0,0:0:0
256,92,122744,6,0,B|288:108|304:144,1,70
292,232,123189,2,0,B|336:296|444:296,2,140,8|0|8,0:0|0:0|0:0,0:0:0
204,208,124300,1,0,0:0:0
140,144,124522,6,0,B|116:72|28:56,1,140,0|8,0:0|0:0,0:0:0
20,148,125189,1,0,0:0:0
32,240,125411,2,0,B|56:312|144:328,1,140,0|8,0:0|0:0,0:0:0
256,192,126300,5,4,0:0:0
256,192,126744,1,8,0:0:0
384,60,127189,2,0,B|424:64|448:96,2,70,0|0|8,0:0|0:0|0:0,0:0:0
372,152,127855,1,0,0:0:0
340,240,128078,6,0,B|300:304|196:296,1,140,0|8,0:0|0:0,0:0:0
140,340,128744,2,0,B|124:264|172:196,1,140
158,85,129411,2,0,B|128:96|108:132,1,70,8|0,0:0|0:0,0:0:0
244,136,129855,6,0,B|320:120|356:44,1,140,0|8,0:0|0:0,0:0:0
444,48,130522,1,0,0:0:0
448,232,130967,2,0,B|436:304,1,70,0|8,0:0|0:0,0:0:0
360,352,131411,6,0,B|352:276|268:236,1,140,4|0,0:0|0:0,0:0:0
192,236,132078,1,8,0:0:0
108,264,132300,2,0,B|56:208|80:112,1,140
128,56,132967,1,8,0:0:0
256,192,133411,6,0,B|296:204|316:244,1,70,4|0,0:0|0:0,0:0:0
368,304,133855,2,0,B|472:180,1,140,8|0,0:0|0:0,0:0:0
416,116,134522,1,0,0:0:0
340,64,134744,2,0,B|308:44|264:48,1,70,8|0,0:0|0:0,0:0:0
224,124,135189,6,0,B|184:184|84:184,1,140,0|8,0:0|0:0,0:0:0
40,120,135855,1,0,0:0:0
108,56,136078,2,0,B|140:80|144:124,1,70
144,204,136522,2,0,B|144:240|120:272,1,70,8|0,0:0|0:0,0:0:0
192,328,136967,5,0,0:0:0
280,340,137189,1,0,0:0:0
368,324,137411,2,0,B|448:308|468:208,1,140,8|0,0:0|0:0,0:0:0
392,172,138078,1,0,0:0:0
336,100,138300,2,0,B|344:60|384:40,1,70,8|0,0:0|0:0,0:0:0
460,152,138744,6,0,B|408:204|316:192,1,140,0|8,0:0|0:0,0:0:0
244,164,139411,1,0,0:0:0
172,112,139633,2,0,B|120:60|36:68,1,140,0|8,0:0|0:0,0:0:0
128,228,140522,6,0,B|172:288|272:288,1,140,4|8,0:0|0:0,0:0:0
320,344,141189,2,0,B|428:232,1,140
444,156,141855,2,0,P|488:176|496:216,1,70
340,192,142300,6,0,P|272:172|236:96,1,140,0|8,0:0|0:0,0:0:0
236,24,142967,1,0,0:0:0
236,24,143411,2,0,P|224:84|148:116,1,140
160,200,144078,6,0,P|132:128|40:100,1,157.500006008148
68,192,144967,2,0,P|96:264|188:292,1,157.500006008148
256,272,145856,1,0,0:0:0
256,192,145967,12,0,147633,0:0:0
256,96,161633,5,0,0:0:0
256,96,161856,2,0,B|104:96,1,140,4|0,0:0|0:0,0:0:0
256,212,162744,2,0,B|404:212,1,140,8|0,0:0|0:0,0:0:0
456,144,163411,1,0,0:0:0
432,56,163633,6,0,B|408:24|364:24,2,70
360,112,164300,2,0,B|208:112,1,140,8|0,0:0|0:0,0:0:0
128,120,164967,2,0,B|84:124|56:156,1,70
48,236,165411,6,0,B|80:296|168:304,1,140,4|0,0:0|0:0,0:0:0
348,303,166300,2,0,B|432:296|464:236,1,140,8|0,0:0|0:0,0:0:0
428,152,166967,1,0,0:0:0
356,96,167189,6,0,B|316:92|280:120,2,70
340,184,167856,2,0,B|256:204|224:288,1,140,8|0,0:0|0:0,0:0:0
164,328,168522,2,0,B|116:248,1,70
76,192,168967,5,4,0:0:0
76,192,169411,1,0,0:0:0
212,72,169856,2,0,B|276:36|368:60,1,140,8|0,0:0|0:0,0:0:0
408,124,170522,1,0,0:0:0
332,172,170744,6,0,B|292:180|272:212,2,70
352,260,171411,2,0,B|312:328|224:336,1,140,8|0,0:0|0:0,0:0:0
148,320,172078,2,0,B|116:296|104:256,1,70
84,176,172522,5,4,0:0:0
84,176,172967,1,0,0:0:0
224,60,173411,2,0,B|376:60,1,140,8|0,0:0|0:0,0:0:0
240,192,174300,6,0,B|168:192,2,70,0|0|8,0:0|0:0|0:0,0:0:0
288,268,174967,2,0,B|336:336|420:324,1,140,0|0,0:0|0:0,0:0:0
468,256,175633,1,8,0:0:0
336,72,176078,5,4,0:0:0
336,72,176522,1,8,0:0:0
264,128,176744,2,0,B|188:112|156:40,1,140
68,64,177411,2,0,B|32:76|12:112,1,70,8|0,0:0|0:0,0:0:0
24,196,177856,6,0,B|32:232|68:256,2,70,0|0|8,0:0|0:0|0:0,0:0:0
112,176,178522,2,0,B|168:220|272:204,1,140
336,188,179189,2,0,B|368:172|388:132,1,70,8|0,0:0|0:0,0:0:0
256,96,179633,6,0,B|216:104|192:136,1,70,0|0,0:0|0:0,0:0:0
152,208,180078,2,0,B|140:248|152:296,1,70,8|0,0:0|0:0,0:0:0
224,328,180522,1,0,0:0:0
316,332,180744,1,0,0:0:0
396,288,180967,1,8,0:0:0
432,204,181189,1,0,0:0:0
420,116,181411,6,0,B|392:48|288:36,1,140,0|8,0:0|0:0,0:0:0
232,88,182078,2,0,B|88:88,1,140
28,152,182744,1,8,0:0:0
152,288,183189,6,0,B|176:316|220:324,2,70,0|0|8,0:0|0:0|0:0,0:0:0
224,232,183856,1,0,0:0:0
296,284,184078,2,0,B|332:286|369:261,2,70,0|0|8,0:0|0:0|0:0,0:0:0
304,192,184744,1,0,0:0:0
392,172,184967,6,0,B|420:147|428:104,2,70,0|0|8,0:0|0:0|0:0,0:0:0
336,100,185633,1,0,0:0:0
268,40,185856,2,0,B|200:64|188:148,1,140,0|8,0:0|0:0,0:0:0
116,312,186744,6,0,B|216:360|332:304,1,210,4|0,0:0|0:0,0:0:0
354,200,187633,2,0,B|396:256,1,70,0|0,0:0|0:0,0:0:0
400,120,188078,2,0,B|352:56,1,70,8|0,0:0|0:0,0:0:0
220,56,188522,6,0,B|96:56|36:164,1,210
40,244,189411,2,0,B|82:300,1,70
214,348,189856,2,0,B|172:292,1,70
212,212,190300,6,0,B|232:96|368:76,1,210,4|0,0:0|0:0,0:0:0
436,124,191189,2,0,B|384:272|384:276,1,140,0|8,0:0|0:0,0:0:0
216,308,192078,5,0,0:0:0
96,172,192522,1,8,0:0:0
96,172,192744,1,0,0:0:0
240,60,193189,1,0,0:0:0
312,116,193411,1,8,0:0:0
400,136,193633,1,0,0:0:0
256,192,193744,12,4,195633,0:0:0
256,192,196522,5,8,0:0:0
256,192,196967,2,0,B|160:192,1,70
156,104,197411,2,0,B|144:64|104:48,2,70,0|8|0,0:0|0:0|0:0,0:0:0
212,276,198300,2,0,B|368:276,1,140,8|4,0:0|0:0,0:0:0
396,100,199189,5,0,0:0:0
396,100,199633,2,0,B|304:100,1,70,8|0,0:0|0:0,0:0:0
260,40,200078,1,0,0:0:0
260,40,200967,6,0,B|128:56|92:168,1,210,4|0,0:0|0:0,0:0:0
72,240,201856,2,0,B|112:252|152:224,1,70,8|0,0:0|0:0,0:0:0
256,164,202300,2,0,B|288:136|336:136,1,70,8|0,0:0|0:0,0:0:0
400,184,202744,6,0,B|392:268|308:296,2,140,4|8|0,0:0|0:0|0:0,0:0:0
256,72,204078,1,8,0:0:0
112,184,204522,6,0,B|-4:268,1,140,0|8,0:0|0:0,0:0:0
80,308,205189,2,0,B|193:225,1,140
280,196,205856,1,8,0:0:0
372,204,206078,1,0,0:0:0
460,244,206300,6,0,B|412:300|320:288,1,140,4|8,0:0|0:0,0:0:0
288,160,206967,2,0,B|336:104|428:116,2,140,0|8|8,0:0|0:0|0:0,0:0:0
176,304,208300,5,0,0:0:0
96,260,208522,1,8,0:0:0
44,188,208744,2,0,B|116:140|124:60,1,140
147,213,209411,2,0,B|128:248|96:260,1,70,8|0,0:0|0:0,0:0:0
232,240,209856,5,4,0:0:0
320,212,210078,1,0,0:0:0
384,144,210300,1,8,0:0:0
236,36,210744,1,0,0:0:0
160,84,210967,1,0,0:0:0
104,156,211189,2,0,B|88:196|96:228,1,70,8|0,0:0|0:0,0:0:0
80,312,211633,6,0,B|160:328|224:260,1,140,0|8,0:0|0:0,0:0:0
256,192,212300,1,0,0:0:0
302,109,212522,2,0,B|352:56|432:72,1,140,0|8,0:0|0:0,0:0:0
384,248,213411,6,0,B|240:248,1,140,0|8,0:0|0:0,0:0:0
156,220,214078,1,0,0:0:0
84,164,214300,2,0,B|96:120|136:104,1,70
200,60,214744,2,0,B|239:37|279:54,1,70,8|0,0:0|0:0,0:0:0
392,84,215189,6,0,B|360:148|268:156,1,140,0|8,0:0|0:0,0:0:0
188,148,215856,1,0,0:0:0
104,116,216078,2,0,B|80:84|40:80,1,70
64,216,216522,2,0,B|104:224|144:208,1,70,8|0,0:0|0:0,0:0:0
220,244,216967,6,0,B|304:368,1,140,4|8,0:0|0:0,0:0:0
348,284,217633,2,0,B|360:200|448:176,1,140
424,92,218300,2,0,B|384:88|348:104,1,70,8|0,0:0|0:0,0:0:0
260,200,218744,6,0,B|180:232|108:176,1,140,0|8,0:0|0:0,0:0:0
64,120,219411,2,0,B|100:180|72:268|72:264,1,140
128,360,220078,2,0,B|152:328|152:288,1,70,8|0,0:0|0:0,0:0:0
172,208,220522,5,4,0:0:0
224,136,220744,1,0,0:0:0
304,92,220967,1,8,0:0:0
444,208,221411,2,0,B|432:248|400:268,1,70
332,316,221856,2,0,B|296:308|256:328,1,70,8|0,0:0|0:0,0:0:0
180,360,222300,6,0,B|108:332|104:232,1,140,0|8,0:0|0:0,0:0:0
92,160,222967,1,0,0:0:0
116,72,223189,2,0,B|160:84|180:112,1,70
264,208,223633,2,0,B|292:236|352:240,1,70,8|8,0:0|0:0,0:0:0
420,136,224078,6,0,B|352:96|264:120,1,140,4|8,0:0|0:0,0:0:0
204,156,224744,1,0,0:0:0
136,216,224967,2,0,B|120:248|80:264,2,70,0|0|8,0:0|0:0|0:0,0:0:0
56,176,225633,1,0,0:0:0
88,92,225856,6,0,B|152:56|244:76,1,140,4|8,0:0|0:0,0:0:0
451,247,226744,2,0,B|380:264|316:228,1,140,0|8,0:0|0:0,0:0:0
256,160,227411,1,0,0:0:0
176,116,227633,6,0,B|124:64|36:72,2,140,4|8|0,0:0|0:0|0:0,0:0:0
112,180,228744,2,0,B|144:208|192:208,2,70,0|8|0,0:0|0:0|0:0,0:0:0
192,292,229411,6,0,B|280:280|312:196,1,140,0|8,0:0|0:0,0:0:0
300,124,230078,1,0,0:0:0
468,56,230522,2,0,B|444:24|400:20,2,70,0|8|0,0:0|0:0|0:0,0:0:0
500,144,231189,6,0,B|448:288,1,140,4|8,0:0|0:0,0:0:0
404,352,231856,2,0,B|384:272|292:244,1,140
256,184,232522,1,8,0:0:0
197,251,232744,6,0,B|128:272|108:352,1,140,4|0,0:0|0:0,0:0:0
59,275,233411,2,0,B|12:144,1,140,8|0,0:0|0:0,0:0:0
44,56,234078,2,0,B|68:24|112:20,2,70,0|8|0,0:0|0:0|0:0,0:0:0
120,108,234744,6,0,B|188:136|264:96,1,140,4|8,0:0|0:0,0:0:0
448,220,235633,2,0,B|380:248|304:208,1,140,0|8,0:0|0:0,0:0:0
224,184,236300,1,0,0:0:0
132,192,236522,6,0,B|48:212|28:296,1,140,0|8,0:0|0:0,0:0:0
168,256,237189,2,0,B|180:172|132:104,1,140
312,60,238078,1,0,0:0:0
312,60,238300,1,0,0:0:0
256,192,238411,12,8,241411,0:0:0
296,280,241856,6,0,B|456:280,1,140,4|8,0:0|0:0,0:0:0
328,132,242744,2,0,B|168:132,1,140,0|8,0:0|0:0,0:0:0
84,284,243633,6,0,B|168:304|228:244,1,140,0|8,0:0|0:0,0:0:0
256,176,244300,1,0,0:0:0
304,100,244522,2,0,B|348:100|376:136,1,70
380,260,244967,2,0,B|380:304|344:332,1,70,8|0,0:0|0:0,0:0:0
296,256,245411,6,0,B|152:176,1,140,0|8,0:0|0:0,0:0:0
300,56,246300,2,0,B|422:123,1,140,0|8,0:0|0:0,0:0:0
240,124,247189,6,0,B|192:68|96:84,1,140,0|8,0:0|0:0,0:0:0
60,156,247856,1,0,0:0:0
192,280,248300,1,0,0:0:0
284,276,248522,1,8,0:0:0
364,232,248744,1,0,0:0:0
408,152,248967,6,0,B|268:76,1,140,4|8,0:0|0:0,0:0:0
196,104,249633,1,0,0:0:0
104,92,249856,2,0,B|100:128|120:164,1,70
200,268,250300,2,0,B|222:296|262:307,1,70,8|0,0:0|0:0,0:0:0
272,216,250744,6,0,B|228:160|140:168,1,140,0|8,0:0|0:0,0:0:0
96,244,251411,1,0,0:0:0
176,292,251633,2,0,B|208:320|256:320,1,70
376,308,252078,2,0,B|418:305|452:271,1,70,8|0,0:0|0:0,0:0:0
372,220,252522,6,0,B|224:220,1,140,0|8,0:0|0:0,0:0:0
144,192,253189,1,0,0:0:0
52,180,253411,2,0,B|60:136|100:112,1,70
204,48,253856,2,0,B|240:22|286:33,1,70,8|0,0:0|0:0,0:0:0
260,120,254300,6,0,B|316:164|400:148,1,140,0|8,0:0|0:0,0:0:0
400,240,254967,1,0,0:0:0
400,332,255189,2,0,B|360:332|320:292,1,70
240,208,255633,2,0,B|211:179|211:123,1,70,8|0,0:0|0:0,0:0:0
304,140,256078,6,0,B|336:72|444:68,1,140,4|8,0:0|0:0,0:0:0
480,136,256744,1,4,0:0:0
404,300,257189,1,0,0:0:0
336,240,257411,1,8,0:0:0
316,328,257633,1,0,0:0:0
208,244,257856,6,0,B|176:312|68:316,1,140,4|8,0:0|0:0,0:0:0
32,248,258522,1,4,0:0:0
108,84,258967,1,0,0:0:0
176,144,259189,1,8,0:0:0
196,56,259411,1,0,0:0:0
304,140,259633,6,0,B|376:116,1,70,4|0,0:0|0:0,0:0:0
492,220,260078,2,0,B|420:196,1,70,8|4,0:0|0:0,0:0:0
256,348,260744,1,4,0:0:0
256,192,260856,12,2,264522,0:0:0
