osu file format v12

[General]
AudioFilename: PV.mp3
AudioLeadIn: 0
PreviewTime: 208895
Countdown: 0
SampleSet: Normal
StackLeniency: 0.3
Mode: 0
LetterboxInBreaks: 1
WidescreenStoryboard: 1

[Editor]
Bookmarks: 124571,146625,167382,188138,203706,228355
DistanceSpacing: 0.8
BeatDivisor: 4
GridSize: 4

[Metadata]
Title:Kunoichi demo Koi ga Shitai
TitleUnicode:クノイチでも恋がしたい
Artist:mikitoP
ArtistUnicode:みきとP
Creator:wyvernknight
Version:NrW
Source:
Tags:vocaloid mikitoP mikito kunoichi demo koi ga shitai but I want to love hatsune miku kagamine rin SSGAvalon
BeatmapID:287519
BeatmapSetID:110241

[Difficulty]
HPDrainRate:6
CircleSize:4
OverallDifficulty:7
ApproachRate:9
SliderMultiplier:2
SliderTickRate:2

[Events]
//Background and Video events
0,0,"123.jpg",0,0
//Break Periods
2,146625,203106
//Storyboard Layer 0 (Background)
//Storyboard Layer 1 (Fail)
//Storyboard Layer 2 (Pass)
//Storyboard Layer 3 (Foreground)
//Storyboard Sound Samples
//Background Colour Transformations
3,100,163,162,255

[TimingPoints]
1328,324.324324324324,4,1,0,60,1,0
124571,-83.3333333333333,4,1,0,60,0,1
134949,-62.5,4,1,0,60,0,1
137544,-83.3333333333333,4,1,0,60,0,1
146625,-83.3333333333333,4,1,0,60,0,0
203706,-83.3333333333333,4,1,0,60,0,1
206300,-62.5,4,1,0,60,0,1
207922,-83.3333333333333,4,1,0,60,0,1
214084,-62.5,4,1,0,60,0,1
216679,-83.3333333333333,4,1,0,60,0,1
228355,-83.3333333333333,4,1,0,60,0,0

[Colours]
Combo1 : 55,55,136
Combo2 : 140,57,140
Combo3 : 202,128,53

[HitObjects]
144,228,124571,1,0,0:0:0:0:
144,228,124652,1,0,0:0:0:0:
144,228,124733,1,0,0:0:0:0:
292,124,124895,1,0,0:0:0:0:
416,300,125057,2,0,P|426:270|431:242,1,59.9999981689454
228,276,125219,2,0,P|161:324|73:295,1,179.999994506836
60,212,125544,2,0,B|64:199|64:199|49:203|49:203|53:189|53:189|24:156|33:112,1,119.999996337891,0|0,0:0|0:0,0:0:0:0:
220,16,125868,5,0,0:0:0:0:
400,308,126030,1,0,0:0:0:0:
308,112,126192,1,0,0:0:0:0:
212,284,126355,1,0,0:0:0:0:
324,100,126517,1,0,0:0:0:0:
344,84,126841,1,0,0:0:0:0:
192,296,127003,1,0,0:0:0:0:
384,320,127165,2,0,P|437:251|449:159,1,179.999994506836
364,192,127490,2,0,P|334:187|306:176,1,59.9999981689454
232,28,127652,1,0,0:0:0:0:
76,220,127814,1,0,0:0:0:0:
364,324,127976,1,0,0:0:0:0:
344,328,128138,5,0,0:0:0:0:
172,308,128300,1,0,0:0:0:0:
224,132,128463,2,0,P|295:83|377:112,1,179.999994506836
444,164,128787,2,0,B|460:204|436:244|436:244|444:284,1,119.999996337891
256,268,129111,2,0,P|184:219|102:248,1,179.999994506836
179,248,129436,2,0,P|178:278|172:308,1,59.9999981689454
103,156,129598,2,0,P|96:186|96:216,1,59.9999981689454
288,188,129760,5,0,0:0:0:0:
116,60,129922,1,0,0:0:0:0:
116,60,130003,1,0,0:0:0:0:
116,60,130084,1,0,0:0:0:0:
416,60,130246,1,0,0:0:0:0:
268,184,130409,1,0,0:0:0:0:
436,56,130571,2,0,P|386:26|320:24,1,119.999996337891
116,172,130895,1,0,0:0:0:0:
320,336,131057,1,0,0:0:0:0:
132,192,131219,1,0,0:0:0:0:
308,16,131382,1,0,0:0:0:0:
148,212,131544,1,0,0:0:0:0:
348,241,131706,1,0,0:0:0:0:
392,259,131787,1,0,0:0:0:0:
440,256,131868,1,0,0:0:0:0:
482,234,131949,1,0,0:0:0:0:
510,197,132030,1,0,0:0:0:0:
304,348,132192,1,0,0:0:0:0:
96,284,132355,1,0,0:0:0:0:
88,264,132517,5,0,0:0:0:0:
168,64,132679,1,0,0:0:0:0:
328,248,132841,1,0,0:0:0:0:
316,96,133003,1,0,0:0:0:0:
296,88,133165,5,0,0:0:0:0:
288,360,133327,1,0,0:0:0:0:
164,232,133490,1,0,0:0:0:0:
308,256,133652,1,0,0:0:0:0:
284,264,133814,5,0,0:0:0:0:
104,140,133976,2,0,B|127:150|127:150|123:134|123:134|198:168|246:101,1,179.999994506836
264,172,134300,2,0,P|320:237|407:231,1,179.999994506836
349,188,134625,1,0,0:0:0:0:
300,192,134706,1,0,0:0:0:0:
256,216,134787,1,0,0:0:0:0:
236,260,134868,1,0,0:0:0:0:
208,272,134949,6,0,P|133:291|61:254,1,160
92,164,135192,1,0,0:0:0:0:
92,164,135273,1,0,0:0:0:0:
56,40,135436,1,0,0:0:0:0:
244,352,135598,1,0,0:0:0:0:
328,64,135760,2,0,P|402:44|474:81,2,160
184,276,136246,5,0,0:0:0:0:
392,144,136409,1,0,0:0:0:0:
124,128,136571,1,0,0:0:0:0:
340,312,136733,1,0,0:0:0:0:
356,308,136895,5,0,0:0:0:0:
312,60,137057,1,0,0:0:0:0:
44,248,137219,1,0,0:0:0:0:
60,260,137382,5,0,0:0:0:0:
212,164,137544,2,0,B|232:144|232:144|220:148|220:148|244:104|220:72,1,119.999996337891
96,176,137868,1,0,0:0:0:0:
160,272,138030,1,0,0:0:0:0:
275,255,138192,2,0,P|331:238|396:253,1,119.999996337891
468,372,138517,5,0,0:0:0:0:
180,264,138679,1,0,0:0:0:0:
292,64,138841,2,0,P|215:103|137:65,1,179.999994506836
72,96,139165,2,0,B|92:132|92:132|96:124|96:124|88:156|100:192,1,119.999996337891
280,168,139490,2,0,P|343:226|428:209,1,179.999994506836
448,280,139814,2,0,P|477:280|507:287,1,59.9999981689454
355,357,139976,2,0,P|384:362|414:363,1,59.9999981689454
180,136,140138,6,0,P|173:165|172:195,1,59.9999981689454
172,244,140300,1,0,0:0:0:0:
256,364,140463,1,0,0:0:0:0:
308,56,140625,1,0,0:0:0:0:
336,252,140787,6,0,P|365:258|395:259,1,59.9999981689454
444,260,140949,1,0,0:0:0:0:
200,132,141111,1,0,0:0:0:0:
100,324,141273,1,0,0:0:0:0:
268,348,141436,5,0,0:0:0:0:
160,232,141598,1,0,0:0:0:0:
280,332,141760,1,0,0:0:0:0:
220,128,141922,1,0,0:0:0:0:
452,300,142084,1,0,0:0:0:0:
456,324,142409,5,0,0:0:0:0:
316,72,142571,1,0,0:0:0:0:
124,140,142733,1,0,0:0:0:0:
104,152,142895,5,0,0:0:0:0:
292,316,143057,1,0,0:0:0:0:
240,124,143219,1,0,0:0:0:0:
112,340,143382,1,0,0:0:0:0:
132,348,143544,5,0,0:0:0:0:
460,348,143706,1,0,0:0:0:0:
260,120,143868,1,0,0:0:0:0:
280,116,144030,5,0,0:0:0:0:
0,344,144355,1,0,0:0:0:0:
360,332,144679,1,0,0:0:0:0:
368,312,144841,5,0,0:0:0:0:
188,304,145003,1,0,0:0:0:0:
152,128,145165,1,0,0:0:0:0:
132,120,145327,5,0,0:0:0:0:
472,0,145652,1,0,0:0:0:0:
480,360,145976,1,0,0:0:0:0:
420,52,203706,5,0,0:0:0:0:
384,208,203868,2,0,P|357:198|326:192,1,59.9999981689454
223,251,204030,2,0,P|229:281|239:309,1,59.9999981689454
100,168,204192,5,0,0:0:0:0:
160,36,204355,1,0,0:0:0:0:
238,308,204517,2,0,P|228:280|223:251,1,59.9999981689454
136,376,204679,1,0,0:0:0:0:
348,336,204841,1,0,0:0:0:0:
120,384,205003,2,0,P|75:309|75:217,1,179.999994506836
144,236,205327,2,0,B|167:246|167:246|163:230|163:230|238:264|286:197,1,179.999994506836
256,196,205652,1,0,0:0:0:0:
260,173,205733,1,0,0:0:0:0:
264,149,205814,1,0,0:0:0:0:
268,125,205895,1,0,0:0:0:0:
248,105,205976,1,0,0:0:0:0:
296,117,206057,1,0,0:0:0:0:
344,129,206138,2,0,P|378:134|408:145,1,59.9999981689454
388,285,206300,6,0,P|311:276|245:323,1,160
92,136,206625,1,0,0:0:0:0:
268,212,206787,1,0,0:0:0:0:
376,0,206949,2,0,B|386:9|386:9|371:13|371:13|382:23|382:23|360:82|410:127,1,160
472,308,207273,5,0,0:0:0:0:
332,125,207436,1,0,0:0:0:0:
176,236,207598,1,0,0:0:0:0:
138,265,207679,1,0,0:0:0:0:
91,274,207760,1,0,0:0:0:0:
44,264,207841,1,0,0:0:0:0:
8,236,207922,2,0,P|16:208|23:178,1,59.9999981689454
127,58,208084,2,0,P|118:86|112:116,1,59.9999981689454
320,116,208246,5,0,0:0:0:0:
212,304,208409,1,0,0:0:0:0:
140,48,208571,1,0,0:0:0:0:
224,316,208733,1,0,0:0:0:0:
400,192,208895,2,0,P|405:162|415:134,2,59.9999981689454
436,256,209138,1,0,0:0:0:0:
436,256,209219,2,0,B|444:262|444:262|429:264|429:264|437:271|437:271|448:355,1,119.999996337891
276,112,209544,5,0,0:0:0:0:
484,52,209706,1,0,0:0:0:0:
368,235,209868,2,0,P|319:269|259:264,1,119.999996337891
144,84,210192,1,0,0:0:0:0:
76,316,210355,1,0,0:0:0:0:
156,96,210517,1,0,0:0:0:0:
352,240,210679,1,0,0:0:0:0:
385,245,210760,1,0,0:0:0:0:
419,251,210841,1,0,0:0:0:0:
417,191,210922,1,0,0:0:0:0:
408,132,211003,2,0,P|379:141|333:162,1,59.9999981689454
88,180,211165,5,0,0:0:0:0:
256,368,211327,1,0,0:0:0:0:
256,248,211490,1,0,0:0:0:0:
252,232,211652,5,0,0:0:0:0:
88,328,211814,1,0,0:0:0:0:
232,124,211976,1,0,0:0:0:0:
364,248,212138,1,0,0:0:0:0:
376,256,212300,5,0,0:0:0:0:
352,40,212463,1,0,0:0:0:0:
248,216,212625,1,0,0:0:0:0:
244,200,212787,5,0,0:0:0:0:
148,80,212949,1,0,0:0:0:0:
260,348,213111,1,0,0:0:0:0:
260,348,213192,1,0,0:0:0:0:
260,348,213273,1,0,0:0:0:0:
260,348,213355,1,0,0:0:0:0:
265,352,213436,5,0,0:0:0:0:
289,296,213517,1,0,0:0:0:0:
280,236,213598,1,0,0:0:0:0:
249,184,213679,1,0,0:0:0:0:
196,152,213760,1,0,0:0:0:0:
136,140,213841,1,0,0:0:0:0:
76,152,213922,1,0,0:0:0:0:
88,176,214003,1,0,0:0:0:0:
148,160,214084,6,0,P|225:169|291:122,1,160
304,208,214327,1,0,0:0:0:0:
304,208,214409,2,0,B|314:211|314:211|300:218|300:218|311:221|311:221|333:260,2,80
452,120,214733,1,0,0:0:0:0:
240,300,214895,2,0,P|171:262|93:281,2,160
156,120,215382,5,0,0:0:0:0:
252,286,215544,1,0,0:0:0:0:
418,190,215706,1,0,0:0:0:0:
322,23,215868,1,0,0:0:0:0:
312,36,216030,5,0,0:0:0:0:
64,200,216192,1,0,0:0:0:0:
240,304,216355,1,0,0:0:0:0:
228,320,216517,5,0,0:0:0:0:
404,180,216679,2,0,B|396:152|396:152|432:120|420:68,1,119.999996337891
480,244,217003,5,0,0:0:0:0:
380,276,217165,1,0,0:0:0:0:
308,196,217327,2,0,P|248:196|192:227,1,119.999996337891
32,80,217652,1,0,0:0:0:0:
184,240,217814,1,0,0:0:0:0:
42,231,217976,5,0,0:0:0:0:
22,188,218057,1,0,0:0:0:0:
14,141,218138,1,0,0:0:0:0:
20,92,218219,1,0,0:0:0:0:
44,160,218300,6,0,P|75:77|157:46,1,179.999994506836
116,92,218625,5,0,0:0:0:0:
124,140,218706,1,0,0:0:0:0:
136,188,218787,1,0,0:0:0:0:
148,236,218868,1,0,0:0:0:0:
168,224,218949,6,0,B|172:237|172:237|157:233|157:233|161:247|161:247|141:324,1,119.999996337891,0|0,0:0|0:0,0:0:0:0:
344,168,219273,6,0,L|284:175,1,59.9999981689454
236,184,219436,1,0,0:0:0:0:
128,332,219598,1,0,0:0:0:0:
400,240,219760,1,0,0:0:0:0:
288,308,219922,1,0,0:0:0:0:
316,56,220084,2,0,L|323:116,1,59.9999981689454
332,164,220247,1,0,0:0:0:0:
512,340,220409,1,0,0:0:0:0:
280,292,220571,5,0,0:0:0:0:
344,152,220733,1,0,0:0:0:0:
116,320,220895,1,0,0:0:0:0:
356,140,221057,1,0,0:0:0:0:
228,172,221219,2,0,P|201:118|214:60,1,119.999996337891
368,128,221544,5,0,0:0:0:0:
272,276,221706,1,0,0:0:0:0:
308,44,221868,1,0,0:0:0:0:
296,32,222030,5,0,0:0:0:0:
112,304,222192,1,0,0:0:0:0:
240,184,222355,1,0,0:0:0:0:
256,196,222517,5,0,0:0:0:0:
260,200,222598,1,0,0:0:0:0:
264,204,222679,1,0,0:0:0:0:
496,348,222841,1,0,0:0:0:0:
260,292,223003,1,0,0:0:0:0:
248,308,223165,5,0,0:0:0:0:
440,0,223490,1,0,0:0:0:0:
80,20,223814,1,0,0:0:0:0:
220,132,223976,2,0,P|215:161|212:191,4,59.9999981689454
20,212,224463,5,0,0:0:0:0:
364,320,224787,1,0,0:0:0:0:
200,0,225111,1,0,0:0:0:0:
284,200,225273,2,0,P|315:202|343:207,4,59.9999981689454
452,136,225760,5,0,0:0:0:0:
144,328,226084,1,0,0:0:0:0:
316,8,226409,1,0,0:0:0:0:
380,240,226733,5,0,0:0:0:0:
228,336,226895,1,0,0:0:0:0:
120,192,227057,1,0,0:0:0:0:
140,188,227219,5,0,0:0:0:0:
124,336,227382,1,0,0:0:0:0:
296,104,227544,1,0,0:0:0:0:
244,240,227706,1,0,0:0:0:0:
248,260,227868,5,0,0:0:0:0:
400,252,228030,1,0,0:0:0:0:
180,68,228192,1,0,0:0:0:0:
104,344,228355,1,0,0:0:0:0:
