osu file format v12

[General]
AudioFilename: PV.mp3
AudioLeadIn: 0
PreviewTime: 208895
Countdown: 0
SampleSet: Normal
StackLeniency: 0.7
Mode: 0
LetterboxInBreaks: 1
WidescreenStoryboard: 1

[Editor]
Bookmarks: 193673
DistanceSpacing: 1
BeatDivisor: 1
GridSize: 4

[Metadata]
Title:Kunoichi demo Koi ga Shitai
TitleUnicode:クノイチでも恋がしたい
Artist:mikitoP
ArtistUnicode:みきとP
Creator:wyvernknight
Version:Normal
Source:
Tags:vocaloid mikitoP mikito kunoichi demo koi ga shitai but I want to love hatsune miku kagamine rin
BeatmapID:287436
BeatmapSetID:110241

[Difficulty]
HPDrainRate:3
CircleSize:3
OverallDifficulty:3
ApproachRate:4
SliderMultiplier:1
SliderTickRate:1

[Events]
//Background and Video events
0,0,"123.jpg",0,0
//Break Periods
2,144879,166062
2,188338,189089
2,193527,199791
//Storyboard Layer 0 (Background)
//Storyboard Layer 1 (Fail)
//Storyboard Layer 2 (Pass)
//Storyboard Layer 3 (Foreground)
//Storyboard Sound Samples
//Background Colour Transformations
3,100,163,162,255

[TimingPoints]
1328,324.324324324324,4,1,0,100,1,0
23382,-100,4,2,0,100,0,0
52571,-100,4,1,0,100,0,0
57760,-100,4,1,0,100,0,1
78192,-100,4,1,0,100,0,0
90192,-100,4,2,0,100,0,0
119382,-100,4,1,0,100,0,0
124571,-100,4,1,0,100,0,1
144679,-100,4,1,0,100,0,0
203382,-100,4,1,0,100,0,1
229003,-100,4,1,0,100,0,0

[Colours]
Combo1 : 255,175,55
Combo2 : 255,51,255
Combo3 : 0,128,255
Combo4 : 251,55,55

[HitObjects]
120,144,11382,1,4,0:0:0:0:
208,96,11706,2,0,P|260:72|320:64,2,100
120,144,12679,1,0,0:0:0:0:
160,236,13003,2,0,P|192:308|224:332,1,100
304,300,13652,1,0,0:0:0:0:
360,216,13976,1,0,0:0:0:0:
432,284,14300,5,4,0:0:0:0:
448,184,14625,2,0,L|456:128,2,50
348,200,15273,1,0,0:0:0:0:
344,100,15598,2,0,P|368:64|424:32,2,100
280,180,16571,1,0,0:0:0:0:
284,280,16895,6,0,P|224:288|176:256,1,100,4|0,0:0|0:0,0:0:0:0:
120,212,17544,1,0,0:0:0:0:
200,168,17868,1,0,0:0:0:0:
164,84,18192,6,0,P|224:72|264:88,1,100
336,128,18841,1,0,0:0:0:0:
388,212,19165,1,0,0:0:0:0:
356,308,19490,2,0,P|240:296|156:236,1,200,4|0,0:0|0:0,0:0:0:0:
88,192,20463,6,0,L|52:156,2,50
156,120,21111,1,0,0:0:0:0:
244,156,21436,2,0,L|272:108,2,50
176,228,22084,1,0,0:0:0:0:
408,284,22733,6,0,L|444:328,2,50
420,184,23382,2,0,P|404:136|352:92,1,100,4|0,0:0|0:0,0:0:0:0:
304,176,24030,1,0,0:0:0:0:
204,192,24355,2,0,P|128:136|116:136,2,100
156,280,25327,5,0,0:0:0:0:
244,312,25652,2,0,P|320:272|332:248,1,100,0|4,0:0|0:0,0:0:0:0:
344,164,26300,1,0,0:0:0:0:
344,164,26625,2,0,P|324:104|284:76,2,100
332,264,27598,1,0,0:0:0:0:
420,228,27922,2,0,L|472:192,2,50
400,328,28571,1,4,0:0:0:0:
300,344,28895,6,0,P|228:304|220:280,1,100
248,196,29544,2,0,L|308:172,2,50
168,136,30192,1,0,0:0:0:0:
80,188,30517,2,0,P|148:248|172:248,1,100
236,304,31165,6,0,L|336:248,1,100
408,204,31814,2,0,P|368:140|336:128,1,100
252,100,32463,2,0,L|212:148,2,50
276,196,33111,2,0,L|212:272,1,100
128,220,33760,6,0,L|40:136,1,100,4|0,0:0|0:0,0:0:0:0:
124,76,34409,2,0,L|208:156,1,100
296,132,35057,2,0,L|372:56,1,100
432,136,35706,2,0,L|352:212,1,100
316,276,36355,1,4,0:0:0:0:
316,276,36679,2,0,L|244:276,2,50
284,180,37327,2,0,L|352:180,2,50
216,116,37976,2,0,P|188:92|112:72,1,100
132,172,38625,6,0,L|52:232,1,100,0|4,0:0|0:0,0:0:0:0:
76,328,39273,1,0,0:0:0:0:
168,284,39598,2,0,L|204:348,2,50
252,228,40246,2,0,P|308:188|324:148,2,100
332,288,41219,5,0,0:0:0:0:
416,232,41544,1,0,0:0:0:0:
432,136,41868,2,0,L|452:76,2,50
332,140,42517,2,0,L|300:84,2,50,0|0|0,0:0|0:0|0:0,0:0:0:0:
284,228,43165,1,0,0:0:0:0:
188,256,43490,2,0,P|202:302|243:329,1,100
344,320,44138,2,0,L|388:280,1,50
320,140,44787,6,0,P|280:96|144:104,1,200,4|0,0:0|0:0,0:0:0:0:
84,164,45760,1,0,0:0:0:0:
112,248,46084,2,0,P|184:284|300:248,1,200
332,172,47057,1,0,0:0:0:0:
412,128,47382,2,0,P|436:180|400:324,1,200,4|0,0:0|0:0,0:0:0:0:
316,320,48355,1,0,0:0:0:0:
232,284,48679,2,0,P|252:188|340:136,1,200
332,276,49976,6,0,P|196:308|132:280,1,200,4|0,0:0|0:0,0:0:0:0:
68,240,50949,1,0,0:0:0:0:
116,164,51273,2,0,P|196:104|308:104,1,200
360,160,52246,1,0,0:0:0:0:
288,212,52571,6,4,L|232:248,1,50,0|4,0:0|0:0,0:0:0:0:
136,164,53219,2,4,L|112:112,1,50
244,72,53868,2,4,L|296:96,2,50
176,128,54517,1,4,0:0:0:0:
160,216,54841,1,4,0:0:0:0:
220,284,55165,2,12,L|176:328,2,50
268,196,55814,1,4,0:0:0:0:
316,284,56138,1,4,0:0:0:0:
384,344,56463,6,12,P|448:312|472:276,1,100
476,192,57111,2,12,P|392:220|380:232,1,100
292,256,57760,6,0,L|232:280,2,50,4|0|4,0:0|0:0|0:0,0:0:0:0:
280,156,58409,2,0,L|336:136,2,50,4|0|4,0:0|0:0|0:0,0:0:0:0:
216,80,59057,2,0,L|176:44,2,50,4|0|4,0:0|0:0|0:0,0:0:0:0:
196,176,59706,1,8,0:0:0:0:
268,247,60030,6,0,P|236:285|190:303,1,100
92,288,60679,2,0,L|80:176,1,100
104,92,61327,1,8,0:0:0:0:
188,144,61652,2,4,L|276:204,1,100
360,244,62300,1,8,0:0:0:0:
384,148,62625,1,12,0:0:0:0:
320,72,62949,6,0,P|260:64|216:88,1,100
172,164,63598,2,4,L|280:192,1,100
264,288,64246,2,4,L|316:332,2,50
336,220,64895,1,0,0:0:0:0:
300,128,65219,6,4,P|232:116|200:128,1,100
148,208,65868,2,4,L|220:296,1,100
300,336,66517,1,0,0:0:0:0:
356,252,66841,1,0,0:0:0:0:
300,168,67165,1,0,0:0:0:0:
236,92,67490,2,4,L|200:48,2,50
332,72,68138,6,4,P|385:63|429:103,1,100,4|12,0:0|0:0,0:0:0:0:
436,188,68787,1,0,0:0:0:0:
356,248,69111,1,0,0:0:0:0:
272,184,69436,2,12,P|240:244|232:284,1,100,4|12,0:0|0:0,0:0:0:0:
152,332,70084,1,0,0:0:0:0:
68,280,70409,6,12,P|120:236|168:232,1,100,4|12,0:0|0:0,0:0:0:0:
88,152,71057,1,8,0:0:0:0:
172,100,71382,2,12,P|216:156|220:192,1,100,8|12,0:0|0:0,0:0:0:0:
304,128,72030,1,0,0:0:0:0:
388,184,72355,1,8,0:0:0:0:
372,284,72679,1,0,0:0:0:0:
284,328,73003,1,8,0:0:0:0:
204,268,73327,6,4,P|138:290|98:278,1,100,4|4,0:0|0:0,0:0:0:0:
56,200,73976,2,4,L|164:200,1,100,4|4,0:0|0:0,0:0:0:0:
252,168,74625,1,0,0:0:0:0:
176,104,74949,1,0,0:0:0:0:
268,68,75273,1,0,0:0:0:0:
356,116,75598,6,12,L|424:128,2,50
344,216,76246,2,12,L|368:272,2,50
260,160,76895,1,12,0:0:0:0:
180,220,77219,1,12,0:0:0:0:
208,316,77544,1,12,0:0:0:0:
308,324,77868,1,12,0:0:0:0:
432,168,78517,6,0,L|320:168,1,100
272,240,79165,1,0,0:0:0:0:
220,324,79490,1,0,0:0:0:0:
120,324,79814,2,0,P|48:292|32:264,1,100
120,212,80463,2,0,L|120:160,2,50
208,164,81111,1,0,0:0:0:0:
224,260,81436,6,0,L|288:228,2,50
160,340,82084,1,0,0:0:0:0:
260,344,82409,1,0,0:0:0:0:
336,280,82733,1,0,0:0:0:0:
364,184,83057,1,0,0:0:0:0:
288,116,83382,1,0,0:0:0:0:
244,196,83706,6,0,P|204:236|144:252,1,100
68,272,84355,1,0,0:0:0:0:
64,172,84679,1,0,0:0:0:0:
92,76,85003,2,0,P|140:104|160:148,1,100
176,240,85652,2,0,L|160:304,2,50
244,164,86300,1,0,0:0:0:0:
316,236,86625,6,0,L|328:292,2,50,0|0|0,0:0|0:0|0:0,0:0:0:0:
352,144,87273,1,0,0:0:0:0:
436,200,87598,6,0,P|468:144|464:96,1,100
388,48,88246,2,0,L|280:68,1,100
288,168,88895,1,0,0:0:0:0:
240,256,89219,1,0,0:0:0:0:
140,260,89544,1,0,0:0:0:0:
96,172,89868,1,0,0:0:0:0:
196,168,90192,6,0,P|224:104|256:80,1,100
348,80,90841,1,0,0:0:0:0:
368,164,91165,2,0,P|372:248|360:264,2,100
280,212,92138,2,0,P|249:172|206:148,1,100
108,148,92787,1,0,0:0:0:0:
88,248,93111,6,0,L|135:263,2,50
176,292,93760,2,0,L|168:352,2,50
276,292,94409,1,0,0:0:0:0:
376,288,94733,2,0,P|360:224|336:192,1,100
260,140,95382,1,0,0:0:0:0:
260,140,95706,6,0,P|284:80|328:80,1,100
400,124,96355,2,0,L|444:180,2,50
348,208,97003,2,0,L|376:268,2,50
252,244,97652,2,0,P|168:252|152:272,1,100
60,232,98300,2,0,L|68:128,1,100
160,96,98949,2,0,B|204:132|204:132|260:124,1,100
340,164,99598,6,0,L|400:148,2,50
344,264,100246,1,0,0:0:0:0:
244,252,100571,2,0,P|220:320|228:356,2,100
228,152,101544,2,0,L|168:168,1,50
84,196,102030,2,0,B|36:236|40:284|64:308|104:324,1,150
192,320,102841,5,0,0:0:0:0:
292,332,103165,2,0,L|352:336,2,50
360,256,103814,2,0,L|396:292,2,50
428,184,104463,2,0,L|420:116,2,50
332,160,105111,1,0,0:0:0:0:
232,168,105436,2,0,L|184:224,2,50
292,248,106084,6,0,L|192:308,1,100
120,248,106733,1,0,0:0:0:0:
136,148,107057,2,0,L|40:76,2,100
212,212,108030,1,0,0:0:0:0:
260,124,108355,2,0,P|320:80|352:80,2,100
200,204,109327,2,0,P|308:212|456:332,1,300
408,88,111598,5,0,0:0:0:0:
320,136,111922,1,0,0:0:0:0:
228,172,112246,1,0,0:0:0:0:
160,244,112571,2,0,P|164:284|204:332,1,100
292,288,113219,2,0,L|336:320,2,50
360,216,113868,5,0,0:0:0:0:
308,128,114192,1,0,0:0:0:0:
212,104,114517,1,0,0:0:0:0:
128,160,114841,1,0,0:0:0:0:
144,260,115165,2,0,P|188:296|232:284,1,100
320,324,115814,2,0,L|360:284,2,50
280,128,116787,5,0,0:0:0:0:
180,132,117111,1,0,0:0:0:0:
228,48,117436,1,0,0:0:0:0:
328,48,117760,2,0,P|364:104|368:160,1,100
364,236,118409,2,0,L|424:256,2,50
264,260,119057,5,0,0:0:0:0:
336,328,119382,1,4,0:0:0:0:
300,140,120030,5,4,0:0:0:0:
108,148,120679,5,12,0:0:0:0:
136,244,121003,1,4,0:0:0:0:
232,216,121327,1,4,0:0:0:0:
212,120,121652,1,4,0:0:0:0:
312,128,121976,6,4,L|376:144,2,50
308,228,122625,2,4,L|316:280,2,50
220,276,123273,5,12,0:0:0:0:
136,220,123598,1,12,0:0:0:0:
196,140,123922,1,12,0:0:0:0:
108,96,124246,1,12,0:0:0:0:
196,48,124571,6,8,L|244:28,2,50
280,100,125219,2,8,L|336:80,2,50
348,172,125868,2,8,L|388:208,2,50
248,192,126517,1,0,0:0:0:0:
272,288,126841,6,0,P|212:340|180:344,1,100,8|0,0:0|0:0,0:0:0:0:
100,304,127490,2,0,P|68:272|72:208,1,100,8|0,0:0|0:0,0:0:0:0:
80,124,128138,1,0,0:0:0:0:
172,168,128463,2,0,L|260:228,1,100
344,244,129111,1,8,0:0:0:0:
372,160,129436,1,8,0:0:0:0:
348,64,129760,6,0,L|260:140,1,100,8|0,0:0|0:0,0:0:0:0:
176,104,130409,2,0,L|68:76,1,100,8|0,0:0|0:0,0:0:0:0:
84,180,131057,2,0,L|32:224,2,50
172,200,131706,1,0,0:0:0:0:
124,288,132030,6,0,P|192:300|224:288,1,100
276,208,132679,2,0,L|348:296,1,100
424,340,133327,1,0,0:0:0:0:
456,244,133652,1,0,0:0:0:0:
364,204,133976,1,0,0:0:0:0:
356,104,134300,2,4,L|392:60,2,50
272,156,134949,6,12,P|219:147|175:187,1,100
100,116,135598,1,0,0:0:0:0:
96,216,135922,1,0,0:0:0:0:
180,272,136246,2,12,P|240:304|280:312,1,100
372,312,136895,1,0,0:0:0:0:
312,232,137219,6,12,P|260:188|212:184,1,100,12|12,0:0|0:0,0:0:0:0:
136,152,137868,1,8,0:0:0:0:
212,88,138192,2,8,P|268:44|304:40,1,100
380,92,138841,1,0,0:0:0:0:
296,148,139165,1,8,0:0:0:0:
388,188,139490,1,0,0:0:0:0:
308,248,139814,1,8,0:0:0:0:
216,288,140138,6,4,P|150:310|110:298,1,100
88,212,140787,2,4,L|196:212,1,100
276,168,141436,1,0,0:0:0:0:
188,120,141760,1,0,0:0:0:0:
276,68,142084,1,0,0:0:0:0:
364,116,142409,6,12,L|432:128,2,50
368,216,143057,2,12,L|392:272,2,50
292,280,143706,1,12,0:0:0:0:
192,268,144030,1,12,0:0:0:0:
156,176,144355,1,12,0:0:0:0:
60,144,144679,1,12,0:0:0:0:
264,232,167382,6,0,L|220:264,2,50
316,148,168030,2,0,P|228:140|200:156,1,100
144,80,168679,1,0,0:0:0:0:
112,176,169003,2,0,L|88:232,2,50
184,248,169652,1,0,0:0:0:0:
276,284,169976,6,0,P|344:304|384:288,1,100
436,220,170625,2,0,L|336:192,1,100
320,96,171273,2,0,L|368:112,2,50
252,168,171922,2,0,L|188:200,2,50
224,72,172571,6,0,P|164:32|124:48,1,100
100,128,173219,1,0,0:0:0:0:
144,220,173544,2,0,L|156:272,2,50
240,248,174192,2,0,L|308:268,2,50
212,344,174841,1,0,0:0:0:0:
112,336,175165,6,0,P|80:284|88:248,1,100
108,152,175814,2,0,L|64:116,1,50
168,96,176300,2,0,L|224:60,2,50
240,168,176949,2,0,L|272:220,1,50
320,296,177436,1,0,0:0:0:0:
380,216,177760,6,0,L|336:160,2,50
452,288,178409,2,0,L|420:344,2,50
460,188,179057,2,0,P|424:128|384:116,1,100
296,112,179706,1,0,0:0:0:0:
272,208,180030,6,0,P|272:248|292:272,2,50
172,192,180679,1,0,0:0:0:0:
192,96,181003,2,0,L|136:76,2,50
96,152,181652,2,0,L|56:212,2,50
128,248,182300,2,0,P|188:308|208:300,1,100
288,300,182949,5,4,0:0:0:0:
364,232,183273,1,4,0:0:0:0:
356,132,183598,5,4,0:0:0:0:
268,88,183922,1,4,0:0:0:0:
264,188,184246,6,0,L|204:224,2,50
184,128,184895,1,4,0:0:0:0:
128,212,185219,1,4,0:0:0:0:
212,268,185544,2,0,P|269:330|377:319,1,200
384,220,186517,5,0,0:0:0:0:
284,224,186841,1,0,0:0:0:0:
328,136,187165,1,0,0:0:0:0:
228,140,187490,1,0,0:0:0:0:
272,52,187814,1,0,0:0:0:0:
172,52,188138,1,0,0:0:0:0:
396,284,190409,6,0,L|288:252,1,100
204,228,191057,1,0,0:0:0:0:
268,148,191382,1,0,0:0:0:0:
168,132,191706,1,0,0:0:0:0:
104,208,192030,2,0,P|108:292|224:344,1,200
376,256,193327,5,4,0:0:0:0:
256,192,201111,12,0,203382,0:0:0:0:
252,212,203706,6,0,P|292:164|344:136,1,100
416,180,204355,2,0,L|352:268,1,100
296,340,205003,1,4,0:0:0:0:
260,248,205327,1,4,0:0:0:0:
232,152,205652,1,4,0:0:0:0:
168,228,205976,6,0,L|136:284,2,50
148,132,206625,2,0,L|104:92,2,50
80,196,207273,2,0,L|44:260,2,50
140,276,207922,2,0,P|184:336|220:340,1,100
304,328,208571,1,0,0:0:0:0:
380,260,208895,6,0,L|396:212,2,50
312,184,209544,2,0,L|292:132,2,50
212,164,210192,2,0,P|148:188|128:224,1,100
224,256,210841,1,0,0:0:0:0:
320,284,211165,6,0,L|312:168,1,100
348,92,211814,2,0,L|448:160,1,100
400,244,212463,1,4,0:0:0:0:
368,340,212787,1,4,0:0:0:0:
300,268,213111,1,4,0:0:0:0:
200,280,213436,2,4,L|184:332,2,50
236,168,214084,5,4,0:0:0:0:
336,100,214409,1,4,0:0:0:0:
224,56,214733,2,12,P|140:64|116:84,1,100
72,176,215382,2,0,L|176:228,1,100
252,296,216030,5,12,0:0:0:0:
296,184,216355,1,4,0:0:0:0:
388,260,216679,1,12,0:0:0:0:
412,144,217003,2,8,P|380:96|324:64,1,100
228,88,217652,2,0,L|184:128,2,50
116,48,218300,1,8,0:0:0:0:
64,156,218625,2,0,L|100:260,1,100,8|8,0:0|0:0,0:0:0:0:
216,244,219273,6,4,L|188:200,2,50
328,284,219922,2,4,L|284:324,2,50
328,164,220571,2,0,P|408:176|424:188,1,100
420,304,221219,1,0,0:0:0:0:
304,268,221544,6,0,P|220:292|200:308,1,100
96,328,222192,1,0,0:0:0:0:
144,220,222517,2,0,P|196:176|216:128,1,100
276,48,223165,5,12,0:0:0:0:
384,104,223490,1,12,0:0:0:0:
388,224,223814,1,12,0:0:0:0:
292,152,224138,6,4,L|184:172,1,100,4|12,0:0|0:0,0:0:0:0:
116,80,224787,1,12,0:0:0:0:
84,196,225111,1,12,0:0:0:0:
184,264,225436,1,4,0:0:0:0:
280,336,225760,5,12,0:0:0:0:
372,256,226084,1,12,0:0:0:0:
336,140,226409,1,12,0:0:0:0:
272,240,226733,6,0,L|196:160,1,100
92,120,227382,1,0,0:0:0:0:
200,68,227706,2,0,L|296:124,1,100
412,116,228355,5,12,0:0:0:0:
392,232,228679,5,12,0:0:0:0:
276,268,229003,5,12,0:0:0:0:
256,192,229652,12,4,230949,0:0:0:0:
