osu file format v5

[General]
AudioFilename: 09- Kibun Joujou.mp3
AudioLeadIn: 0
PreviewTime: 45077
Countdown: 1
SampleSet: Normal
EditorBookmarks: 19159,34279,45318,61158,72918,115396,126676,159555

[Metadata]
Title:Kibun Joujou
Artist:mihimaru GT
Creator:Sinistro
Version:Hard

[Difficulty]
HPDrainRate:6
CircleSize:5
OverallDifficulty:6
SliderMultiplier:2
SliderTickRate:2

[Events]
//Background and Video events
0,0,"ookami gorou.jpg"
//Break Periods
2,34479,44148
2,61358,71868
2,115117,125866
//Storyboard Layer 0 (Background)
//Storyboard Layer 1 (Failing)
//Storyboard Layer 2 (Passing)
//Storyboard Layer 3 (Foreground)
//Storyboard Sound Samples
//Background Colour Transformations
3,100,163,162,255

[TimingPoints]
3800,479.986852528358,4,1,0,100

[Colours]
Combo1 : 250,5,5
Combo2 : 244,147,0
Combo3 : 5,239,5
Combo4 : 5,5,239

[HitObjects]
480,208,19159,1,2
432,288,19399,1,0
384,208,19639,1,2
336,288,19879,1,0
288,208,20119,1,2
336,128,20359,1,0
384,48,20599,1,2
432,128,20839,1,2
240,128,21319,5,0
144,128,21559,1,2
192,208,21799,1,0
144,288,22039,1,2
96,208,22279,1,0
0,208,22519,1,2
48,288,22759,1,4
240,288,23239,5,0
240,192,23479,2,0,B|241:157|246:117|255:90|291:45|336:32|368:32|400:32|439:42|467:62|493:79,1,350
491,176,24559,1,0
400,176,24799,1,0
304,176,25039,1,0
176,176,25399,5,0
224,96,25639,1,0
128,96,25879,1,2
176,16,26119,1,0
272,16,26359,1,2
320,96,26599,1,4
448,224,27079,5,2
352,224,27319,1,2
304,304,27559,1,0
256,224,27799,1,2
160,224,28039,1,0
208,144,28279,1,2
304,144,28519,1,0
400,144,28759,6,0,B|395:90|350:51|272:57,1,150
205,56,29359,1,0
112,144,29719,1,2
160,224,29959,1,0
208,144,30199,1,2
256,224,30439,1,4
448,224,30919,5,0
496,144,31159,1,2
400,144,31399,1,0
352,224,31639,1,2
304,144,31879,1,0
208,144,32119,1,2
256,224,32359,1,4
256,64,32839,5,0
352,64,33079,1,2
304,144,33319,1,0
352,224,33559,1,2
400,144,33799,1,0
496,144,34039,1,2
448,224,34279,1,4
432,48,45198,5,0
432,176,45558,1,0
432,272,45798,1,4
480,112,46278,5,0
384,112,46518,1,0
336,192,46758,1,0
288,112,46998,1,2
160,112,47358,1,2
32,112,47718,1,2
192,192,48198,5,0
288,192,48438,1,0
384,192,48678,1,0
336,112,48918,1,2
464,160,49278,1,2
512,288,49638,1,2
336,240,50118,5,0
240,240,50358,1,0
192,320,50598,1,0
144,240,50838,1,2
16,240,51198,1,0
64,112,51558,5,2
144,64,51798,1,2
144,160,52038,1,0
224,112,52278,1,0
224,208,52518,1,0
304,160,52758,1,0
384,320,53238,1,2
448,256,53478,1,4
480,80,53958,5,0
384,80,54198,1,0
336,160,54438,1,0
288,80,54678,1,2
160,80,55038,1,2
32,80,55398,1,2
192,176,55878,5,0
288,176,56118,1,0
384,176,56358,1,0
336,96,56598,1,2
464,144,56958,1,2
512,272,57318,1,2
512,96,57798,5,2
416,96,58038,2,2,B|400:128|379:139|341:123|336:80,1,100
336,192,58518,1,2
240,192,58758,2,2,B|224:224|203:235|165:219|160:176,1,100
96,128,59238,5,0
96,32,59478,1,2
176,80,59718,1,0
256,32,59958,1,2
256,128,60198,1,0
336,80,60438,1,2
512,128,60918,1,0
512,32,61158,1,4
256,272,72918,5,2
336,112,73398,1,2
160,112,73878,1,2
208,192,74118,1,0
112,192,74358,1,2
64,112,74598,1,2
80,240,74958,6,0,B|119:288|179:289|215:230,3,150
304,240,76278,1,4
480,176,76758,5,2
384,176,76997,1,0
432,96,77237,1,2
336,96,77477,1,0
288,176,77717,2,0,B|273:154|253:133|221:123|192:141|167:161|162:189,1,150
16,240,78437,5,0
112,240,78677,1,0
208,240,78917,1,0
256,160,79157,1,0
304,240,79397,1,0
256,320,79637,1,2
352,320,79877,1,0
400,240,80117,1,2
448,320,80357,1,4
496,144,80837,5,0
448,64,81077,1,0
400,144,81317,1,0
352,64,81557,2,0,B|285:53|242:94|243:157,1,150
240,224,82157,6,0,B|173:235|130:194|131:131,1,150
192,80,82757,1,0
240,0,82997,1,0
288,80,83237,1,4
384,240,83717,1,2
336,320,83957,1,2
288,240,84197,1,4
368,128,84557,6,2,B|401:179|465:179|494:122,1,150
432,64,85157,1,2
336,64,85397,2,2,B|303:13|239:13|210:70,1,150
224,160,86117,5,2
320,160,86357,1,2
288,336,86837,1,4
208,224,87197,1,2
336,272,87557,1,2
400,208,87797,1,4
496,208,88037,6,0,B|544:111|464:16,1,200
384,16,88757,2,0,B|338:6|295:30|288:48,1,100
240,112,89237,2,0,B|230:158|254:201|272:208,1,100
320,272,89717,1,2
224,272,89957,6,2,B|88:270|96:128,1,200
256,208,90917,2,2,B|404:231|467:179|496:80,1,300
224,128,92357,5,0
192,48,92597,2,0,B|232:34|268:43|295:86,1,100
320,144,93077,2,0,B|334:184|325:220|282:247,1,100
240,304,93557,1,2
176,240,93797,1,2
256,192,94277,12,4,97877
80,48,98957,5,0
80,176,99317,1,0
80,272,99557,1,4
32,112,100037,5,0
128,112,100277,1,0
176,192,100517,1,0
224,112,100757,1,2
352,112,101117,1,2
480,112,101477,1,2
320,192,101957,5,0
224,192,102197,1,0
128,192,102437,1,0
176,112,102677,1,2
48,160,103037,1,2
0,288,103397,1,2
176,240,103877,5,0
272,240,104117,1,0
320,320,104357,1,0
368,240,104597,1,2
496,240,104957,1,0
448,112,105317,5,2
368,64,105557,1,2
368,160,105797,1,0
288,112,106037,1,0
288,208,106277,1,0
208,160,106517,1,0
128,320,106997,1,2
64,256,107237,1,4
32,80,107717,5,0
128,80,107957,1,0
176,160,108197,1,0
224,80,108437,1,2
352,80,108797,1,2
480,80,109157,1,2
320,176,109637,5,0
224,176,109877,1,0
128,176,110117,1,0
176,96,110357,1,2
48,144,110717,1,2
0,272,111077,1,2
0,96,111557,5,2
96,96,111797,2,2,B|112:128|133:139|171:123|176:80,1,100
176,192,112277,1,2
272,192,112517,2,2,B|288:224|309:235|347:219|352:176,1,100
416,128,112997,5,0
416,32,113237,1,2
336,80,113477,1,0
256,32,113717,1,2
256,128,113957,1,0
176,80,114197,1,2
0,128,114677,1,0
0,32,114917,1,4
448,320,126916,5,0
432,224,127156,2,0,B|425:184|401:156|356:144,1,100
282,148,127636,2,0,B|250:148|210:167|186:191|170:232|169:266|176:307,1,200
111,354,128356,6,0,B|112:286|107:246|126:185|154:151,1,200
193,83,129076,2,0,B|219:49|257:40|295:49,1,100
368,64,129556,2,0,B|410:69|437:98|447:133,1,100
464,208,130036,2,0,B|484:244|486:273|473:315,1,100
304,240,130756,5,2
352,160,130996,1,2
256,160,131236,1,0
160,160,131476,2,0,B|93:179|57:235|59:284|67:332,1,200
4,318,132196,6,0,B|-10:224|39:153|78:131,1,200
143,88,132916,2,2,B|185:37|240:29|250:92|273:152|317:159|350:148|367:56|399:40|451:39|488:92,1,400
448,320,134596,5,0
432,224,134836,2,0,B|425:184|401:156|356:144,1,100
282,148,135316,2,0,B|250:148|210:167|186:191|170:232|169:266|176:307,1,200
111,354,136036,6,0,B|112:286|107:246|126:185|154:151,1,200
193,83,136756,2,0,B|219:49|257:40|295:49,1,100
368,64,137236,2,0,B|410:69|437:98|447:133,1,100
464,208,137716,2,0,B|484:244|486:273|473:315,1,100
256,192,138436,12,0,142036
256,112,143116,5,0
256,240,143476,1,0
256,336,143716,1,4
192,160,144196,5,0
96,160,144436,1,0
48,240,144676,1,0
0,160,144916,1,2
128,96,145276,1,2
128,224,145636,1,2
288,160,146116,5,0
384,160,146356,1,0
432,240,146596,1,0
480,160,146836,1,2
352,96,147196,1,2
352,224,147556,1,2
224,96,148036,5,0
176,176,148276,1,0
224,240,148516,1,0
272,176,148756,1,0
160,112,149116,1,0
272,32,149476,5,2
368,32,149716,1,2
320,112,149955,1,0
224,112,150195,1,2
176,192,150435,1,0
128,112,150675,1,0
272,224,151155,1,0
336,160,151395,1,4
192,160,151875,5,0
96,160,152115,1,0
48,240,152355,1,0
0,160,152595,1,2
128,96,152955,1,2
128,224,153315,1,2
288,160,153795,5,0
384,160,154035,1,0
432,240,154275,1,0
480,160,154515,1,2
352,96,154875,1,2
352,224,155235,1,2
256,192,155715,12,4,159075
