osu file format v6

[General]
AudioFilename: mican_ - Lotus Road.mp3
AudioLeadIn: 0
PreviewTime: 191526
Countdown: 0
SampleSet: Normal
StackLeniency: 0.5
Mode: 0
LetterboxInBreaks: 1

[Editor]
Bookmarks: 14954,42383,72383,83526,110954,137740,165812
DistanceSpacing: 2
BeatDivisor: 4
GridSize: 8

[Metadata]
Title:Lotus Road
Artist:mican*
Creator:leimiliya
Version:Hard
Source:Fragment Reactions
Tags:C76,mican,leimiliya,kioukiou

[Difficulty]
HPDrainRate:7
CircleSize:5
OverallDifficulty:7
SliderMultiplier:1.6
SliderTickRate:1

[Events]
//Background and Video events
0,0,"3216393.jpg"
//Break Periods
2,56341,68955
//Storyboard Layer 0 (Background)
//Storyboard Layer 1 (Fail)
//Storyboard Layer 2 (Pass)
//Storyboard Layer 3 (Foreground)
//Storyboard Sound Samples
//Background Colour Transformations
3,100,163,162,255

[TimingPoints]
1070,428.571428571429,4,1,1,100,1,0
15276,-100,4,1,1,75,0,0
28990,-100,4,2,1,100,0,0
42276,-100,4,2,1,60,0,0
52562,-100,4,1,1,80,0,0
69704,-100,4,1,1,50,0,0
69944,-100,4,2,1,64,0,0
70587,-100,4,1,1,50,0,0
70801,-100,4,2,1,65,0,0
71444,-100,4,1,1,50,0,0
71658,-100,4,2,1,65,0,0
72301,-100,4,1,1,50,0,0
72515,-100,4,2,1,65,0,0
73158,-100,4,1,1,50,0,0
73372,-100,4,2,1,65,0,0
74015,-100,4,1,1,50,0,0
74229,-100,4,2,1,66,0,0
74872,-100,4,1,1,50,0,0
75087,-100,4,2,1,65,0,0
75729,-100,4,1,1,50,0,0
75944,-100,4,2,1,66,0,0
76587,-100,4,1,1,50,0,0
76801,-100,4,2,1,65,0,0
77444,-100,4,1,1,50,0,0
77658,-100,4,2,1,65,0,0
78301,-100,4,1,1,50,0,0
78515,-100,4,2,1,65,0,0
79158,-100,4,1,1,50,0,0
79372,-100,4,2,1,65,0,0
80015,-100,4,1,1,50,0,0
80229,-100,4,2,1,66,0,0
80872,-100,4,1,1,50,0,0
81087,-100,4,2,1,66,0,0
81837,-100,4,2,1,80,0,0
83429,-100,4,2,1,76,0,0
110979,-200,4,2,1,70,0,0
113551,-200,4,1,1,70,0,0
113765,-100,4,2,1,70,0,0
114408,-200,4,2,1,70,0,0
116979,-200,4,1,1,70,0,0
117194,-200,4,2,1,70,0,0
120408,-200,4,1,1,70,0,0
120622,-100,4,2,1,70,0,0
121051,-200,4,2,1,70,0,0
123622,-200,4,1,1,70,0,0
124479,-200,4,2,1,70,0,0
127265,-200,4,1,1,70,0,0
127694,-200,4,2,1,70,0,0
130694,-100,4,1,1,70,0,0
131419,-100,4,1,1,100,0,0
131658,-100,4,2,1,80,0,0
132919,-100,4,1,1,100,0,0
133372,-200,4,2,1,80,0,0
134633,-50,4,1,1,100,0,0
135140,-50,4,2,1,100,0,0
135276,-50,4,2,1,100,0,0
135490,-50,4,1,1,100,0,0
135890,-100,4,2,1,100,0,0
136158,-100,4,1,1,100,0,0
137750,-100,4,1,1,84,0,1
138944,-200,4,1,1,85,0,1
140979,-100,4,1,1,85,0,1
151158,-100,4,1,1,85,0,0
151250,-100,4,1,1,85,0,1
152658,-200,4,1,1,85,0,1
154265,-100,4,1,1,85,0,1
158979,-200,4,1,1,75,0,0
159837,-100,4,1,1,85,0,0
161122,-200,4,1,1,95,0,0
162140,-50,4,1,1,95,0,0
162569,-100,4,2,1,94,0,0
162944,-50,4,1,1,95,0,0
163372,-100,4,2,1,94,0,0
163801,-100,4,1,1,100,0,0
165410,-100,4,1,1,100,0,1
165837,-100,4,1,1,100,0,0

[Colours]
Combo1 : 255,255,255
Combo2 : 255,130,190
Combo3 : 180,255,255

[HitObjects]
256,72,14998,1,4
104,128,15427,2,0,C|160:200,1,80
408,128,16069,2,0,C|352:200,1,80
256,312,16712,5,0
256,72,17141,1,0
305,220,17784,5,0
215,175,17998,1,0
168,265,18212,1,0
259,312,18427,1,0
408,256,18855,2,0,C|352:184,1,80
104,256,19498,2,0,C|160:184,1,80
408,192,20141,5,0
104,192,20570,1,0
256,80,20998,5,0
256,96,21105,1,0
256,112,21212,1,0
256,184,21427,5,0
176,288,21641,1,0
336,288,21855,1,0
480,192,22284,2,0,C|400:192,1,80
32,192,22927,2,0,C|128:192,1,80
352,104,23570,5,0
160,280,23998,1,0
128,104,24641,5,0
208,48,24855,1,0
304,48,25070,1,0
384,104,25284,1,0
384,312,25712,2,0,C|320:256,1,80
128,72,26355,2,0,C|189:125,1,80
384,288,26998,5,0
384,96,27427,1,0
224,192,27855,5,0
208,192,27962,1,0
192,192,28070,1,0
120,192,28284,5,0
224,104,28498,1,0
224,280,28712,1,0
464,192,29141,5,8
408,40,29570,1,0
392,56,29677,1,0
376,72,29784,1,0
256,192,29998,1,8
104,344,30427,5,0
120,328,30534,1,0
136,312,30641,1,0
256,192,30855,1,8
408,344,31284,5,0
392,328,31391,1,0
376,312,31498,1,0
256,192,31712,1,8
104,40,32141,5,0
120,56,32248,1,0
136,72,32355,1,0
256,192,32570,1,8
400,224,32998,5,0
408,192,33105,1,0
400,160,33212,1,0
256,192,33427,1,8
224,48,33855,5,0
256,40,33962,1,0
288,48,34070,1,0
256,192,34284,1,8
224,336,34712,5,0
256,344,34820,1,0
288,336,34927,1,0
256,192,35141,1,8
96,192,35570,5,2
200,192,35998,1,10
312,192,36427,1,2
416,192,36855,1,10
256,32,37284,5,2
256,136,37712,1,10
256,248,38141,1,2
256,352,38570,1,10
416,192,38998,5,2
360,272,39427,5,10
256,312,39855,5,2
136,272,40284,5,10
56,152,40712,5,2
184,56,41141,5,10
360,56,41570,5,2
496,192,41998,5,10
256,192,42427,5,0
352,152,42641,1,0
389,245,42855,1,10
296,284,43070,1,0
160,152,43498,5,0
123,245,43712,1,10
216,288,43927,1,0
256,192,44141,5,0
256,192,44569,1,10
256,192,44998,1,0
216,96,45212,5,0
309,59,45427,1,10
348,152,45641,1,0
256,192,45855,5,0
256,192,46284,1,10
256,192,46712,1,0
164,232,46927,5,0
203,325,47141,1,10
296,288,47355,1,0
256,192,47569,5,0
256,192,47998,1,10
256,192,48427,1,0
192,280,48641,5,0
256,192,48855,1,10
320,104,49069,1,0
320,104,49284,6,0,B|248:80|160:104,2,160,0|10|0
320,104,50355,5,0
360,208,50569,1,10
320,312,50784,1,0
320,311,50998,6,0,B|267:332|163:308,2,160,0|10|0
320,312,52069,5,0
360,208,52284,1,10
320,104,52498,1,0
256,192,52712,12,4,56141
80,64,69855,5,0
176,120,70069,2,0,B|152:176,1,40,2|2
56,192,70391,2,0,B|80:240,1,40,2|2
176,280,70712,5,0
272,224,70927,2,0,B|256:187,1,40,2|2
152,152,71248,2,0,B|169:116,1,40,2|2
272,64,71569,5,0
368,120,71784,2,0,B|344:176,1,40,2|2
248,192,72105,2,2,B|272:240,1,40
368,280,72427,5,0
464,224,72641,2,2,B|448:187,1,40
344,152,72962,2,2,B|361:116,1,40
464,64,73284,1,0
464,176,73498,1,2
464,176,73605,1,2
368,120,73819,1,2
368,120,73927,1,2
464,176,74141,5,0
368,232,74355,1,2
368,232,74462,1,2
368,120,74677,1,2
368,120,74784,1,2
368,232,74998,5,0
272,176,75212,1,2
272,176,75319,1,2
272,288,75534,1,2
272,288,75641,1,2
368,232,75855,5,0
368,120,76069,1,2
368,120,76177,1,2
272,176,76391,1,2
272,176,76498,1,2
272,64,76712,5,0
176,120,76927,2,2,B|128:160,1,40
80,232,77248,2,2,B|128:272,1,40
176,352,77569,5,0
272,296,77784,1,2
272,296,77891,1,2
272,184,78105,1,2
272,184,78212,1,2
168,232,78427,5,0
120,128,78641,2,2,B|89:154,1,40
168,232,78962,2,2,B|216:208,1,40
312,232,79284,5,0
368,328,79498,1,2
368,328,79605,1,2
424,232,79819,1,2
424,232,79927,1,2
368,136,80141,5,0
312,232,80355,1,2
312,232,80462,1,2
424,232,80677,1,2
424,232,80784,1,2
368,136,80998,5,0
256,136,81212,1,2
256,136,81319,1,2
200,232,81534,1,2
200,232,81641,1,2
256,192,81855,12,4,83141
96,176,83569,5,2
152,120,83784,1,0
88,72,83998,1,8
32,128,84212,2,0,B|0:232|72:280,1,160
479,255,85069,6,0,B|512:154|448:111,1,160
448,112,85712,5,8
376,72,85927,2,0,L|368:64|360:72|352:64|344:72|336:64|328:72|320:64|312:72|304:64|296:72|288:64|280:72|272:64|264:72|256:64,1,160
264,72,86569,1,8
248,312,86998,5,0
176,280,87212,1,0
104,312,87427,1,8
32,280,87641,2,0,B|0:184|64:120,1,160
480,104,88498,6,0,B|512:199|447:264,1,160,0|0
456,256,89141,5,8
400,312,89355,2,0,L|392:304|384:312|376:304|368:312|360:304|352:312|344:304|336:312|328:304|320:312|312:304|304:312|296:304|288:312|280:304,1,160
288,312,89998,1,8
224,72,90427,5,0
304,104,90641,1,0
224,72,90855,1,8
304,104,91069,2,0,B|408:104|432:208,1,160
208,280,91927,6,0,B|104:279|79:176,1,160
88,200,92569,5,8
24,151,92784,2,0,B|43:234|147:235,1,160
144,234,93427,1,8
368,152,93855,5,0
320,216,94069,1,0
368,280,94284,1,8
416,216,94498,2,0,B|248:216,1,160
48,144,95355,2,0,B|112:208|40:304,1,160
16,216,95998,5,8
88,248,96212,1,0
160,216,96427,1,0
232,184,96641,5,0
304,216,96855,1,8
376,248,97069,1,0
448,216,97284,5,0
408,144,97498,1,0
336,176,97712,1,8
376,247,97927,2,0,B|476:244|485:154,1,160
408,176,98569,5,8
319,199,98784,2,0,B|338:101|430:108,1,160
408,176,99427,5,8
376,247,99641,2,0,B|476:244|485:154,1,160
485,154,100284,1,8
24,232,100712,5,0
64,160,100927,1,0
104,232,101141,1,8
24,232,101355,2,0,B|43:134|135:141,1,160
104,216,101998,5,8
184,200,102212,2,0,B|165:298|73:291,1,160
104,216,102855,5,0
168,168,103069,2,0,L|176:160|184:168|192:160|200:168|208:160|216:168|224:160|232:168|240:160|248:168|256:160|264:168|272:160|280:168|288:160,1,160
281,166,103712,1,8
432,144,104141,6,0,B|496:80,2,80,2|0|8
368,192,104784,1,0
432,240,104998,2,0,B|496:304,2,80,2|0|8
368,192,105641,2,0,B|264:192,1,80,0|2
288,192,106069,5,0
208,192,106284,2,0,B|120:192,2,80,8|0|2
288,192,106927,1,0
368,192,107141,1,8
48,192,107569,6,0,L|136:192,2,80,0|0|10
48,192,108212,1,0
368,192,108641,1,2
256,192,109069,12,4,110569
464,48,110998,6,0,L|368:56,1,80
368,144,111641,2,0,L|280:152,1,80
272,240,112284,2,0,L|192:248,1,80
168,336,112927,2,0,L|80:344,1,80
88,344,113569,1,4
64,184,113998,1,0
48,48,114427,6,0,L|144:56,1,80
144,144,115069,2,0,L|232:152,1,80
240,240,115712,2,0,L|320:248,1,80
344,336,116355,2,0,L|432:344,1,80
423,343,116998,1,4
472,192,117427,1,0
336,104,117855,6,0,L|296:96,2,40
384,168,118498,2,0,L|416:144,2,40
304,192,119141,2,0,L|256:176,2,40
368,240,119784,2,0,L|400:272,2,40
296,272,120427,2,0,L|216:272,1,80,4|0
304,136,121284,6,0,L|344:120|392:120,2,80,0|0|0
208,248,122569,2,0,L|168:264|131:264,2,80,0|0|0
312,128,123855,1,0
368,280,124284,1,0
208,256,124712,6,0,L|128:256,1,80
304,168,125355,2,0,L|384:168,1,80
208,88,125998,2,0,L|128:88,1,80
304,168,126641,2,0,L|384:168,1,80
208,256,127284,2,0,L|128:256,1,80,4|0
368,128,128141,6,0,B|393:127|460:179|440:232,4,120,0|0|0|0|4
72,80,131569,5,0
152,136,131784,1,0
72,192,131998,1,0
152,240,132212,1,0
440,304,132641,6,0,B|368:248,1,80
440,208,133069,2,0,B|368:152,1,80
296,152,133498,6,0,L|288:144|280:152|272:160|264:152|256:144|248:152|240:160|232:152|224:144|216:152|208:160|200:152|192:144|184:152|176:160,1,160
112,192,134569,1,4
96,288,134784,6,4,B|264:288,1,160
336,288,135212,1,0
416,288,135427,1,0
416,96,135641,2,4,B|248:96,1,160
176,96,136069,1,0
96,96,136284,1,0
48,160,136498,5,0
48,176,136927,1,0
48,192,137355,1,4
464,192,137784,5,0
408,248,137998,1,0
352,192,138212,1,0
408,136,138427,2,0,L|416:144|408:152|416:160|408:168|416:176|408:184|416:192|408:200|416:208|408:216|416:224|408:232|416:240|408:248|416:256,1,160,0|8
409,249,139069,6,0,L|312:248,1,80
160,248,139712,1,8
104,192,139927,2,0,L|80:160|104:112,1,80
96,128,140784,5,0
416,128,141212,1,0
360,184,141427,1,8
416,240,141641,1,0
472,184,141855,2,0,L|464:176|456:184|448:176|440:184|432:176|424:184|416:176|408:184|400:176|392:184|384:176|376:184|368:176|360:184|352:176,1,160,0|8
40,200,142498,6,0,L|48:208|56:200|64:208|72:200|80:208|88:200|96:208|104:200|112:208|120:200|128:208|136:200|144:208|152:200|160:208,1,160
152,200,143141,5,8
232,200,143355,1,0
456,312,143784,1,0
456,88,144212,1,0
456,200,144641,5,0
376,184,144855,1,8
296,200,145069,1,0
216,184,145284,2,0,L|136:184|96:272,1,160,0|8
104,256,145927,6,0,L|184:256|224:168,1,160
216,184,146570,1,8
264,120,146784,1,0
296,88,147212,5,0
328,56,147641,6,0,L|336:48|344:56|352:48|360:56|368:48|376:56|384:48|392:56|400:48|408:56|416:48|424:56|432:48|440:56|448:48,1,160
440,328,148284,5,8
72,328,148712,1,0
200,96,149141,5,8
184,208,149355,1,0
296,232,149570,1,0
312,120,149784,1,0
256,192,149998,12,4,151284
48,192,151498,5,0
104,136,151712,1,8
160,192,151927,1,0
104,248,152141,2,0,L|96:240|104:232|96:224|104:216|96:208|104:200|96:192|104:184|96:176|104:168|96:160|104:152|96:144|104:136|96:128,1,160,0|8
102,134,152784,6,0,L|192:136,1,80
352,136,153427,1,8
408,192,153641,2,0,L|432:224|408:272,1,80
416,256,154498,5,0
96,256,154927,1,0
152,200,155141,1,0
96,144,155355,1,0
40,200,155570,2,0,L|48:208|56:200|64:208|72:200|80:208|88:200|96:208|104:200|112:208|120:200|128:208|136:200|144:208|152:200|160:208,1,160,8|0
472,184,156212,6,0,L|464:176|456:184|448:176|440:184|432:176|424:184|416:176|408:184|400:176|392:184|384:176|376:184|368:176|360:184|352:176,1,160
359,183,156855,5,0
280,184,157070,1,0
56,72,157498,1,0
56,296,157927,1,0
456,88,158998,6,0,L|368:88,1,80
376,88,159641,1,0
56,184,160284,6,0,L|152:184,1,80
136,184,160712,1,0
456,280,161141,6,0,L|448:272|440:280|432:272|424:280|416:272|408:280|400:272|392:280|384:272|376:280|360:280,1,120
368,280,161998,5,0
288,280,162212,2,0,L|128:280,1,160
80,216,162641,1,0
80,136,162855,1,0
128,72,163070,6,0,L|288:72,1,160
344,136,163498,1,0
344,216,163712,1,0
288,280,163927,1,0
208,280,164141,1,0
176,264,164248,1,0
168,232,164355,1,0
176,200,164462,1,0
192,176,164570,1,0
192,144,164677,1,0
168,120,164784,1,0
136,104,164891,1,0
104,104,164998,1,0
72,120,165105,1,0
56,144,165212,1,0
64,176,165320,1,0
88,192,165427,1,0
120,192,165534,1,0
152,184,165641,1,0
176,168,165748,1,0
200,144,165855,1,0
