osu file format v12

[General]
AudioFilename: meumeu.mp3
AudioLeadIn: 0
PreviewTime: 73809
Countdown: 0
SampleSet: Soft
StackLeniency: 0.7
Mode: 0
LetterboxInBreaks: 0

[Editor]
DistanceSpacing: 1
BeatDivisor: 4
GridSize: 8

[Metadata]
Title:Meu Meu Pettantan!!
TitleUnicode:めうめうぺったんたん!!
Artist:
ArtistUnicode:
Creator:biwako
Version:Insane
Source:
Tags:
BeatmapID:259458
BeatmapSetID:96914

[Difficulty]
HPDrainRate:7
CircleSize:4
OverallDifficulty:8
ApproachRate:9
SliderMultiplier:2
SliderTickRate:1

[Events]
//Background and Video events
0,0,"top_img1.jpg",0,0
//Break Periods
//Storyboard Layer 0 (Background)
//Storyboard Layer 1 (Fail)
//Storyboard Layer 2 (Pass)
//Storyboard Layer 3 (Foreground)
//Storyboard Sound Samples
//Background Colour Transformations
3,100,163,162,255

[TimingPoints]
2376,324.324324324324,4,2,1,100,1,0

[HitObjects]
408,112,75024,1,0,0:0:0:0:
312,144,75186,1,0,0:0:0:0:
280,48,75348,1,0,0:0:0:0:
176,80,75511,2,0,P|200:128|216:176,1,100
112,168,75835,1,0,0:0:0:0:
312,144,75997,1,0,0:0:0:0:
112,168,76159,1,0,0:0:0:0:
256,336,76321,2,0,L|152:344,2,100
504,320,76808,1,0,0:0:0:0:
408,352,76970,2,0,P|384:248|416:160,1,200
304,24,77457,2,0,P|328:88|304:168,1,150
144,192,77781,2,0,L|200:200,1,50
368,256,77943,2,0,L|312:248,1,50
144,184,78105,2,0,L|200:192,1,50
368,264,78267,2,0,L|312:256,1,50
144,176,78430,2,0,L|200:184,1,50
368,272,78592,2,0,L|312:264,1,50
144,168,78754,1,0,0:0:0:0:
144,72,78916,1,0,0:0:0:0:
336,72,79078,1,0,0:0:0:0:
448,224,79240,1,0,0:0:0:0:
424,320,79403,2,0,P|328:288|232:304,1,200
136,296,79889,1,0,0:0:0:0:
112,256,79970,1,0,0:0:0:0:
112,208,80051,1,0,0:0:0:0:
256,40,80213,2,0,P|200:40|152:48,1,100
156,46,80538,1,0,0:0:0:0:
192,192,80700,2,0,P|248:192|296:184,1,100
368,120,81024,1,0,0:0:0:0:
448,320,81186,1,0,0:0:0:0:
368,120,81348,1,0,0:0:0:0:
352,328,81511,2,0,P|296:328|240:336,1,100
368,120,81835,1,0,0:0:0:0:
464,128,81997,1,0,0:0:0:0:
304,192,82159,2,0,P|208:168|176:80,1,200
112,280,82646,1,0,0:0:0:0:
112,280,82970,1,0,0:0:0:0:
384,336,83132,1,0,0:0:0:0:
112,280,83294,1,0,0:0:0:0:
208,296,83457,2,0,P|256:280|304:272,1,100
304,88,83781,2,0,P|256:104|208:112,1,100
96,48,84105,1,0,0:0:0:0:
304,88,84267,1,0,0:0:0:0:
112,280,84430,1,0,0:0:0:0:
320,320,84592,1,0,0:0:0:0:
416,312,84754,2,0,L|512:320,2,50
384,216,84997,1,0,0:0:0:0:
384,216,85078,2,0,P|392:160|384:104,1,100
344,88,85321,1,0,0:0:0:0:
296,96,85403,2,0,P|240:104|192:104,1,100
144,192,85727,1,0,0:0:0:0:
104,16,85889,2,0,P|152:8|208:8,1,100
144,192,86213,1,0,0:0:0:0:
384,216,86375,1,0,0:0:0:0:
144,192,86538,1,0,0:0:0:0:
96,280,86700,2,0,P|40:288|-8:288,2,100
144,192,87186,1,0,0:0:0:0:
344,376,87348,2,0,L|144:368,1,200
256,80,87835,5,0,0:0:0:0:
256,280,88159,1,0,0:0:0:0:
256,280,88240,1,0,0:0:0:0:
256,280,88321,2,0,L|152:272,1,100
112,168,88565,1,0,0:0:0:0:
112,168,88646,2,0,L|216:176,1,100
211,175,88889,1,0,0:0:0:0:
256,80,88970,1,0,0:0:0:0:
456,128,89132,1,0,0:0:0:0:
456,328,89294,2,0,P|449:284|449:228,1,100
456,128,89619,1,0,0:0:0:0:
160,88,89781,2,0,L|360:112,1,200
456,328,90267,1,0,0:0:0:0:
424,288,90348,1,0,0:0:0:0:
376,272,90430,1,0,0:0:0:0:
328,280,90511,1,0,0:0:0:0:
288,304,90592,2,0,L|88:280,1,200
