osu file format v14

[General]
AudioFilename: fuwa.mp3
AudioLeadIn: 0
PreviewTime: -1
Countdown: 0
SampleSet: None
StackLeniency: 0.7
Mode: 0
LetterboxInBreaks: 0
WidescreenStoryboard: 0

[Editor]
Bookmarks: 31272
DistanceSpacing: 0.7
BeatDivisor: 4
GridSize: 4
TimelineZoom: 1

[Metadata]
Title:and
TitleUnicode:and
Artist:memes
ArtistUnicode:memes
Creator:EvilElvis
Version:anime
Source:
Tags:
BeatmapID:1086036
BeatmapSetID:510851

[Difficulty]
HPDrainRate:7
CircleSize:4.5
OverallDifficulty:7
ApproachRate:8
SliderMultiplier:1.8
SliderTickRate:2

[Events]
//Background and Video events
0,0,"same.jpg",0,0
//Break Periods
//Storyboard Layer 0 (Background)
//Storyboard Layer 1 (Fail)
//Storyboard Layer 2 (Pass)
//Storyboard Layer 3 (Foreground)
//Storyboard Sound Samples

[TimingPoints]
796,476.190476190476,4,1,0,60,1,0

[Colours]
Combo1 : 17,254,176
Combo2 : 173,255,95
Combo3 : 255,88,100
Combo4 : 255,94,55

[HitObjects]
50,116,796,6,0,P|112:129|192:111,1,135
181,115,1272,2,0,P|181:166|185:209,1,90
299,348,1748,2,0,P|305:297|290:196,1,135
295,214,2224,1,0,0:0:0:0:
372,199,2462,1,0,0:0:0:0:
471,22,2700,6,0,P|461:88|467:155,1,135
474,186,3176,1,0,0:0:0:0:
381,85,3415,2,0,B|281:106|294:49|202:61,1,180
65,140,4129,1,0,0:0:0:0:
65,140,4367,1,0,0:0:0:0:
184,343,4605,6,0,P|191:276|177:210,1,135
177,210,5081,2,0,L|269:205,1,90
347,30,5557,2,0,P|332:95|340:162,1,135
340,162,6034,1,0,0:0:0:0:
417,153,6272,1,0,0:0:0:0:
485,329,6510,6,0,L|333:314,1,135
317,313,6986,1,0,0:0:0:0:
197,216,7224,2,0,L|28:232,1,135
39,213,7700,1,0,0:0:0:0:
0,147,7938,1,0,0:0:0:0:
32,82,8176,1,0,0:0:0:0:
32,82,8295,1,0,0:0:0:0:
32,82,8415,6,0,L|201:98,1,135
166,94,8891,2,0,P|165:137|171:183,1,90
340,189,9367,2,0,P|340:264|321:346,1,135
328,322,9843,1,0,0:0:0:0:
256,306,10081,1,0,0:0:0:0:
65,361,10319,6,0,P|52:294|53:227,1,135
59,194,10795,1,0,0:0:0:0:
147,93,11034,2,0,B|241:82|221:136|321:117,1,180
502,255,11748,1,0,0:0:0:0:
502,255,11986,1,0,0:0:0:0:
277,220,12224,6,0,P|272:275|285:360,1,135
283,353,12700,2,0,L|381:341,1,90
496,180,13176,2,0,L|345:168,1,135
361,169,13653,1,0,0:0:0:0:
354,98,13891,1,0,0:0:0:0:
171,31,14129,6,0,P|165:92|181:187,1,135
186,199,14605,1,0,0:0:0:0:
18,343,14843,2,0,P|27:276|21:209,1,135
17,178,15319,1,0,0:0:0:0:
168,296,15557,1,0,0:0:0:0:
308,184,15795,1,0,0:0:0:0:
308,184,15915,1,0,0:0:0:0:
308,184,16034,6,0,L|446:178,1,135
442,178,16510,2,0,P|450:231|450:279,1,90
239,368,16986,2,0,P|232:295|234:231,1,135
233,233,17462,1,0,0:0:0:0:
163,223,17700,1,0,0:0:0:0:
9,150,17938,6,0,L|147:144,1,135
173,138,18415,1,0,0:0:0:0:
250,17,18653,2,0,B|236:123|288:100|276:194,1,180
362,320,19367,1,0,0:0:0:0:
362,320,19605,1,0,0:0:0:0:
501,148,19843,6,0,P|446:162|356:126,1,135
372,139,20319,2,0,P|343:108|329:62,1,90
152,209,20795,2,0,P|219:218|282:185,1,135
277,189,21272,1,0,0:0:0:0:
296,265,21510,1,0,0:0:0:0:
173,92,21748,6,0,P|113:62|47:72,1,135
16,89,22224,1,0,0:0:0:0:
54,312,22462,2,0,P|119:321|179:292,1,135
179,292,22938,1,0,0:0:0:0:
250,333,23176,1,0,0:0:0:0:
312,291,23415,1,0,0:0:0:0:
312,291,23534,1,0,0:0:0:0:
312,291,23653,6,0,P|321:242|304:150,1,135
307,158,24129,2,0,L|401:153,1,90
189,42,24605,2,0,P|175:107|184:174,1,135
184,174,25081,1,0,0:0:0:0:
111,193,25319,1,0,0:0:0:0:
13,287,25557,6,0,L|150:297,1,135
180,299,26034,1,0,0:0:0:0:
312,360,26272,2,0,P|368:350|416:237,1,180
261,125,26986,1,0,0:0:0:0:
261,125,27224,1,0,0:0:0:0:
170,199,27462,6,0,P|224:235|303:229,1,135
292,233,27938,2,0,P|337:215|366:185,1,90
170,60,28415,2,0,L|27:73,1,135
35,72,28891,1,0,0:0:0:0:
53,154,29129,1,0,0:0:0:0:
133,353,29367,6,0,P|137:303|124:214,1,135
116,190,29843,1,0,0:0:0:0:
110,61,30081,2,0,L|212:54,1,90
256,16,30557,1,0,0:0:0:0:
256,16,30795,1,0,0:0:0:0:
411,98,31034,1,0,0:0:0:0:
399,127,31153,1,0,0:0:0:0:
405,157,31272,5,0,0:0:0:0:
465,201,31510,1,0,0:0:0:0:
270,128,31748,5,0,0:0:0:0:
330,172,31986,1,0,0:0:0:0:
258,199,32224,5,0,0:0:0:0:
318,243,32462,1,0,0:0:0:0:
138,193,32700,5,0,0:0:0:0:
198,237,32938,1,0,0:0:0:0:
126,271,33176,5,0,0:0:0:0:
186,315,33414,1,0,0:0:0:0:
134,362,33653,1,0,0:0:0:0:
68,322,33891,2,0,P|56:269|69:175,1,135
64,189,34367,1,0,0:0:0:0:
119,144,34605,1,0,0:0:0:0:
193,140,34843,1,0,0:0:0:0:
309,179,35081,5,0,0:0:0:0:
322,202,35319,1,0,0:0:0:0:
415,223,35557,5,0,0:0:0:0:
423,249,35795,1,0,0:0:0:0:
211,90,36034,5,0,0:0:0:0:
232,105,36272,1,0,0:0:0:0:
325,85,36510,5,0,0:0:0:0:
343,105,36748,1,0,0:0:0:0:
257,292,36986,5,0,0:0:0:0:
156,349,37224,5,0,0:0:0:0:
53,239,37462,5,0,0:0:0:0:
184,163,37700,6,0,L|336:195,1,135
316,190,38176,1,0,0:0:0:0:
393,173,38415,1,0,0:0:0:0:
454,219,38653,1,0,0:0:0:0:
466,248,38772,1,0,0:0:0:0:
460,278,38891,5,0,0:0:0:0:
394,315,39129,1,0,0:0:0:0:
300,289,39367,5,0,0:0:0:0:
300,289,39605,1,0,0:0:0:0:
240,355,39843,5,0,0:0:0:0:
174,318,40081,1,0,0:0:0:0:
75,355,40319,5,0,0:0:0:0:
75,355,40557,1,0,0:0:0:0:
10,243,40795,5,0,0:0:0:0:
113,205,41034,1,0,0:0:0:0:
83,282,41272,1,0,0:0:0:0:
39,167,41510,2,0,P|39:120|34:20,1,135
34,32,41986,1,0,0:0:0:0:
115,23,42224,1,0,0:0:0:0:
126,103,42462,2,0,P|128:128|131:139,2,30
126,103,42700,5,0,0:0:0:0:
120,208,42938,1,0,0:0:0:0:
287,232,43176,5,0,0:0:0:0:
197,266,43415,1,0,0:0:0:0:
225,80,43653,5,0,0:0:0:0:
289,147,43891,1,0,0:0:0:0:
202,173,44129,5,0,0:0:0:0:
202,173,44367,1,0,0:0:0:0:
334,75,44605,5,0,0:0:0:0:
386,171,44843,5,0,0:0:0:0:
503,119,45081,5,0,0:0:0:0:
411,24,45319,6,0,P|328:37|243:18,1,135
257,63,45795,5,0,0:0:0:0:
99,163,46034,5,0,0:0:0:0:
273,251,46272,5,0,0:0:0:0:
273,251,46391,1,0,0:0:0:0:
273,251,46510,1,0,0:0:0:0:
166,89,46748,5,0,0:0:0:0:
181,109,46986,1,0,0:0:0:0:
160,238,47224,5,0,0:0:0:0:
179,215,47462,1,0,0:0:0:0:
346,174,47700,5,0,0:0:0:0:
268,160,47938,1,0,0:0:0:0:
336,148,48176,1,0,0:0:0:0:
428,227,48415,5,0,0:0:0:0:
350,244,48653,1,0,0:0:0:0:
447,306,48891,1,0,0:0:0:0:
369,326,49129,2,0,B|294:338|305:301|234:311,1,135
237,310,49605,1,0,0:0:0:0:
225,237,49843,1,0,0:0:0:0:
148,254,50081,2,0,P|130:257|114:262,2,30
148,254,50319,5,0,0:0:0:0:
154,168,50557,1,0,0:0:0:0:
245,117,50795,5,0,0:0:0:0:
240,76,51033,1,0,0:0:0:0:
344,249,51272,5,0,0:0:0:0:
338,163,51510,1,0,0:0:0:0:
266,318,51748,5,0,0:0:0:0:
439,317,51986,1,0,0:0:0:0:
277,342,52224,1,0,0:0:0:0:
422,346,52462,1,0,0:0:0:0:
350,323,52700,1,0,0:0:0:0:
286,206,52938,6,0,P|350:222|423:202,1,135
448,188,53415,1,0,0:0:0:0:
252,186,53653,1,0,0:0:0:0:
336,35,53891,1,0,0:0:0:0:
328,74,54010,1,0,0:0:0:0:
334,113,54129,5,0,0:0:0:0:
410,104,54367,1,0,0:0:0:0:
248,39,54605,5,0,0:0:0:0:
248,39,54843,1,0,0:0:0:0:
173,197,55081,5,0,0:0:0:0:
97,188,55319,1,0,0:0:0:0:
259,123,55557,5,0,0:0:0:0:
259,123,55795,1,0,0:0:0:0:
336,280,56034,5,0,0:0:0:0:
423,257,56272,1,0,0:0:0:0:
358,193,56510,1,0,0:0:0:0:
274,225,56748,2,0,P|264:291|278:369,1,135
274,357,57224,1,0,0:0:0:0:
206,373,57462,1,0,0:0:0:0:
150,328,57700,1,0,0:0:0:0:
16,163,57938,5,0,0:0:0:0:
27,188,58176,1,0,0:0:0:0:
107,118,58415,5,0,0:0:0:0:
58,257,58653,1,0,0:0:0:0:
167,184,58891,5,0,0:0:0:0:
256,315,59129,1,0,0:0:0:0:
399,116,59367,5,0,0:0:0:0:
273,170,59605,1,0,0:0:0:0:
320,77,59843,1,0,0:0:0:0:
333,231,60081,1,0,0:0:0:0:
237,83,60319,5,0,0:0:0:0:
417,208,60557,2,0,B|406:279|447:275|436:353,1,135
423,369,61034,5,0,0:0:0:0:
224,268,61272,5,0,0:0:0:0:
19,346,61510,5,0,0:0:0:0:
54,341,61629,1,0,0:0:0:0:
88,352,61748,1,0,0:0:0:0:
88,352,61986,1,0,0:0:0:0:
157,332,62224,1,0,0:0:0:0:
224,361,62462,1,0,0:0:0:0:
259,366,62581,1,0,0:0:0:0:
293,355,62700,1,0,0:0:0:0:
511,218,62938,5,0,0:0:0:0:
454,181,63176,1,0,0:0:0:0:
390,197,63415,1,0,0:0:0:0:
319,287,63653,5,0,0:0:0:0:
244,310,63891,1,0,0:0:0:0:
179,266,64129,1,0,0:0:0:0:
83,174,64367,5,0,0:0:0:0:
15,193,64605,1,0,0:0:0:0:
151,155,64843,5,0,0:0:0:0:
83,174,65081,1,0,0:0:0:0:
10,271,65319,5,0,0:0:0:0:
194,227,65557,1,0,0:0:0:0:
101,250,65795,1,0,0:0:0:0:
352,186,66034,5,0,0:0:0:0:
168,138,66272,1,0,0:0:0:0:
261,165,66510,1,0,0:0:0:0:
309,270,66748,5,0,0:0:0:0:
493,222,66986,1,0,0:0:0:0:
309,270,67224,1,0,0:0:0:0:
493,222,67462,1,0,0:0:0:0:
489,308,67700,5,0,0:0:0:0:
334,197,67938,1,0,0:0:0:0:
489,308,68176,1,0,0:0:0:0:
334,197,68414,1,0,0:0:0:0:
397,146,68653,5,0,0:0:0:0:
364,81,68891,2,0,P|304:73|255:83,1,90
242,62,69248,1,0,0:0:0:0:
207,73,69367,1,0,0:0:0:0:
161,131,69605,5,0,0:0:0:0:
138,122,69843,1,0,0:0:0:0:
68,155,70081,5,0,0:0:0:0:
28,223,70319,1,0,0:0:0:0:
72,283,70557,1,0,0:0:0:0:
130,335,70795,5,0,0:0:0:0:
168,322,71034,1,0,0:0:0:0:
220,267,71272,5,0,0:0:0:0:
293,245,71510,1,0,0:0:0:0:
352,291,71748,1,0,0:0:0:0:
412,351,71986,5,0,0:0:0:0:
495,327,72224,1,0,0:0:0:0:
394,357,72462,1,0,0:0:0:0:
511,320,72700,1,0,0:0:0:0:
416,231,72938,1,0,0:0:0:0:
408,250,73176,1,0,0:0:0:0:
500,211,73415,5,0,0:0:0:0:
451,154,73653,1,0,0:0:0:0:
346,159,73891,5,0,0:0:0:0:
381,64,74129,1,0,0:0:0:0:
349,138,74367,1,0,0:0:0:0:
277,72,74605,5,0,0:0:0:0:
190,51,74843,1,0,0:0:0:0:
257,90,75081,1,0,0:0:0:0:
98,111,75319,5,0,0:0:0:0:
74,17,75557,1,0,0:0:0:0:
89,93,75795,1,0,0:0:0:0:
174,191,76034,5,0,0:0:0:0:
73,217,76272,1,0,0:0:0:0:
218,339,76510,5,0,0:0:0:0:
319,313,76748,1,0,0:0:0:0:
466,170,76986,5,0,0:0:0:0:
365,196,77224,1,0,0:0:0:0:
264,222,77462,5,0,0:0:0:0:
365,196,77700,1,0,0:0:0:0:
466,170,77938,1,0,0:0:0:0:
388,97,78176,5,0,0:0:0:0:
299,33,78415,1,0,0:0:0:0:
388,97,78653,1,0,0:0:0:0:
299,33,78891,1,0,0:0:0:0:
387,19,79129,5,0,0:0:0:0:
305,112,79367,5,0,0:0:0:0:
420,170,79605,5,0,0:0:0:0:
495,80,79843,5,0,0:0:0:0:
337,179,80081,6,0,P|342:228|341:293,1,90
342,268,80438,1,0,0:0:0:0:
342,268,80557,1,0,0:0:0:0:
126,312,80795,5,0,0:0:0:0:
215,225,81034,1,0,0:0:0:0:
215,225,81272,1,0,0:0:0:0:
137,232,81510,5,0,0:0:0:0:
257,302,81749,1,0,0:0:0:0:
257,302,81987,1,0,0:0:0:0:
168,155,82224,5,0,0:0:0:0:
186,293,82462,1,0,0:0:0:0:
174,164,82700,1,0,0:0:0:0:
16,239,82938,5,0,0:0:0:0:
159,80,83176,5,0,0:0:0:0:
327,211,83415,5,0,0:0:0:0:
195,366,83653,5,0,0:0:0:0:
96,229,83891,5,0,0:0:0:0:
126,236,84010,1,0,0:0:0:0:
154,224,84129,1,0,0:0:0:0:
185,233,84248,1,0,0:0:0:0:
213,220,84367,1,0,0:0:0:0:
243,226,84486,1,0,0:0:0:0:
243,226,84605,5,0,0:0:0:0:
262,325,84843,1,0,0:0:0:0:
366,311,85081,5,0,0:0:0:0:
366,311,85319,1,0,0:0:0:0:
348,205,85557,5,0,0:0:0:0:
329,106,85795,1,0,0:0:0:0:
432,89,86034,5,0,0:0:0:0:
432,89,86272,1,0,0:0:0:0:
453,192,86510,5,0,0:0:0:0:
224,282,86748,5,0,0:0:0:0:
467,306,86986,5,0,0:0:0:0:
247,174,87224,5,0,0:0:0:0:
119,260,87462,5,0,0:0:0:0:
119,260,87700,2,0,P|124:306|122:358,1,90
291,324,88176,1,0,0:0:0:0:
163,184,88415,5,0,0:0:0:0:
110,131,88653,1,0,0:0:0:0:
42,155,88891,1,0,0:0:0:0:
192,101,89129,5,0,0:0:0:0:
245,48,89367,1,0,0:0:0:0:
313,72,89605,1,0,0:0:0:0:
129,45,89843,5,0,0:0:0:0:
129,45,90081,1,0,0:0:0:0:
86,218,90319,5,0,0:0:0:0:
183,233,90557,1,0,0:0:0:0:
268,358,90795,5,0,0:0:0:0:
401,278,91033,1,0,0:0:0:0:
243,278,91272,1,0,0:0:0:0:
326,295,91510,5,0,0:0:0:0:
484,262,91748,1,0,0:0:0:0:
326,223,91986,1,0,0:0:0:0:
320,191,92105,1,0,0:0:0:0:
319,159,92224,2,0,P|315:110|325:58,1,90
205,121,92700,1,0,0:0:0:0:
116,43,92938,2,0,P|51:49|-6:131,1,135
5,125,93415,1,0,0:0:0:0:
89,231,93653,1,0,0:0:0:0:
89,231,93772,1,0,0:0:0:0:
249,198,94010,5,0,0:0:0:0:
249,198,94129,2,0,P|256:244|250:294,1,90
76,319,94605,1,0,0:0:0:0:
166,356,94843,1,0,0:0:0:0:
166,356,94962,2,0,B|148:282|188:295|160:198,1,135
84,132,95438,2,0,P|150:142|216:130,1,135
345,33,96034,6,0,P|344:91|350:143,1,90
277,257,96510,1,0,0:0:0:0:
454,343,96748,2,0,P|450:295|369:220,1,135
368,219,97224,1,0,0:0:0:0:
228,179,97462,1,0,0:0:0:0:
228,179,97581,1,0,0:0:0:0:
258,355,97819,5,0,0:0:0:0:
258,355,97938,2,0,P|268:315|265:248,1,90
93,219,98415,1,0,0:0:0:0:
217,123,98653,1,0,0:0:0:0:
217,123,98772,2,0,P|227:163|224:230,1,90
201,244,99129,1,0,0:0:0:0:
45,135,99367,1,0,0:0:0:0:
188,32,99605,1,0,0:0:0:0:
219,27,99724,1,0,0:0:0:0:
250,30,99843,6,0,P|282:38|339:84,1,90
417,67,100319,1,0,0:0:0:0:
239,135,100557,2,0,P|281:193|281:263,1,135
266,278,101034,1,0,0:0:0:0:
114,328,101272,1,0,0:0:0:0:
114,328,101391,1,0,0:0:0:0:
340,357,101629,5,0,0:0:0:0:
340,357,101748,2,0,P|339:303|353:252,1,90
401,51,102224,1,0,0:0:0:0:
460,156,102462,1,0,0:0:0:0:
460,156,102581,2,0,P|468:200|466:244,1,90
442,256,102938,1,0,0:0:0:0:
435,282,103057,2,0,L|341:267,1,90
320,259,103415,1,0,0:0:0:0:
201,174,103653,6,0,P|146:181|88:180,1,90
4,151,104129,1,0,0:0:0:0:
39,303,104367,1,0,0:0:0:0:
39,303,104486,2,0,L|179:314,1,135
275,253,105081,1,0,0:0:0:0:
301,246,105200,1,0,0:0:0:0:
327,249,105319,1,0,0:0:0:0:
466,175,105557,5,0,0:0:0:0:
366,107,105795,1,0,0:0:0:0:
442,16,106034,1,0,0:0:0:0:
408,220,106272,5,0,0:0:0:0:
396,244,106391,1,0,0:0:0:0:
391,270,106510,2,0,P|389:316|397:359,1,90
206,289,106986,1,0,0:0:0:0:
43,351,107224,1,0,0:0:0:0:
37,189,107462,6,0,P|100:194|159:187,1,90
229,128,107938,1,0,0:0:0:0:
362,144,108176,1,0,0:0:0:0:
362,144,108295,2,0,P|351:194|366:286,1,135
461,217,108891,1,0,0:0:0:0:
461,217,109010,1,0,0:0:0:0:
461,217,109129,1,0,0:0:0:0:
153,349,109367,5,0,0:0:0:0:
249,299,109605,1,0,0:0:0:0:
200,202,109843,1,0,0:0:0:0:
287,139,110081,1,0,0:0:0:0:
287,139,110200,2,0,P|279:86|287:29,1,90
300,24,110557,1,0,0:0:0:0:
331,19,110676,2,0,L|419:34,1,90
424,121,111034,2,0,L|418:159,2,30
424,121,111272,6,0,P|420:161|423:217,1,90
268,284,111748,1,0,0:0:0:0:
356,351,111986,1,0,0:0:0:0:
356,351,112105,2,0,P|357:300|343:212,1,135
239,74,112700,1,0,0:0:0:0:
231,104,112819,1,0,0:0:0:0:
232,135,112938,1,0,0:0:0:0:
109,249,113176,5,0,0:0:0:0:
12,135,113415,1,0,0:0:0:0:
160,118,113653,1,0,0:0:0:0:
23,249,113891,5,0,0:0:0:0:
23,249,114010,2,0,P|34:295|33:345,1,90
46,366,114367,1,0,0:0:0:0:
222,262,114605,1,0,0:0:0:0:
71,178,114843,1,0,0:0:0:0:
68,146,114962,1,0,0:0:0:0:
73,115,115081,6,0,P|79:63|95:18,1,90
277,175,115557,1,0,0:0:0:0:
132,210,115795,1,0,0:0:0:0:
206,19,116034,1,0,0:0:0:0:
198,125,116272,5,0,0:0:0:0:
383,98,116510,1,0,0:0:0:0:
213,102,116748,2,0,P|220:176|212:255,1,135
197,262,117224,1,0,0:0:0:0:
379,350,117462,1,0,0:0:0:0:
409,340,117581,1,0,0:0:0:0:
438,350,117700,1,0,0:0:0:0:
468,341,117819,1,0,0:0:0:0:
468,341,117938,2,0,P|464:286|468:248,1,90
301,275,118415,1,0,0:0:0:0:
453,238,118653,1,0,0:0:0:0:
177,232,118891,5,0,0:0:0:0:
177,232,119367,1,0,0:0:0:0:
348,186,119605,1,0,0:0:0:0:
348,186,120081,1,0,0:0:0:0:
159,100,120319,1,0,0:0:0:0:
231,37,120557,6,0,B|212:137|276:127|252:231,1,180
156,364,121272,5,0,0:0:0:0:
65,234,121510,5,0,0:0:0:0:
240,313,121748,5,0,0:0:0:0:
0,309,121986,5,0,0:0:0:0:
211,204,122224,5,0,0:0:0:0:
199,38,122462,1,0,0:0:0:0:
199,38,122581,1,0,0:0:0:0:
199,38,122700,6,0,P|203:87|199:131,1,90
