osu file format v14

[General]
AudioFilename: 21212.mp3
AudioLeadIn: 930
PreviewTime: 41056
Countdown: 0
SampleSet: Soft
StackLeniency: 0.7
Mode: 0
LetterboxInBreaks: 0
WidescreenStoryboard: 0

[Editor]
DistanceSpacing: 1
BeatDivisor: 4
GridSize: 4
TimelineZoom: 1.2

[Metadata]
Title:AOI-IRO STEP
TitleUnicode:葵色ステップ
Artist:meiko
ArtistUnicode:めいこ
Creator:Natsu
Version:Normal
Source:
Tags:Hatsune Miku Aoiiro ゆいこんぬ yuikonnu Silve ねじまきと置き手紙 Nejimaki to Okitegami 魔法のための少女クラブ Mahou no tame no Shoujo Club 初音ミク Xinely pkhg
BeatmapID:618689
BeatmapSetID:262411

[Difficulty]
HPDrainRate:4
CircleSize:3.5
OverallDifficulty:4
ApproachRate:5
SliderMultiplier:1.2
SliderTickRate:1

[Events]
//Background and Video events
Video,-237,"moemiku.avi"
0,0,"Imacake.jpg",0,0
//Break Periods
2,69756,75935
2,132914,141619
2,154195,160567
//Storyboard Layer 0 (Background)
//Storyboard Layer 1 (Fail)
//Storyboard Layer 2 (Pass)
//Storyboard Layer 3 (Foreground)
//Storyboard Sound Samples

[TimingPoints]
1346,315.789473684211,4,2,1,60,1,0
11767,-100,4,2,2,50,0,0
20924,-100,4,2,1,50,0,0
21240,-100,4,2,1,70,0,0
21872,-100,4,2,1,40,0,0
39240,-100,4,2,1,70,0,0
40346,-100,4,2,1,80,0,0
41135,-100,4,2,2,50,0,0
41767,-100,4,2,1,60,0,1
42240,-100,4,2,1,50,0,1
42556,-100,4,2,1,60,0,1
44767,-100,4,2,1,50,0,1
45082,-100,4,2,1,60,0,1
47293,-100,4,2,1,50,0,1
47609,-100,4,2,1,60,0,1
49188,-100,4,2,1,60,0,0
49346,-100,4,2,1,80,0,1
50767,-100,4,2,1,60,0,0
51872,-100,4,2,1,60,0,1
52346,-100,4,2,1,50,0,1
52661,-100,4,2,1,60,0,1
54872,-100,4,2,1,50,0,1
55188,-100,4,2,1,60,0,1
57398,-100,4,2,1,50,0,1
57714,-100,4,2,1,60,0,1
61267,-100,4,2,1,50,0,1
61503,-100,4,2,1,60,0,1
66556,-100,4,2,1,50,0,1
67030,-100,4,2,1,70,0,0
77135,-100,4,2,2,80,0,0
77451,-100,4,2,2,60,0,0
79346,-100,4,2,1,40,0,0
79503,-100,4,2,2,60,0,0
81872,-100,4,2,1,40,0,0
82030,-100,4,2,2,60,0,0
84398,-100,4,2,1,40,0,0
84556,-100,4,2,2,60,0,0
85819,-100,4,2,1,60,0,0
85898,-100,4,2,2,40,0,0
86767,-100,4,2,1,60,0,0
87556,-100,4,2,1,50,0,0
104924,-100,4,2,1,70,0,0
106030,-100,4,2,1,80,0,0
106819,-100,4,2,2,50,0,0
107451,-100,4,2,1,60,0,1
107924,-100,4,2,1,50,0,1
108240,-100,4,2,1,60,0,1
110451,-100,4,2,1,50,0,1
110767,-100,4,2,1,60,0,1
112977,-100,4,2,1,50,0,1
113293,-100,4,2,1,60,0,1
114872,-100,4,2,1,60,0,0
115030,-100,4,2,1,80,0,1
116451,-100,4,2,1,60,0,0
117556,-100,4,2,1,60,0,1
118030,-100,4,2,1,50,0,1
118346,-100,4,2,1,60,0,1
120556,-100,4,2,1,50,0,1
120872,-100,4,2,1,60,0,1
123082,-100,4,2,1,50,0,1
123398,-100,4,2,1,60,0,1
126951,-100,4,2,1,50,0,1
127187,-100,4,2,1,60,0,1
132714,-100,4,2,1,60,0,0
143135,-100,4,2,2,50,0,0
151582,-100,4,2,2,20,0,0
161767,-100,4,2,1,80,0,1
163188,-100,4,2,1,60,0,0
164293,-100,4,2,1,60,0,1
164767,-100,4,2,1,50,0,1
165082,-100,4,2,1,60,0,1
167293,-100,4,2,1,50,0,1
167609,-100,4,2,1,60,0,1
169819,-100,4,2,1,50,0,1
170135,-100,4,2,1,60,0,1
173688,-100,4,2,1,50,0,1
173924,-100,4,2,1,60,0,1
179451,-100,4,2,1,60,0,0
189635,-100,4,2,1,40,0,0

[Colours]
Combo1 : 255,113,184
Combo2 : 36,255,255
Combo3 : 233,131,141
Combo4 : 40,185,255

[HitObjects]
192,240,1346,6,0,L|76:312,2,120,6|8|0,0:0|0:0|1:0,0:0:0:0:
256,196,2135,1,2,0:0:0:0:
320,92,2451,2,0,P|396:84|368:152,1,180,2|8,0:0|0:0,0:0:0:0:
316,260,3240,2,0,P|300:316|320:376,1,120,2|10,0:0|0:0,0:0:0:0:
193,373,3872,6,0,P|211:316|196:260,2,120,2|8|0,0:0|0:0|1:0,0:0:0:0:
116,376,4661,1,2,0:0:0:0:
40,284,4977,2,0,P|16:192|48:112,1,180,2|8,0:0|0:0,0:0:0:0:
164,140,5767,2,0,P|220:152|280:124,1,120,2|8,0:0|0:0,0:0:0:0:
336,24,6398,5,2,0:0:0:0:
404,124,6714,2,0,L|416:188,1,60,10|0,0:0|1:0,0:0:0:0:
440,300,7188,1,2,0:0:0:0:
328,340,7503,2,0,P|244:352|184:280,1,180,2|10,0:0|0:0,0:0:0:0:
208,212,8135,2,0,P|292:200|352:272,1,180,2|10,0:0|0:0,0:0:0:0:
436,348,8924,6,0,P|464:304|444:228,1,120,6|8,0:0|0:0,0:0:0:0:
396,184,9398,2,0,P|368:140|388:64,1,120,6|2,0:0|0:0,0:0:0:0:
276,12,10030,2,0,P|184:36|152:124,1,180,6|10,0:0|0:0,0:0:0:0:
220,148,10661,2,0,P|152:188|72:128,1,180,2|10,0:0|0:0,0:0:0:0:
72,16,11451,1,6,0:0:0:0:
75,137,11767,5,8,0:0:0:0:
75,137,11924,2,0,L|87:265,2,120,2|0|2,0:0|0:0|0:0,0:0:0:0:
176,68,12872,2,0,L|169:8,2,60,2|8|2,0:0|0:0|0:0,0:0:0:0:
264,148,13503,2,0,L|270:207,2,60,2|8|0,0:0|0:0|0:0,0:0:0:0:
404,36,14293,5,8,0:0:0:0:
404,36,14451,2,0,P|464:28|512:72,2,120,2|0|2,0:0|0:0|0:0,0:0:0:0:
284,40,15398,2,0,L|204:48,2,60,0|8|2,0:0|0:0|0:0,0:0:0:0:
232,148,16030,2,0,L|152:156,2,60,0|8|2,0:0|0:0|0:0,0:0:0:0:
412,132,16819,5,8,0:0:0:0:
412,132,16977,2,0,P|444:176|432:248,2,120,2|0|2,0:0|0:0|0:0,0:0:0:0:
304,76,17924,2,0,L|272:16,2,60,0|8|0,0:0|0:0|0:0,0:0:0:0:
256,188,18556,2,0,L|288:248,2,60,0|8|0,0:0|0:0|0:0,0:0:0:0:
196,84,19188,5,2,0:0:0:0:
196,84,19346,2,0,P|120:88|104:180,1,180,8|0,0:0|0:0,0:0:0:0:
152,284,20135,1,2,0:0:0:0:
264,328,20451,1,0,0:0:0:0:
384,336,20767,2,0,L|468:336,2,60,0|8|8,0:0|0:0|0:0,0:0:0:0:
384,256,21240,2,0,L|300:256,2,60,8|8|4,0:0|0:0|0:0,0:0:0:0:
472,192,21872,5,8,0:0:0:0:
472,192,22030,2,0,L|476:120,1,60,2|0,0:0|1:0,0:0:0:0:
396,120,22346,2,0,L|400:48,2,60,0|8|2,1:0|0:0|0:0,0:0:0:0:
292,180,22977,2,0,L|288:252,2,60,0|8|2,1:0|0:0|0:0,0:0:0:0:
172,172,23609,1,0,0:0:0:0:
172,172,23767,2,0,L|176:100,2,60,8|0|2,0:0|0:0|0:0,0:0:0:0:
188,288,24398,5,8,0:0:0:0:
188,288,24556,2,0,L|128:320,1,60,2|0,0:0|1:0,0:0:0:0:
84,256,24872,2,0,L|24:288,2,60,0|8|2,1:0|0:0|0:0,0:0:0:0:
148,156,25503,2,0,L|120:88,2,60,0|8|2,1:0|0:0|0:0,0:0:0:0:
200,264,26135,2,0,L|222:319,1,60,0|8,1:0|0:0,0:0:0:0:
300,304,26451,2,0,L|277:248,1,60,0|4,0:0|0:0,0:0:0:0:
256,132,26924,6,0,L|256:56,2,60,8|0|2,0:0|0:0|0:0,0:0:0:0:
204,192,27398,2,0,P|148:216|88:180,1,120,0|2,1:0|0:0,0:0:0:0:
64,76,28030,2,0,L|-12:68,2,60,0|8|0,1:0|0:0|0:0,0:0:0:0:
176,36,28661,2,0,L|252:28,2,60,0|8|0,1:0|0:0|0:0,0:0:0:0:
148,152,29293,1,0,0:0:0:0:
148,152,29451,2,0,P|132:212|148:272,2,120,8|2|8,0:0|0:0|0:0,0:0:0:0:
216,112,30240,5,6,0:0:0:0:
328,64,30556,2,0,L|392:56,2,60,0|8|2,1:0|0:0|0:0,0:0:0:0:
216,112,31188,2,0,P|156:107|120:64,1,120,0|0,1:0|1:0,0:0:0:0:
193,36,31661,1,6,0:0:0:0:
312,24,31977,6,0,L|386:16,2,60,2|0|8,0:0|1:0|0:0,0:0:0:0:
256,132,32609,2,0,L|196:138,1,60,8|0,0:0|1:0,0:0:0:0:
76,156,33082,1,8,0:0:0:0:
76,156,33240,2,0,P|64:216|88:272,1,120,0|8,0:0|0:0,0:0:0:0:
208,268,33872,6,0,P|229:212|217:155,2,120,2|6|2,0:0|0:0|0:0,0:0:0:0:
156,328,34661,2,0,P|105:358|45:355,2,120,0|0|2,1:0|0:0|0:0,0:0:0:0:
148,208,35609,1,8,0:0:0:0:
148,208,35767,2,0,P|97:177|37:180,2,120,0|10|8,0:0|0:0|3:0,0:0:0:0:
256,260,36714,1,6,0:0:0:0:
364,208,37030,6,0,P|415:177|475:180,2,120,2|8|8,0:0|0:0|0:0,0:0:0:0:
332,280,37819,1,2,0:0:0:0:
236,352,38135,1,8,0:0:0:0:
236,352,38293,2,0,P|176:352|128:304,1,120,0|8,0:0|0:0,0:0:0:0:
112,196,38924,1,8,0:0:0:0:
140,80,39240,6,0,P|172:40|216:88,1,120,6|8,0:0|0:0,0:0:0:0:
294,74,39714,2,2,P|335:39|372:80,1,120,2|0,0:0|1:0,0:0:0:0:
300,176,40346,2,0,B|256:216|256:216|208:172,1,120,12|12,3:0|3:0,0:0:0:0:
156,120,40819,1,12,3:0:0:0:
52,60,41135,2,0,P|32:116|56:180,1,120,2|2,0:0|0:0,0:0:0:0:
136,256,41767,6,0,P|216:272|256:192,1,180,6|0,0:0|1:0,0:0:0:0:
244,76,42556,2,0,P|300:76|352:116,1,120,2|2,0:0|0:0,0:0:0:0:
404,284,43346,1,8,0:0:0:0:
296,336,43661,2,0,L|228:360,2,60,2|0|8,0:0|0:0|0:0,0:0:0:0:
404,284,44293,6,0,P|420:224|404:156,1,120,6|8,0:0|0:0,0:0:0:0:
332,172,44767,2,0,P|268:184|204:156,1,120,0|2,1:0|0:0,0:0:0:0:
128,84,45398,2,0,P|96:148|140:256,1,180,2|8,0:0|0:0,0:0:0:0:
240,296,46188,1,2,0:0:0:0:
228,176,46503,1,8,0:0:0:0:
129,246,46819,6,0,L|13:306,1,120,6|8,0:0|0:0,0:0:0:0:
4,224,47293,2,0,L|110:168,1,120,0|2,1:0|0:0,0:0:0:0:
220,116,47924,2,0,P|288:112|356:196,1,180,6|8,0:0|0:0,0:0:0:0:
348,312,48714,2,0,L|344:388,2,60,2|0|8,0:0|0:0|0:0,0:0:0:0:
256,236,49346,6,0,P|196:224|148:260,1,120,6|8,0:0|0:0,0:0:0:0:
112,324,49819,2,0,L|92:192,1,120,6|2,0:0|0:0,0:0:0:0:
80,128,50293,2,0,B|156:72|244:120|244:120|260:48,1,240,12|10,0:0|0:0,0:0:0:0:
376,28,51240,2,0,L|356:164,1,120,2|8,0:0|0:0,0:0:0:0:
344,268,51872,6,0,P|388:300|456:264,1,120,6|8,0:0|0:0,0:0:0:0:
476,208,52346,2,0,L|492:68,2,120,0|2|6,1:0|0:0|0:0,0:0:0:0:
348,336,53451,2,0,P|292:352|236:328,1,120,8|2,0:0|0:0,0:0:0:0:
212,256,53924,2,0,L|200:180,1,60,0|8,0:0|0:0,0:0:0:0:
180,80,54398,6,0,P|120:88|84:132,1,120,6|8,0:0|0:0,0:0:0:0:
72,208,54872,1,0,1:0:0:0:
124,316,55188,2,0,L|192:304,1,60,2|8,0:0|0:0,0:0:0:0:
224,240,55503,2,0,P|232:304|336:320,1,180,6|8,0:0|0:0,0:0:0:0:
432,256,56293,1,2,0:0:0:0:
324,208,56609,1,8,0:0:0:0:
420,140,56924,6,0,P|436:80|412:20,1,120,6|8,0:0|0:0,0:0:0:0:
340,20,57398,2,0,L|200:20,2,120,0|2|6,1:0|0:0|0:0,0:0:0:0:
364,200,58503,2,0,L|244:200,1,120,8|2,0:0|0:0,0:0:0:0:
256,320,59135,2,0,L|328:320,1,60,8|0,0:0|0:0,0:0:0:0:
396,320,59451,6,0,P|436:288|444:212,1,120,6|8,0:0|0:0,0:0:0:0:
432,148,59924,2,0,P|384:120|312:132,1,120,6|2,0:0|0:0,0:0:0:0:
236,208,60556,2,0,B|196:292|196:292|156:284|140:224,1,180,6|10,0:0|0:0,0:0:0:0:
104,116,61346,2,0,L|32:116,2,60,0|2|8,0:0|0:0|0:0,0:0:0:0:
224,116,61977,6,0,P|288:128|320:188,1,120,6|2,0:0|0:0,0:0:0:0:
316,248,62451,2,0,L|404:152,1,120,2|2,0:0|0:0,0:0:0:0:
472,64,63082,2,0,P|416:16|296:40,1,180,2|2,0:0|0:0,0:0:0:0:
256,128,63872,2,0,L|256:196,2,60,8|0|2,0:0|0:0|0:0,0:0:0:0:
184,32,64503,6,0,P|120:12|112:60,1,120,6|2,0:0|0:0,0:0:0:0:
84,124,64977,2,0,P|148:144|156:96,1,120,0|10,0:0|0:0,0:0:0:0:
268,52,65609,2,0,P|324:36|392:52,2,120,6|0|2,0:0|1:0|0:0,0:0:0:0:
256,172,66556,2,0,L|256:292,1,120,0|0,1:0|1:0,0:0:0:0:
256,192,67030,12,4,69556,0:0:0:0:
76,176,77135,6,0,L|208:152,1,120,6|8,0:0|0:0,0:0:0:0:
252,208,77609,2,0,L|384:184,2,120,2|2|2,0:0|0:0|0:0,0:0:0:0:
140,248,78556,1,0,0:0:0:0:
140,248,78714,2,0,L|72:260,2,60,8|2|0,0:0|0:0|0:0,0:0:0:0:
192,308,79188,2,0,L|208:376,2,60,0|8|0,0:0|0:0|0:0,0:0:0:0:
148,136,79977,5,8,0:0:0:0:
148,136,80135,2,0,P|196:104|260:112,1,120,2|2,0:0|0:0,0:0:0:0:
340,196,80767,2,0,P|292:228|228:220,1,120,2|2,0:0|0:0,0:0:0:0:
148,136,81398,2,0,L|128:72,2,60,2|0|0,0:0|0:0|0:0,0:0:0:0:
108,204,81872,2,0,L|125:261,2,60,8|0|2,0:0|0:0|0:0,0:0:0:0:
56,96,82503,5,8,0:0:0:0:
56,96,82661,2,0,P|64:40|120:4,1,120,2|2,0:0|0:0,0:0:0:0:
232,32,83293,1,2,0:0:0:0:
312,120,83609,2,0,L|324:200,2,60,2|8|2,0:0|0:0|0:0,0:0:0:0:
424,72,84240,2,0,L|412:-8,2,60,2|8|0,0:0|0:0|0:0,0:0:0:0:
440,192,84872,5,0,0:0:0:0:
440,192,85030,2,0,P|400:228|332:208,1,120,8|2,0:0|0:0,0:0:0:0:
204,96,85819,2,0,P|147:82|103:119,1,120,8|2,0:0|0:0,0:0:0:0:
88,196,86293,2,0,L|84:264,1,60,2|2,0:0|0:0,0:0:0:0:
184,320,86767,2,0,L|188:252,1,60,12|8,0:0|0:0,0:0:0:0:
264,248,87082,2,0,L|260:316,1,60,8|6,0:0|0:0,0:0:0:0:
376,336,87556,5,8,0:0:0:0:
376,336,87714,2,0,L|448:340,1,60,2|0,0:0|1:0,0:0:0:0:
456,264,88030,2,0,L|396:260,2,60,0|8|0,1:0|0:0|1:0,0:0:0:0:
480,148,88661,2,0,L|488:84,2,60,0|8|2,1:0|0:0|0:0,0:0:0:0:
372,96,89293,2,0,L|380:32,2,60,0|8|0,1:0|0:0|1:0,0:0:0:0:
256,236,90082,6,0,P|252:268|256:296,2,60,8|2|0,0:0|0:0|0:0,0:0:0:0:
256,156,90556,2,0,P|260:124|256:96,2,60,0|8|2,1:0|0:0|0:0,0:0:0:0:
140,124,91187,2,0,L|76:120,2,60,0|8|0,1:0|0:0|0:0,0:0:0:0:
256,156,91819,2,0,L|320:160,1,60,0|8,1:0|0:0,0:0:0:0:
332,236,92135,2,0,L|272:232,1,60,0|6,0:0|0:0,0:0:0:0:
172,300,92609,6,0,L|108:292,2,60,8|2|0,0:0|0:0|0:0,0:0:0:0:
232,348,93082,2,0,P|276:356|336:316,1,120,0|2,1:0|0:0,0:0:0:0:
424,236,93714,2,0,L|496:208,2,60,0|8|0,1:0|0:0|0:0,0:0:0:0:
328,160,94346,2,0,L|256:132,2,60,0|8|0,1:0|0:0|0:0,0:0:0:0:
392,60,94978,1,0,0:0:0:0:
392,60,95136,2,0,L|520:36,2,120,8|2|8,0:0|0:0|0:0,0:0:0:0:
316,72,95925,5,6,0:0:0:0:
196,80,96241,2,0,L|136:72,2,60,0|8|2,1:0|0:0|0:0,0:0:0:0:
316,72,96873,2,0,P|320:128|284:184,1,120,0|0,1:0|1:0,0:0:0:0:
212,204,97346,1,6,0:0:0:0:
92,196,97662,6,0,L|18:188,2,60,2|0|8,0:0|0:0|0:0,0:0:0:0:
212,204,98294,2,0,L|220:276,1,60,8|0,0:0|1:0,0:0:0:0:
328,308,98767,1,0,1:0:0:0:
328,308,98925,2,0,L|316:176,1,120,0|8,0:0|0:0,0:0:0:0:
308,68,99557,6,0,P|364:47|421:59,2,120,2|6|0,0:0|0:0|0:0,0:0:0:0:
252,124,100346,2,0,P|201:154|141:151,2,120,0|0|2,1:0|0:0|0:0,0:0:0:0:
372,144,101294,1,0,1:0:0:0:
372,144,101452,2,0,P|403:195|400:255,2,120,0|8|0,0:0|0:0|0:0,0:0:0:0:
252,124,102399,1,6,0:0:0:0:
180,220,102715,6,0,B|116:224|116:224|72:180,2,120,2|8|0,0:0|0:0|0:0,0:0:0:0:
256,208,103504,1,0,0:0:0:0:
352,136,103820,1,0,1:0:0:0:
352,136,103977,2,0,B|416:132|416:132|460:176,2,120,0|8|8,0:0|0:0|0:0,0:0:0:0:
256,208,104925,6,0,P|232:144|256:80,1,120,6|8,0:0|0:0,0:0:0:0:
292,32,105398,2,0,P|240:60|176:48,1,120,2|0,0:0|0:0,0:0:0:0:
64,32,106030,2,0,L|56:160,1,120,8|8,3:0|3:0,0:0:0:0:
52,232,106504,1,8,3:0:0:0:
104,340,106820,2,0,P|160:360|220:332,1,120,2|2,0:0|0:0,0:0:0:0:
256,224,107451,6,0,L|256:156|256:84,1,120,6|8,0:0|0:0,0:0:0:0:
256,24,107924,2,0,P|312:44|336:104,2,120,0|2|6,1:0|0:0|0:0,0:0:0:0:
108,128,109030,2,0,P|95:186|133:238,2,120,8|2|8,0:0|0:0|0:0,0:0:0:0:
220,172,109977,6,0,P|251:221|238:278,1,120,6|8,0:0|0:0,0:0:0:0:
188,336,110451,2,0,L|324:320,1,120,0|2,1:0|0:0,0:0:0:0:
424,300,111082,2,0,P|452:220|416:128,1,180,2|8,0:0|0:0,0:0:0:0:
312,80,111873,1,2,0:0:0:0:
200,116,112188,1,8,0:0:0:0:
136,216,112504,6,0,P|188:236|256:220,1,120,6|8,0:0|0:0,0:0:0:0:
288,156,112977,2,0,P|345:143|401:163,1,120,0|2,0:0|0:0,0:0:0:0:
400,284,113609,2,0,P|332:340|228:312,1,180,6|8,0:0|0:0,0:0:0:0:
140,268,114399,2,0,L|72:268,2,60,2|0|8,0:0|0:0|0:0,0:0:0:0:
216,176,115030,6,0,P|228:120|212:56,1,120,6|8,0:0|0:0,0:0:0:0:
136,60,115503,2,0,P|121:117|133:176,1,120,6|0,0:0|0:0,0:0:0:0:
172,244,115978,2,0,B|224:280|284:248|296:200|296:200|400:196,1,240,12|10,0:0|0:0,0:0:0:0:
452,100,116925,2,0,L|328:104,1,120,2|0,0:0|1:0,0:0:0:0:
212,108,117557,6,0,P|151:119|99:76,1,120,6|8,0:0|0:0,0:0:0:0:
169,42,118030,2,0,P|231:32|283:78,2,120,0|2|6,1:0|0:0|0:0,0:0:0:0:
52,180,119136,2,0,L|40:304,1,120,8|2,0:0|0:0,0:0:0:0:
116,324,119609,2,0,L|124:252,1,60,0|8,0:0|0:0,0:0:0:0:
136,144,120083,6,0,P|188:128|248:156,1,120,6|8,0:0|0:0,0:0:0:0:
260,232,120557,1,0,1:0:0:0:
320,336,120873,2,0,L|388:324,1,60,2|8,0:0|0:0,0:0:0:0:
456,308,121188,2,0,P|480:280|460:148,1,180,6|8,0:0|0:0,0:0:0:0:
360,80,121978,1,6,0:0:0:0:
256,140,122294,1,8,0:0:0:0:
364,192,122609,6,0,P|380:132|354:72,1,120,6|8,0:0|0:0,0:0:0:0:
292,44,123083,2,0,P|232:28|172:48,2,120,0|2|6,1:0|0:0|0:0,0:0:0:0:
216,212,124188,2,0,L|204:340,1,120,8|2,0:0|0:0,0:0:0:0:
88,352,124820,2,0,L|96:284,1,60,8|0,0:0|0:0,0:0:0:0:
108,216,125136,6,0,P|112:152|80:104,1,120,6|8,0:0|0:0,0:0:0:0:
8,88,125609,2,0,L|124:40,1,120,6|0,0:0|0:0,0:0:0:0:
236,12,126240,2,0,P|284:64|260:168,1,180,6|10,0:0|0:0,0:0:0:0:
156,216,127031,2,0,L|92:244,2,60,0|0|8,1:0|0:0|0:0,0:0:0:0:
264,164,127662,6,0,P|328:176|360:236,1,120,6|2,0:0|0:0,0:0:0:0:
404,280,128136,2,0,L|420:160,1,120,0|2,0:0|0:0,0:0:0:0:
428,40,128767,2,0,P|336:24|280:88,1,180,6|2,0:0|0:0,0:0:0:0:
256,200,129557,2,0,L|256:268,2,60,8|0|2,0:0|0:0|0:0,0:0:0:0:
156,132,130188,6,0,B|96:116|96:116|40:148,1,120,6|2,0:0|0:0,0:0:0:0:
52,224,130661,2,0,B|112:240|112:240|168:208,1,120,0|0,0:0|1:0,0:0:0:0:
268,152,131294,2,0,P|320:132|392:156,2,120,6|8|0,0:0|0:0|0:0,0:0:0:0:
272,272,132240,2,0,P|329:287|384:267,1,120,0|0,0:0|0:0,0:0:0:0:
436,208,132714,1,6,0:0:0:0:
256,128,142819,5,4,0:0:0:0:
256,128,143135,2,0,L|256:276,2,120,2|8|8,0:0|0:0|0:0,0:0:0:0:
332,148,143924,2,0,L|332:296,1,120,2|0,0:0|0:0,0:0:0:0:
408,292,144398,2,0,L|408:172,1,120,2|8,0:0|0:0,0:0:0:0:
404,52,145030,6,0,L|356:12,1,60,8|0,0:0|0:0,0:0:0:0:
292,56,145346,2,0,P|228:56|180:16,2,120,0|8|8,0:0|0:0|0:0,0:0:0:0:
344,164,146293,1,8,0:0:0:0:
344,164,146451,2,0,L|352:300,1,120,2|0,0:0|0:0,0:0:0:0:
300,344,146924,2,0,B|256:384|160:384|160:304|160:304|196:256|164:172|84:192,1,360,8|4,0:0|0:0,0:0:0:0:
0,108,148188,6,0,P|45:73|116:76,2,120,8|10|8,0:0|0:0|0:0,0:0:0:0:
12,184,148977,1,2,0:0:0:0:
52,296,149293,1,0,0:0:0:0:
93,359,149451,2,0,P|151:354|196:315,1,120,8|10,0:0|0:0,0:0:0:0:
216,196,150082,1,8,0:0:0:0:
256,84,150398,6,0,B|312:68|312:68|372:100,1,120,2|8,0:0|0:0,0:0:0:0:
368,216,151030,1,10,0:0:0:0:
368,216,151188,2,0,B|312:232|312:232|252:200,1,120,0|2,0:0|0:0,0:0:0:0:
256,192,151661,12,0,152924,0:0:0:0:
256,252,161767,6,0,L|256:116,1,120,6|8,0:0|0:0,0:0:0:0:
256,52,162240,2,0,P|268:96|340:128,1,120,6|0,0:0|0:0,0:0:0:0:
408,112,162714,2,0,P|344:172|452:256,1,240,12|10,0:0|0:0,0:0:0:0:
480,152,163661,2,0,P|484:80|448:44,1,120,2|0,0:0|1:0,0:0:0:0:
336,76,164293,6,0,P|275:87|223:44,1,120,6|8,0:0|0:0,0:0:0:0:
156,36,164766,2,0,L|159:162,2,120,0|2|6,1:0|0:0|0:0,0:0:0:0:
12,144,165872,2,0,L|15:270,1,120,8|2,0:0|0:0,0:0:0:0:
92,284,166345,2,0,L|92:212,1,60,0|8,0:0|0:0,0:0:0:0:
92,104,166819,6,0,B|144:80|144:80|204:104,1,120,6|8,0:0|0:0,0:0:0:0:
272,140,167293,1,0,1:0:0:0:
372,204,167609,2,0,L|384:144,1,60,2|8,0:0|0:0,0:0:0:0:
460,144,167924,2,0,B|436:260|436:260|376:288,1,180,6|8,0:0|0:0,0:0:0:0:
264,316,168714,1,2,0:0:0:0:
292,200,169030,1,8,0:0:0:0:
348,92,169345,6,0,P|288:76|228:102,1,120,6|8,0:0|0:0,0:0:0:0:
196,164,169819,2,0,P|136:180|76:160,2,120,0|2|6,1:0|0:0|0:0,0:0:0:0:
376,160,170924,2,0,P|396:212|368:280,1,120,8|2,0:0|0:0,0:0:0:0:
256,292,171556,2,0,L|176:280,1,60,8|0,0:0|0:0,0:0:0:0:
124,308,171872,6,0,P|144:244|112:184,1,120,6|8,0:0|0:0,0:0:0:0:
52,164,172345,2,0,L|168:116,1,120,6|2,0:0|0:0,0:0:0:0:
276,80,172977,2,0,P|328:136|300:236,1,180,6|10,0:0|0:0,0:0:0:0:
240,332,173767,2,0,L|172:340,2,60,0|0|8,1:0|1:0|0:0,0:0:0:0:
360,316,174398,6,0,P|404:288|412:216,1,120,6|8,0:0|0:0,0:0:0:0:
344,188,174872,2,0,P|392:148|464:164,1,120,2|0,0:0|0:0,0:0:0:0:
496,260,175503,2,0,P|432:332|356:312,1,180,6|2,0:0|0:0,0:0:0:0:
256,256,176293,2,0,L|256:192,2,60,8|0|8,0:0|0:0|0:0,0:0:0:0:
152,314,176924,6,0,P|96:332|28:296,1,120,6|2,0:0|0:0,0:0:0:0:
48,232,177398,2,0,P|104:214|172:250,1,120,0|8,1:0|0:0,0:0:0:0:
256,308,178030,2,0,P|308:328|380:304,2,120,6|8|2,0:0|0:0|0:0,0:0:0:0:
256,188,178977,2,0,L|256:60,1,120,0|0,1:0|1:0,0:0:0:0:
180,92,179451,6,0,L|180:232,2,120,6|8|2,0:0|0:0|0:0,0:0:0:0:
180,12,180240,1,2,0:0:0:0:
284,72,180556,2,0,P|336:100|428:36,1,180,6|8,0:0|0:0,0:0:0:0:
480,148,181346,2,0,L|484:284,1,120,2|8,0:0|0:0,0:0:0:0:
392,344,181977,6,0,P|340:352|276:304,2,120,6|8|0,0:0|0:0|0:0,0:0:0:0:
364,228,182924,1,10,0:0:0:0:
364,228,183082,2,0,B|304:188|256:208|256:208|256:132,1,180,2|8,0:0|0:0,0:0:0:0:
164,64,183872,2,0,L|160:184,1,120,2|8,0:0|0:0,0:0:0:0:
156,304,184503,6,0,P|104:328|32:300,2,120,6|8|0,0:0|0:0|1:0,0:0:0:0:
208,244,185293,1,2,0:0:0:0:
256,132,185609,2,0,P|304:104|364:200,1,180,6|8,0:0|0:0,0:0:0:0:
340,256,186240,2,0,P|292:284|232:188,1,180,2|10,0:0|0:0,0:0:0:0:
184,92,187030,6,0,P|100:60|20:112,2,180,6|6|8,0:0|0:0|0:0,0:0:0:0:
200,168,188135,2,0,L|232:364,2,180,6|8|2,0:0|0:0|0:0,0:0:0:0:
272,136,189240,2,0,L|260:68,2,60,10|2|6,0:0|0:0|0:0,0:0:0:0:
256,192,189635,12,2,191924,0:0:0:0:
