osu file format v9

[General]
AudioFilename: 01-clover.mp3
AudioLeadIn: 2000
PreviewTime: 69966
Countdown: 0
SampleSet: Soft
StackLeniency: 0.7
Mode: 0
LetterboxInBreaks: 0

[Editor]
DistanceSpacing: 1.1
BeatDivisor: 4
GridSize: 8

[Metadata]
Title:clover
Artist:meg rock
Creator:kioukiou
Version:Hard
Source:
Tags:

[Difficulty]
HPDrainRate:6
CircleSize:5
OverallDifficulty:7
ApproachRate:7
SliderMultiplier:1.6
SliderTickRate:1

[Events]
//Background and Video events
0,0,"BG.jpg"
//Break Periods
2,101600,104471
2,174394,184765
//Storyboard Layer 0 (Background)
//Storyboard Layer 1 (Fail)
//Storyboard Layer 2 (Pass)
//Storyboard Layer 3 (Foreground)
//Storyboard Sound Samples
//Background Colour Transformations
3,100,163,162,255

[TimingPoints]
371,441.176470588235,4,2,1,80,1,0
4231,-100,4,2,2,80,0,0
4451,-100,4,2,1,80,0,0
5113,-100,4,2,2,80,0,0
5334,-100,4,2,1,80,0,0
5995,-100,4,2,2,80,0,0
6216,-100,4,2,1,80,0,0
6878,-100,4,2,2,80,0,0
7098,-100,4,2,1,80,0,0
7760,-100,4,2,2,80,0,0
7981,-100,4,2,1,80,0,0
8643,-100,4,2,2,80,0,0
8863,-100,4,2,1,80,0,0
9525,-100,4,2,2,80,0,0
9745,-100,4,2,1,80,0,0
10132,-100,4,2,2,80,0,0
10242,-100,4,2,1,80,0,0
10462,-100,4,2,2,80,0,0
10573,-100,4,2,1,80,0,0
11290,-100,4,2,2,80,0,0
11510,-100,4,2,1,80,0,0
12172,-100,4,2,2,80,0,0
12393,-100,4,2,1,80,0,0
13054,-100,4,2,2,80,0,0
13275,-100,4,2,1,80,0,0
13937,-100,4,2,2,80,0,0
14157,-100,4,2,1,80,0,0
14874,-100,4,2,2,80,0,0
14984,-100,4,2,1,80,0,0
15701,-100,4,2,2,80,0,0
15922,-100,4,2,1,80,0,0
17466,-100,4,2,2,80,0,0
17687,-100,4,2,1,80,0,0
20113,-100,4,2,2,80,0,0
20334,-100,4,2,1,80,0,0
20995,-100,4,2,2,80,0,0
21216,-100,4,2,1,80,0,0
21878,-100,4,2,2,80,0,0
22098,-100,4,2,1,80,0,0
22760,-100,4,2,2,80,0,0
22981,-100,4,2,1,80,0,0
23643,-100,4,2,2,80,0,0
23863,-100,4,2,1,80,0,0
24525,-100,4,2,2,80,0,0
24745,-100,4,2,1,80,0,0
25407,-100,4,2,2,80,0,0
25628,-100,4,2,1,80,0,0
26290,-100,4,2,2,80,0,0
26510,-100,4,2,1,80,0,0
27172,-100,4,2,2,80,0,0
27393,-100,4,2,1,80,0,0
28054,-100,4,2,2,80,0,0
28275,-100,4,2,1,80,0,0
28937,-100,4,2,2,80,0,0
29157,-100,4,2,1,80,0,0
29819,-100,4,2,2,80,0,0
30040,-100,4,2,1,80,0,0
30701,-100,4,2,2,80,0,0
30922,-100,4,2,1,80,0,0
31584,-100,4,2,2,80,0,0
31804,-100,4,2,1,80,0,0
32466,-100,4,2,2,80,0,0
32687,-100,4,2,1,80,0,0
33348,-100,4,2,2,80,0,0
33514,-100,4,2,1,80,0,0
34231,-100,4,2,2,80,0,0
34451,-100,4,2,1,80,0,0
35113,-100,4,2,2,80,0,0
35334,-100,4,2,1,80,0,0
36051,-100,4,2,2,80,0,0
36161,-100,4,2,1,80,0,0
36878,-100,4,2,2,80,0,0
37098,-100,4,2,1,80,0,0
37760,-100,4,2,2,80,0,0
37981,-100,4,2,1,80,0,0
38643,-100,4,2,2,80,0,0
38863,-100,4,2,1,80,0,0
39525,-100,4,2,2,80,0,0
39745,-100,4,2,1,80,0,0
40407,-100,4,2,2,80,0,0
40628,-100,4,2,1,80,0,0
41290,-100,4,2,2,80,0,0
41510,-100,4,2,1,80,0,0
42172,-100,4,2,2,80,0,0
42393,-100,4,2,1,80,0,0
43054,-100,4,2,2,80,0,0
43275,-100,4,2,1,80,0,0
43937,-100,4,2,2,80,0,0
44102,-100,4,2,1,80,0,0
44819,-100,4,2,2,80,0,0
45040,-100,4,2,1,80,0,0
45701,-100,4,2,2,80,0,0
45922,-100,4,2,1,80,0,0
46584,-100,4,2,2,80,0,0
46804,-100,4,2,1,80,0,0
47466,-100,4,2,2,80,0,0
47687,-100,4,2,1,80,0,0
48018,-200,4,2,1,80,0,0
62135,-100,4,2,1,80,0,0
62466,-100,4,2,2,80,0,0
62687,-100,4,2,1,80,0,0
63348,-100,4,2,2,80,0,0
63569,-100,4,2,1,80,0,0
64231,-100,4,2,2,80,0,0
64451,-100,4,2,1,80,0,0
65113,-100,4,2,2,80,0,0
65334,-100,4,2,1,80,0,0
65554,-100,4,2,2,80,0,0
65775,-100,4,2,1,80,0,0
65995,-100,4,2,2,80,0,0
66216,-100,4,2,1,80,0,0
66437,-100,4,2,2,80,0,0
66657,-100,4,2,1,80,0,0
66878,-100,4,2,2,80,0,0
67098,-100,4,2,1,80,0,0
67319,-100,4,2,2,80,0,0
67540,-100,4,2,1,80,0,0
67760,-100,4,2,2,80,0,0
67981,-100,4,2,1,80,0,0
68201,-100,4,2,2,80,0,0
68422,-100,4,2,1,80,0,0
68643,-100,4,2,2,80,0,0
68863,-100,4,2,1,80,0,0
70407,-100,4,2,2,90,0,0
70628,-100,4,2,1,90,0,0
71290,-100,4,2,2,90,0,0
71510,-100,4,2,1,90,0,0
72172,-100,4,2,2,90,0,0
72393,-100,4,2,1,90,0,0
73054,-100,4,2,2,90,0,0
73275,-100,4,2,1,90,0,0
73937,-100,4,2,2,90,0,0
74157,-100,4,2,1,90,0,0
74874,-100,4,2,2,90,0,0
74984,-100,4,2,1,90,0,0
75701,-100,4,2,2,90,0,0
75922,-100,4,2,1,90,0,0
76584,-100,4,2,2,90,0,0
76804,-100,4,2,1,90,0,0
77466,-100,4,2,2,90,0,0
77687,-100,4,2,1,90,0,0
78348,-100,4,2,2,90,0,0
78569,-100,4,2,1,90,0,0
79231,-100,4,2,2,90,0,0
79451,-100,4,2,1,90,0,0
80113,-100,4,2,2,90,0,0
80334,-100,4,2,1,90,0,0
80995,-100,4,2,2,90,0,0
81216,-100,4,2,1,90,0,0
81878,-100,4,2,2,90,0,0
82098,-100,4,2,1,90,0,0
82760,-100,4,2,2,90,0,0
82981,-100,4,2,1,90,0,0
83422,-100,4,2,2,90,0,0
84745,-100,4,2,1,90,0,0
85407,-100,4,2,2,90,0,0
85628,-100,4,2,1,90,0,0
86290,-100,4,2,2,90,0,0
86510,-100,4,2,1,90,0,0
87172,-100,4,2,2,90,0,0
87393,-100,4,2,1,90,0,0
88054,-100,4,2,2,90,0,0
88275,-100,4,2,1,90,0,0
89819,-100,4,2,2,90,0,0
90040,-100,4,2,1,90,0,0
90701,-100,4,2,2,90,0,0
90922,-100,4,2,1,90,0,0
91584,-100,4,2,2,90,0,0
91804,-100,4,2,1,90,0,0
92466,-100,4,2,2,90,0,0
92687,-100,4,2,1,90,0,0
93348,-100,4,2,2,90,0,0
93569,-100,4,2,1,90,0,0
94231,-100,4,2,2,90,0,0
94451,-100,4,2,1,90,0,0
95168,-100,4,2,2,90,0,0
95279,-100,4,2,1,90,0,0
95995,-100,4,2,2,90,0,0
96216,-100,4,2,1,90,0,0
97760,-100,4,2,2,90,0,0
97981,-100,4,2,1,90,0,0
98698,-100,4,2,2,90,0,0
98808,-100,4,2,1,90,0,0
99525,-100,4,2,2,90,0,0
99745,-100,4,2,1,90,0,0
104929,-100,4,2,1,80,0,0
105701,-100,4,2,2,80,0,0
105922,-100,4,2,1,80,0,0
106584,-100,4,2,2,80,0,0
106804,-100,4,2,1,80,0,0
107466,-100,4,2,2,80,0,0
107687,-100,4,2,1,80,0,0
108348,-100,4,2,2,80,0,0
108569,-100,4,2,1,80,0,0
109231,-100,4,2,2,80,0,0
109451,-100,4,2,1,80,0,0
110113,-100,4,2,2,80,0,0
110334,-100,4,2,1,80,0,0
110995,-100,4,2,2,80,0,0
111216,-100,4,2,1,80,0,0
111878,-100,4,2,2,80,0,0
112098,-100,4,2,1,80,0,0
112760,-100,4,2,2,80,0,0
112981,-100,4,2,1,80,0,0
113643,-100,4,2,2,80,0,0
113863,-100,4,2,1,80,0,0
114525,-100,4,2,2,80,0,0
114745,-100,4,2,1,80,0,0
115407,-100,4,2,2,80,0,0
115628,-100,4,2,1,80,0,0
116290,-100,4,2,2,80,0,0
116510,-100,4,2,1,80,0,0
117172,-100,4,2,2,80,0,0
117393,-100,4,2,1,80,0,0
118054,-100,4,2,2,80,0,0
118275,-100,4,2,1,80,0,0
118937,-100,4,2,2,80,0,0
119157,-100,4,2,1,80,0,0
119488,-200,4,2,1,80,0,0
133826,-100,4,2,1,80,0,0
133937,-100,4,2,2,80,0,0
134157,-100,4,2,1,80,0,0
134819,-100,4,2,2,80,0,0
135040,-100,4,2,1,80,0,0
135701,-100,4,2,2,80,0,0
135922,-100,4,2,1,80,0,0
136584,-100,4,2,2,80,0,0
136804,-100,4,2,1,80,0,0
137025,-100,4,2,2,80,0,0
137245,-100,4,2,1,80,0,0
137466,-100,4,2,2,80,0,0
137687,-100,4,2,1,80,0,0
137907,-100,4,2,2,80,0,0
138128,-100,4,2,1,80,0,0
138348,-100,4,2,2,80,0,0
138569,-100,4,2,1,80,0,0
138790,-100,4,2,2,80,0,0
139010,-100,4,2,1,80,0,0
139231,-100,4,2,2,80,0,0
139451,-100,4,2,1,80,0,0
139672,-100,4,2,2,80,0,0
139893,-100,4,2,1,80,0,0
140113,-100,4,2,2,80,0,0
140334,-100,4,2,1,80,0,0
141878,-100,4,2,2,90,0,0
142098,-100,4,2,1,90,0,0
142760,-100,4,2,2,90,0,0
142981,-100,4,2,1,90,0,0
143643,-100,4,2,2,90,0,0
143863,-100,4,2,1,90,0,0
144525,-100,4,2,2,90,0,0
144745,-100,4,2,1,90,0,0
145407,-100,4,2,2,90,0,0
145628,-100,4,2,1,90,0,0
146290,-100,4,2,2,90,0,0
146510,-100,4,2,1,90,0,0
147172,-100,4,2,2,90,0,0
147393,-100,4,2,1,90,0,0
148054,-100,4,2,2,90,0,0
148275,-100,4,2,1,90,0,0
148937,-100,4,2,2,90,0,0
149157,-100,4,2,1,90,0,0
149819,-100,4,2,2,90,0,0
150040,-100,4,2,1,90,0,0
150701,-100,4,2,2,90,0,0
150922,-100,4,2,1,90,0,0
151584,-100,4,2,2,90,0,0
151804,-100,4,2,1,90,0,0
152466,-100,4,2,2,90,0,0
152687,-100,4,2,1,90,0,0
153348,-100,4,2,2,90,0,0
153569,-100,4,2,1,90,0,0
154231,-100,4,2,2,90,0,0
154451,-100,4,2,1,90,0,0
155113,-100,4,2,2,90,0,0
156216,-100,4,2,1,90,0,0
156878,-100,4,2,2,90,0,0
157098,-100,4,2,1,90,0,0
157760,-100,4,2,2,90,0,0
157981,-100,4,2,1,90,0,0
158643,-100,4,2,2,90,0,0
158863,-100,4,2,1,90,0,0
159525,-100,4,2,2,90,0,0
159745,-100,4,2,1,90,0,0
160462,-100,4,2,2,90,0,0
160573,-100,4,2,1,90,0,0
161290,-100,4,2,2,90,0,0
161510,-100,4,2,1,90,0,0
162172,-100,4,2,2,90,0,0
162393,-100,4,2,1,90,0,0
163054,-100,4,2,2,90,0,0
163275,-100,4,2,1,90,0,0
163937,-100,4,2,2,90,0,0
164157,-100,4,2,1,90,0,0
164819,-100,4,2,2,90,0,0
165040,-100,4,2,1,90,0,0
165701,-100,4,2,2,90,0,0
165922,-100,4,2,1,90,0,0
166584,-100,4,2,2,90,0,0
166804,-100,4,2,1,90,0,0
167466,-100,4,2,2,90,0,0
167687,-100,4,2,1,90,0,0
169231,-100,4,2,2,90,0,0
169451,-100,4,2,1,90,0,0
170113,-100,4,2,2,90,0,0
170334,-100,4,2,1,90,0,0
170995,-100,4,2,2,90,0,0
171216,-100,4,2,1,90,0,0
171878,-100,4,2,2,90,0,0
172209,-100,4,2,1,0,0,0
185665,-200,4,2,1,60,0,0
192723,-100,4,2,1,60,0,0
198018,-100,4,2,1,90,0,0
198348,-100,4,2,2,90,0,0
198569,-100,4,2,1,90,0,0
199231,-100,4,2,2,90,0,0
199451,-100,4,2,1,90,0,0
200113,-100,4,2,2,90,0,0
200334,-100,4,2,1,90,0,0
200995,-100,4,2,2,90,0,0
201216,-100,4,2,1,90,0,0
201878,-100,4,2,2,90,0,0
202098,-100,4,2,1,90,0,0
202760,-100,4,2,2,90,0,0
202981,-100,4,2,1,90,0,0
203643,-100,4,2,2,90,0,0
203863,-100,4,2,1,90,0,0
204249,-100,4,2,2,90,0,0
204359,-100,4,2,1,90,0,0
204580,-100,4,2,2,90,0,0
204690,-100,4,2,1,90,0,0
205462,-100,4,2,2,90,0,0
205573,-100,4,2,1,90,0,0
206290,-100,4,2,2,90,0,0
206510,-100,4,2,1,90,0,0
207172,-100,4,2,2,90,0,0
207393,-100,4,2,1,90,0,0
208054,-100,4,2,2,90,0,0
208275,-100,4,2,1,90,0,0
208937,-100,4,2,2,90,0,0
209157,-100,4,2,1,90,0,0
209819,-100,4,2,2,90,0,0
210040,-100,4,2,1,90,0,0
210260,-100,4,2,2,90,0,0
210481,-100,4,2,1,90,0,0
210701,-100,4,2,2,90,0,0
210922,-100,4,2,1,90,0,0
211143,-100,4,2,2,90,0,0
211363,-100,4,2,1,90,0,0
211584,-100,4,2,2,90,0,0
212687,-100,4,2,1,90,0,0
213348,-100,4,2,2,90,0,0
213569,-100,4,2,1,90,0,0
214231,-100,4,2,2,90,0,0
214451,-100,4,2,1,90,0,0
215113,-100,4,2,2,90,0,0
215334,-100,4,2,1,90,0,0
215995,-100,4,2,2,90,0,0
216216,-100,4,2,1,90,0,0
216878,-100,4,2,2,90,0,0
217098,-100,4,2,1,90,0,0
217760,-100,4,2,2,90,0,0
217981,-100,4,2,1,90,0,0
218643,-100,4,2,2,90,0,0
218863,-100,4,2,1,90,0,0
219525,-100,4,2,2,90,0,0
219745,-100,4,2,1,90,0,0
220407,-100,4,2,2,90,0,0
220628,-100,4,2,1,90,0,0
221290,-100,4,2,2,90,0,0
221510,-100,4,2,1,90,0,0
222172,-100,4,2,2,90,0,0
222393,-100,4,2,1,90,0,0
223054,-100,4,2,2,90,0,0
223275,-100,4,2,1,90,0,0
223937,-100,4,2,2,90,0,0
224157,-100,4,2,1,90,0,0
225701,-100,4,2,2,90,0,0
225922,-100,4,2,1,90,0,0
226584,-100,4,2,2,90,0,0
226804,-100,4,2,1,90,0,0
227466,-100,4,2,2,90,0,0
227687,-100,4,2,1,90,0,0
228018,-100,4,2,1,0,0,0

[HitObjects]
72,32,371,1,0
40,96,591,1,0
72,160,812,1,2
72,304,1253,2,0,B|96:344,1,40,0|2
168,336,1584,2,0,B|168:384,1,40,0|2
440,32,2135,5,0
472,96,2356,1,0
440,160,2576,1,2
440,304,3018,2,0,B|416:344,1,40,0|2
344,336,3348,2,0,B|344:384,1,40,0|2
152,48,3900,6,0,B|56:64|56:168,1,160,4|8
64,232,4562,1,0
72,264,4672,1,0
80,296,4782,2,0,B|96:344|128:360,2,80,0|0|8
144,256,5444,1,0
152,224,5554,1,0
160,192,5665,2,0,B|176:144|208:128,2,80,0|0|8
224,224,6326,1,0
288,256,6547,1,0
352,224,6768,1,0
288,184,6988,2,0,B|288:16,1,160,8|0
432,64,7870,5,8
472,128,8091,1,0
472,200,8312,2,0,B|440:304|360:328,1,160,0|8
370,251,8973,2,0,B|304:296|224:312,1,160
152,320,9635,1,8
80,304,9856,1,0
24,256,10076,1,0
24,256,10187,1,8
16,184,10407,1,0
16,184,10518,2,0,B|1:147|16:104,2,80,8|0|4
152,56,11400,5,8
224,72,11621,1,0
296,56,11841,1,0
224,72,12062,1,0
224,144,12282,2,0,B|160:224|232:296,1,160,8|0
296,288,12944,1,0
296,288,13165,2,0,B|136:288,2,160,8|0|8
392,112,14488,5,0
336,64,14709,1,0
336,64,14819,1,0
336,64,14929,2,0,B|256:32|160:72,1,160,8|0
112,96,15591,1,0
64,152,15812,2,0,B|24:224,1,80,8|0
96,232,16253,2,0,B|32:352,2,120,4|4|4
168,208,17135,1,0
240,232,17356,1,0
312,208,17576,1,8
472,120,19782,6,0,B|384:88|312:128,1,160,4|8
256,168,20444,1,0
192,200,20665,2,0,B|152:224|112:200,2,80,0|0|8
256,328,21547,5,0
112,328,21988,1,8
184,304,22209,1,0
184,232,22429,1,0
184,160,22650,1,0
184,88,22871,1,8
344,32,23312,6,0,B|272:104|344:184,1,160,0|8
408,176,23973,1,0
408,176,24084,1,0
408,176,24194,2,0,B|496:176,2,80,0|0|8
368,232,24856,6,0,B|336:328,1,80,0|4
280,272,25297,1,0
216,232,25518,2,0,B|184:328,1,80,8|4
128,272,25959,1,0
64,232,26179,2,0,B|32:328,2,80,0|12|0
64,160,26841,6,0,B|0:160|0:48|72:48,1,160,0|8
112,104,27503,1,0
112,104,27723,2,0,B|176:104|176:216|104:216,1,160,0|8
112,288,28385,6,0,B|96:336|40:344,2,80
184,288,29047,2,0,B|352:288,1,160,8|0
344,360,29709,1,0
408,320,29929,1,8
408,248,30150,1,0
344,216,30371,2,0,B|176:216,1,160,0|8
112,216,31032,1,0
72,216,31143,1,0
40,216,31253,2,0,B|-8:200|0:144,2,80,0|0|8
48,56,32135,5,4
120,56,32356,1,0
192,56,32576,2,0,B|272:96,1,80,8|4
328,56,33018,2,0,B|408:96,1,80,0|0
472,88,33459,1,8
472,88,33569,1,0
472,88,33679,1,0
432,152,33900,6,0,B|368:152|368:264|432:264,1,160,4|8
498,263,34562,1,0
426,263,34782,2,0,B|242:263,1,160,0|8
192,264,35444,1,0
128,304,35665,1,0
128,304,35775,1,0
128,232,35996,1,0
128,232,36106,1,8
64,272,36326,1,0
64,272,36437,1,0
64,272,36547,2,0,B|-16:272,2,80,0|0|8
208,96,37429,6,0,B|264:32|360:24,1,160,0|8
408,72,38091,1,0
344,112,38312,2,0,B|296:112|268:152,2,80,0|0|8
416,240,39194,6,0,B|447:279|408:321,1,80,4|0
352,280,39635,1,8
300,332,39856,2,0,B|236:324|236:228|308:220,1,160,4|0
352,168,40518,1,12
400,112,40738,1,0
352,56,40959,6,0,B|304:32|240:32|192:64,1,160,0|8
136,104,41620,1,0
80,144,41841,2,0,B|37:163|-1:142,1,80
40,80,42282,2,0,B|40:240,1,160,8|0
72,304,42944,5,0
136,344,43165,1,8
136,272,43385,2,0,B|136:192|136:104,1,160
192,64,44047,1,8
224,64,44157,1,0
224,136,44378,1,0
256,136,44488,2,0,B|432:136,1,160,0|8
416,64,45150,1,0
480,104,45370,1,0
480,176,45591,1,0
416,208,45812,1,8
176,352,46253,6,0,B|224:360|264:336,1,80,4|0
144,272,46694,2,0,B|104:296|48:280,1,80,8|4
104,184,47135,2,0,B|152:192|192:160,1,80,0|0
112,88,47576,2,0,B|72:112|16:96,1,80,12|0
72,24,48018,6,0,B|240:24,1,160,4|0
376,24,49341,1,2
416,88,49562,1,0
376,152,49782,1,0
232,160,50223,1,2
232,160,50444,1,0
88,160,50885,1,0
48,224,51106,1,2
88,288,51326,1,0
120,224,51547,2,0,B|288:224,2,160
48,224,53532,1,2
48,224,53753,1,2
192,328,54194,5,0
256,360,54415,1,0
320,328,54635,1,2
256,288,54856,2,0,B|256:200,1,80,4|0
192,176,55518,1,2
256,48,55959,2,0,B|256:128,1,80,0|2
312,176,56620,1,0
368,128,56841,6,0,B|448:128,1,80,0|2
488,184,57503,1,0
448,248,57723,1,0
488,312,57944,1,0
448,368,58165,2,0,B|360:368,1,80,2|0
296,368,58826,5,0
232,328,59047,1,2
168,368,59268,1,0
232,240,59709,1,0
232,240,59929,1,2
296,112,60370,1,4
232,152,60591,1,0
168,112,60812,1,2
232,80,61032,2,0,B|200:64|264:40|224:8,2,80,4|4|4
48,88,62356,5,0
48,160,62576,1,8
192,160,63018,1,0
192,232,63238,1,0
192,304,63459,1,8
192,376,63679,1,0
320,304,64120,1,0
320,232,64341,1,8
464,232,64782,1,0
464,160,65003,1,0
464,88,65223,1,8
464,16,65444,1,0
392,16,65665,6,0,B|360:56|320:56,1,80,8|0
248,56,66106,2,0,B|208:64|184:104,1,80,8|0
120,160,66547,2,0,B|88:200|40:200,1,80,8|0
32,296,66988,2,0,B|64:264|112:264,1,80,8|0
200,304,67429,2,0,B|248:312|280:264,1,80,8|0
288,168,67870,2,0,B|320:128|376:136,1,80,8|0
472,176,68312,2,0,B|504:208|504:248,1,80,8|0
416,344,68753,2,0,B|384:376|328:352,1,80,8|4
256,192,69194,12,4,70076
32,240,70518,5,8
80,296,70738,1,0
104,320,70848,1,0
136,344,70959,1,0
200,312,71179,2,0,B|240:296|287:315,1,80,0|8
344,344,71620,2,0,B|384:360|431:341,1,80
488,320,72062,2,0,B|504:272|488:240,1,80,0|8
424,272,72503,1,0
424,272,72613,1,0
424,272,72723,2,0,B|344:272,2,80,0|0|8
416,64,73606,6,0,B|384:32|288:32|256:72,1,160,0|8
208,104,74268,1,0
152,152,74488,1,0
120,152,74598,1,0
80,216,74819,1,0
48,216,74929,1,8
8,280,75150,2,0,B|8:360,1,80
80,312,75591,2,0,B|120:384,1,80,0|8
176,336,76032,2,0,B|256:368,1,80
312,320,76473,2,0,B|400:320,1,80,0|8
376,248,76915,2,0,B|456:216,1,80,0|4
424,80,77576,5,8
360,104,77797,1,0
296,80,78018,1,0
88,80,78459,1,8
152,104,78679,1,0
216,80,78900,1,0
256,136,79120,1,0
256,208,79341,1,8
256,280,79562,1,0
256,280,79672,1,0
256,280,79782,2,0,B|256:376,2,80,0|0|8
112,248,80665,6,0,B|48:320,2,80,0|0|8
160,192,81326,1,0
216,144,81547,2,0,B|271:78|360:88,1,160,0|8
424,120,82209,1,0
360,160,82429,2,0,B|274:151|225:248,2,160,0|8|0
424,200,83532,1,8
456,216,83643,1,8
480,240,83753,1,8
496,272,83863,1,8
480,304,83973,1,8
456,336,84084,1,8
424,344,84194,6,0,B|248:344,1,160,4|8
192,344,84856,2,0,B|144:328,1,40
80,336,85187,2,0,B|56:288,1,40
56,232,85518,1,8
24,168,85738,1,0
56,104,85959,1,0
96,168,86179,2,0,B|176:168,1,80,0|8
208,104,86621,2,0,B|280:152,1,80
328,96,87062,2,0,B|368:176,1,80,0|8
432,168,87503,5,0
432,168,87723,2,0,B|456:248|424:344,1,160,0|8
365,325,88385,1,0
365,325,88606,2,0,B|493:325,2,120,0|0|0
292,325,89488,2,0,B|236:301|196:301,1,80
148,325,89929,2,0,B|92:301|52:301,1,80,8|0
20,253,90371,2,0,B|60:229|108:221,1,80,0|0
156,253,90812,2,0,B|196:229|244:221,1,80,8|0
292,253,91253,2,0,B|460:253,1,160,4|8
448,184,91915,5,0
480,120,92135,1,0
448,56,92356,1,0
408,120,92576,2,0,B|328:160|251:120,1,160,8|0
200,80,93238,1,0
136,40,93459,2,0,B|96:24|48:24,2,80,8|0|0
136,112,94121,1,0
136,184,94341,1,8
0,112,94782,5,4
0,184,95003,1,0
0,216,95113,1,0
0,248,95223,2,0,B|0:336,2,80,8|0|0
72,248,95885,1,0
136,280,96106,1,8
200,248,96326,1,0
136,208,96547,2,0,B|136:88,2,120,4|4|4
136,280,97429,2,0,B|136:376,2,80,0|0|8
280,280,98312,5,0
352,280,98532,1,0
352,280,98643,1,0
352,280,98753,2,0,B|368:320|408:336,2,80,8|0|0
312,216,99415,1,0
312,216,99635,2,0,B|312:48,2,160,8|4|0
240,216,100738,1,0
96,216,101179,1,0
168,216,101400,1,4
400,40,105371,6,0,B|448:120|392:200,1,160,4|8
328,192,106032,1,0
328,192,106143,1,0
328,192,106253,1,0
256,208,106473,1,0
184,192,106694,1,8
112,344,107135,6,0,B|64:264|120:184,1,160,0|8
184,192,107797,1,0
184,192,107907,1,0
184,192,108018,1,0
256,176,108238,1,0
328,192,108459,1,8
472,192,108900,6,0,B|480:256|416:304|360:272,1,160,0|8
296,264,109562,1,0
224,272,109782,2,0,B|184:256|138:275,1,80
184,336,110223,2,0,B|184:168,1,160,8|4
112,176,110885,1,0
144,112,111106,1,8
216,112,111326,1,4
256,176,111547,2,0,B|256:344,1,160,0|12
440,288,112429,6,0,B|504:288|504:176|432:176,1,160,0|8
392,232,113091,1,0
392,232,113312,2,0,B|328:232|328:120|400:120,1,160,0|8
442,177,113973,1,0
442,177,114194,2,0,B|506:177|506:65|434:65,1,160,0|8
368,64,114856,1,0
296,80,115076,1,0
224,64,115297,1,0
152,72,115518,6,0,B|88:72|88:184|160:184,1,160,8|0
224,184,116179,2,0,B|272:256,1,80,0|8
412,250,116841,1,0
339,250,117062,2,0,B|291:322,1,80,0|8
40,352,117723,6,0,B|136:352,1,80,4|0
232,256,118165,2,0,B|136:256,1,80,8|4
264,160,118606,2,0,B|360:160,1,80,0|0
456,64,119047,2,0,B|360:64,1,80,12|0
304,64,119488,6,0,B|224:88|144:64,1,160,4|0
40,168,120812,1,2
40,240,121032,1,0
104,272,121253,2,0,B|104:352,2,80,0|2|0
168,240,122356,1,0
168,168,122576,1,2
256,56,123018,6,0,B|352:56,1,80,0|2
304,120,123679,2,0,B|384:120,1,80
352,184,124341,2,0,B|432:184,1,80,2|0
432,256,125003,1,2
432,328,125223,1,2
288,328,125665,6,0,B|192:328,1,80,0|2
160,280,126326,1,4
160,280,126768,1,0
112,224,126988,2,0,B|24:224,2,80,2|0|2
112,152,128091,5,0
176,112,128312,2,0,B|216:96|144:72|192:32,2,80,0|2|0
240,152,129415,1,0
176,184,129635,6,0,B|176:272,1,80,2|0
240,296,130297,1,0
312,272,130518,1,2
384,296,130738,1,0
448,264,130959,2,0,B|448:176,1,80,0|2
448,112,131621,5,0
320,48,132062,1,0
272,104,132282,1,0
224,160,132503,1,4
72,96,132944,1,4
120,152,133165,1,0
168,208,133385,1,4
160,352,133826,5,0
160,352,134047,1,8
304,352,134488,2,0,B|400:352,1,80
384,280,134929,2,0,B|464:280,1,80,8|0
464,136,135591,1,0
464,136,135812,1,8
320,136,136253,2,0,B|232:136,1,80
240,64,136694,2,0,B|152:64,1,80,8|0
88,64,137135,5,8
88,64,137356,1,0
40,128,137576,1,8
40,128,137797,1,0
40,216,138018,1,8
40,216,138238,1,0
88,304,138459,1,8
88,304,138679,1,0
184,344,138900,1,8
184,344,139121,1,0
296,344,139341,1,8
296,344,139562,1,0
400,280,139782,1,8
400,280,140003,1,0
448,160,140223,1,8
448,160,140444,1,4
256,192,140665,12,4,141547
256,40,141988,5,8
192,72,142209,1,0
144,128,142429,2,0,B|80:200|128:288,1,160,0|8
176,328,143091,1,0
208,352,143201,1,0
240,360,143312,2,0,B|280:376|320:360,1,80
384,328,143753,1,8
320,288,143973,1,0
288,288,144084,1,0
256,288,144194,2,0,B|216:288|192:240,2,80,0|0|8
256,216,144856,5,0
256,216,145076,2,0,B|304:128|256:56,1,160,0|8
188,63,145738,1,0
188,63,145959,2,0,B|356:63,2,160,0|8|0
116,63,147062,2,0,B|92:103|118:142,1,80,0|8
188,143,147503,1,0
260,143,147723,2,0,B|284:183|258:222,1,80
188,223,148165,1,8
116,223,148385,2,0,B|92:263|118:302,1,80,0|4
256,336,149047,5,8
320,368,149268,1,0
384,336,149488,1,0
256,192,149929,1,8
256,48,150371,1,0
192,16,150591,1,0
128,48,150812,1,8
192,88,151032,1,0
192,88,151143,1,0
192,88,151253,2,0,B|192:184,2,80,0|0|8
384,192,152135,6,0,B|432:272|377:354,1,160,4|8
312,320,152797,1,0
240,296,153018,2,0,B|160:328,1,80
128,264,153459,2,0,B|40:280,1,80,8|0
72,208,153900,2,0,B|8:208|8:100|80:100,1,160,0|8
120,48,154562,2,0,B|184:48|184:156|112:156,1,160,0|0
168,208,155223,5,8
176,208,155334,1,8
184,208,155444,1,8
192,208,155554,1,8
200,208,155665,2,0,B|368:208,1,160,4|8
360,279,156326,1,0
424,239,156547,1,0
424,167,156768,1,0
360,135,156988,2,0,B|200:135,1,160,8|0
200,207,157650,1,0
136,167,157870,1,8
136,95,158091,1,0
200,63,158312,2,0,B|368:63,1,160,0|8
400,232,159194,6,0,B|392:336|288:352,1,160,0|8
232,352,159856,1,0
168,312,160076,1,0
168,312,160187,1,0
104,352,160407,1,0
104,352,160518,1,8
40,312,160738,2,0,B|16:272|43:232,1,80
104,200,161179,1,0
160,152,161400,2,0,B|184:112|157:72,1,80,8|0
104,32,161841,1,0
48,80,162062,2,0,B|24:120|51:160,1,80,0|8
104,200,162503,1,0
168,232,162723,2,0,B|192:272|165:312,1,80
240,307,163165,6,0,B|320:360|401:299,1,160,8|0
440,251,163826,1,0
392,195,164047,1,8
440,139,164268,1,0
392,83,164488,2,8,B|312:30|231:91,1,160,0|8
184,128,165150,1,0
184,128,165260,1,0
184,128,165370,2,0,B|152:168|104:168,2,80,0|0|8
312,192,166253,6,0,B|312:248|312:248|352:304|296:360,1,160,4|8
256,296,166915,1,0
201,343,167135,2,0,B|160:296|200:248|200:248|200:192,1,160,0|8
256,152,167797,1,0
256,152,168018,2,0,B|312:136|200:104|256:56,2,120,4|4|4
256,296,169120,1,0
256,296,169341,1,8
128,240,169782,6,0,B|40:200|32:96,1,160,0|8
48,48,170444,1,0
120,72,170665,2,0,B|128:152|224:192,1,160,0|8
288,189,171326,1,0
360,189,171547,2,4,B|454:189,2,80,0|0|8
256,192,172209,12,0,174194
256,32,185665,5,2
32,192,187429,5,2
256,352,189194,5,2
480,192,190959,5,2
32,192,192723,5,0
256,32,193165,1,2
480,192,193606,1,0
256,352,194047,1,2
192,192,194488,5,0
256,232,194709,1,0
320,192,194929,1,2
256,160,195150,1,0
256,160,195260,1,0
256,160,195370,2,0,B|256:80,2,80,0|0|2
160,328,196253,6,0,B|112:352|32:304|48:240,1,160,0|2
48,184,196915,1,0
48,112,197135,2,0,B|48:24,2,80,0|0|2
192,112,198018,6,0,B|272:80|362:116,1,160,4|8
416,168,198679,1,0
440,208,198790,1,0
440,248,198900,1,0
352,248,199120,1,0
264,248,199341,2,0,B|232:320,1,80,8|0
144,304,199782,2,0,B|144:224,1,80
56,232,200223,2,0,B|8:328,2,80,8|0|0
96,152,200885,1,0
144,80,201106,1,8
320,80,201547,5,0
408,80,201768,1,0
464,152,201988,2,0,B|480:248|408:296,1,160,8|0
328,256,202650,1,0
248,280,202870,2,0,B|200:280|152:304,1,80,8|0
88,256,203312,2,0,B|176:224|208:152,1,160,0|8
120,144,203973,1,0
56,80,204194,1,0
56,80,204304,1,8
120,24,204525,1,0
120,24,204635,1,8
184,80,204856,1,0
184,80,204966,1,0
184,80,205076,2,0,B|264:80,2,80,4|0|8
232,248,205959,5,0
312,272,206179,1,0
400,256,206400,2,0,B|464:200|472:112,1,160,8|0
424,40,207062,1,0
384,120,207282,2,0,B|376:168|328:192,1,80,8|0
256,168,207723,1,0
168,184,207944,2,0,B|128:192|104:240,1,80,0|8
24,80,208606,6,0,B|112:104|176:16,1,160,4|8
232,88,209268,1,0
312,120,209488,2,0,B|336:160|312:216,1,80
232,176,209929,2,0,B|232:264,1,80,8|0
144,256,210370,1,8
320,256,210812,1,8
280,336,211032,1,0
192,336,211253,1,8
144,256,211473,1,0
232,256,211694,5,8
232,248,211804,1,8
232,240,211915,1,8
232,232,212025,1,8
232,224,212135,2,0,B|232:56,1,160,4|8
312,32,212797,1,0
352,24,212907,1,0
392,32,213018,1,0
448,96,213238,1,0
384,160,213459,2,0,B|384:200|368:240,1,80,8|0
288,208,213900,1,0
208,240,214120,2,0,B|200:280|208:320,1,80,0|8
128,280,214562,1,0
48,256,214782,2,0,B|64:216|48:160,2,80,0|0|8
104,88,215665,6,0,B|184:104|264:72,1,160,0|8
352,64,216326,2,0,B|368:168,1,80
408,312,216988,2,0,B|328:296|248:328,1,160,8|0
160,336,217650,2,0,B|144:232,1,80,0|8
232,232,218091,1,0
320,208,218312,1,0
320,120,218532,1,0
232,144,218753,2,0,B|144:176,2,80,8|0|4
400,96,219635,6,0,B|440:184|400:264,1,160,8|0
320,272,220297,1,0
232,256,220518,2,0,B|184:264|152:312,1,80,8|0
80,272,220959,2,0,B|120:256|144:208,1,80
200,152,221400,1,8
264,88,221620,1,0
264,88,221731,1,0
264,88,221841,2,0,B|288:48|320:32,2,80,0|0|8
88,88,222723,6,0,B|32:168|96:251,1,160,4|8
176,216,223385,1,0
256,264,223606,2,0,B|256:360,2,80,0|0|8
336,216,224268,1,0
256,168,224488,2,0,B|256:32,2,120,4|4|4
480,192,225591,5,0
472,280,225812,2,0,B|408:344|312:320,1,160,8|0
240,296,226473,1,0
152,312,226694,2,0,B|112:296|64:312,2,80,8|0|0
184,232,227356,1,0
184,144,227576,1,8
256,192,228018,12,0,231547
