osu file format v12

[General]
AudioFilename: Masazi - Mayday B .mp3
AudioLeadIn: 1500
PreviewTime: 170966
Countdown: 0
SampleSet: Normal
StackLeniency: 0.7
Mode: 0
LetterboxInBreaks: 0
EpilepsyWarning: 1

[Editor]
Bookmarks: 14456,28358,42280,56192,71843,85755,99667,113579,127491,155315,170966,184878,198790,212702,226614,240526,268350,282262,296163,310086
DistanceSpacing: 1
BeatDivisor: 4
GridSize: 4

[Metadata]
Title:mayday B
TitleUnicode:mayday B
Artist:masazi
ArtistUnicode:masazi
Creator:Vass_Bass
Version:Vass-RJ
Source:Touhou
Tags:mononofrog_4sk lunar clock luna dial Sakuya izayoi otomekan embodiment of scarlet devil reiji reiji-Rj dubstep BCI Black_Cherry_Ita Jacob
BeatmapID:233068
BeatmapSetID:74277

[Difficulty]
HPDrainRate:7
CircleSize:5
OverallDifficulty:6
ApproachRate:9
SliderMultiplier:1.8
SliderTickRate:1

[Events]
//Background and Video events
0,0,"Izayoi.Sakuya.full.935625.jpg",0,0
//Break Periods
2,113775,126888
//Storyboard Layer 0 (Background)
//Storyboard Layer 1 (Fail)
//Storyboard Layer 2 (Pass)
//Storyboard Layer 3 (Foreground)
Sprite,Foreground,Centre,"vb.png",320,240 M,0,28358,,450,413 F,0,28358,28792,1,0 S,0,28358,28792,0.4705454,0.581091 F,0,85749,86184,1,0 S,0,85749,86184,0.4692721,0.5798174 F,0,141401,141836,1,0 S,0,141401,141836,0.4748361,0.5795633 F,0,170966,171401,1,0 S,0,170966,171401,0.4736323,0.5783595 F,0,226618,227053,1,0.006896555 S,0,226618,227053,0.473632,0.5783595 F,0,268358,268792,1,0.006896555 S,0,268358,268792,0.4724282,0.5771557 F,0,296184,296618,1,0.006896555 S,0,296184,296618,0.4717043,0.5764318
Sprite,Foreground,Centre,"vb.png",320,240 F,0,97,532,0,1 M,0,532,,448,413 S,0,532,,0.4647272 F,0,532,14227,1 F,0,14227,14445,1,0.3192728 F,0,14445,14456,0.3192728,0 F,0,28358,42053,1 F,0,42053,42271,1,0 F,0,56184,,0 F,0,56184,57053,0,1 F,0,57053,69662,1 F,0,69662,70097,1,0 F,0,85749,99445,1 F,0,99445,99662,1,0 F,0,127488,127923,0.004608274,1 F,0,127923,155097,1,0.9954234 F,0,155097,155314,0.9954234,0 F,0,170966,184662,1 F,0,184662,184879,1,0 F,0,198575,198792,0.01382488,1 F,0,198792,212271,1,0.9909108 F,0,212271,212705,0.9909108,0 F,0,226618,238792,1 F,0,238792,240531,1,0 F,0,268358,282053,1 F,0,282053,282271,1,0 F,0,296184,308140,1 F,0,308140,308358,1,0
Sprite,Foreground,Centre,"rj.png",320,240 M,0,14445,,133,340 F,0,14445,14879,1,0 S,0,14445,14879,0.4647273,0.5345455 F,0,42271,42705,1,0 S,0,42271,42705,0.4577831,0.5334194 F,0,71836,72271,1,0 S,0,71836,72271,0.4636012,0.5334194 F,0,99662,100097,1,0 S,0,99662,100097,0.4631198,0.5329379 F,0,184879,185314,1,0.002298832 S,0,184879,185314,0.4573016,0.5329379 F,0,212705,213140,1,0.002298832 S,0,212705,213140,0.5320685,0.6135232 F,0,282271,282705,1,0.002298832 S,0,282271,282705,0.5378866,0.6135232 F,0,310097,310531,1,0.002298832 S,0,310097,310531,0.4564319,0.5320685
Sprite,Foreground,Centre,"rj.png",320,240 M,0,14445,,133,339 S,0,14445,,0.458909 F,0,14445,28140,1 F,0,28140,28358,1,0 F,0,42271,55966,1 F,0,55966,56184,1,0 F,0,71836,85531,1 F,0,85531,85749,1,0 F,0,99662,111401,1 F,0,111401,111836,1,0 F,0,155314,156184,0,1 F,0,156184,168792,1,0.9931034 F,0,168792,169227,0.9931034,0 F,0,184879,198575,1 F,0,198575,198792,1,0 F,0,212705,226184,1 F,0,226184,226618,1,0 F,0,240531,241401,0.01152074,1 F,0,241401,266618,1,0.9943191 F,0,266618,267488,0.9943191,0 F,0,282271,295966,1 F,0,295966,296184,1,0 F,0,310097,323575,1 F,0,323575,324010,1,0
//Storyboard Sound Samples
//Background Colour Transformations
3,100,163,162,255

[TimingPoints]
532,434.782608695652,4,2,0,60,1,0
532,-133.333333333333,4,2,1,25,0,0
12597,-133.333333333333,4,2,1,25,0,0
14445,-100,4,1,0,60,0,1
14554,-100,4,1,0,50,0,0
16402,-100,4,1,0,30,0,0
17054,-100,4,1,0,40,0,0
17924,-100,4,1,0,50,0,0
19880,-100,4,1,0,40,0,0
20206,-100,4,1,0,45,0,0
20531,-66.6666666666667,4,1,0,60,0,0
21402,-100,4,1,0,50,0,0
23358,-100,4,1,0,30,0,0
24010,-100,4,1,0,40,0,0
24880,-100,4,1,0,50,0,0
26836,-100,4,1,0,40,0,0
27162,-100,4,1,0,45,0,0
27488,-66.6666666666667,4,1,0,60,0,0
28359,-100,4,1,0,45,0,1
28466,-100,4,1,0,45,0,0
30966,-133.333333333333,4,1,0,45,0,0
31836,-100,4,1,0,45,0,0
34445,-133.333333333333,4,1,0,45,0,0
35314,-100,4,1,0,45,0,0
37923,-133.333333333333,4,1,0,45,0,0
38792,-100,4,1,0,45,0,0
40422,-100,4,1,0,35,0,0
41400,-66.6666666666667,4,1,0,45,0,0
41726,-100,4,1,0,45,0,0
44878,-133.333333333333,4,1,0,45,0,0
45748,-100,4,1,0,45,0,0
48356,-133.333333333333,4,1,0,45,0,0
49226,-100,4,1,0,45,0,0
51834,-133.333333333333,4,1,0,45,0,0
52269,-100,4,1,0,45,0,0
55312,-66.6666666666667,4,1,0,45,0,0
56182,-133.333333333333,4,1,0,45,0,0
56290,-133.333333333333,4,2,1,20,0,0
57377,-133.333333333333,4,2,1,10,0,0
57595,-133.333333333333,4,2,1,20,0,0
63029,-133.333333333333,4,2,1,20,0,0
64768,-133.333333333333,4,2,1,35,0,0
66507,-133.333333333333,4,1,1,35,0,0
67376,-133.333333333333,4,1,1,40,0,0
68355,-133.333333333333,4,1,1,45,0,0
69985,-133.333333333333,4,2,1,37,0,0
70637,-133.333333333333,4,1,1,50,0,0
71835,-66.6666666666667,4,1,1,50,0,1
72052,-100,4,1,1,50,0,1
72704,-133.333333333333,4,1,1,60,0,1
73356,-100,4,1,1,50,0,1
74443,-133.333333333333,4,1,1,55,0,1
74878,-100,4,1,1,50,0,1
76182,-100,4,1,1,60,0,1
76291,-100,4,1,1,50,0,1
77921,-100,4,1,1,55,0,1
78791,-66.6666666666667,4,1,1,50,0,1
79117,-100,4,1,1,50,0,1
79660,-133.333333333333,4,1,1,60,0,1
80312,-100,4,1,1,50,0,1
81399,-100,4,1,1,55,0,1
81508,-100,4,1,1,50,0,1
83138,-133.333333333333,4,1,1,50,0,1
83790,-100,4,1,1,50,0,1
84877,-66.6666666666667,4,1,1,60,0,1
85639,-100,4,1,1,60,0,0
85748,-100,4,1,1,50,0,1
86616,-133.333333333333,4,1,1,60,0,1
87268,-100,4,1,1,50,0,1
88247,-100,4,1,1,50,0,1
88464,-100,4,1,1,50,0,1
91725,-100,4,1,1,50,0,1
92703,-66.6666666666667,4,1,1,50,0,1
92920,-100,4,1,1,50,0,1
97050,-133.333333333333,4,1,1,60,0,1
97702,-100,4,1,1,50,0,1
98463,-100,4,1,1,50,0,1
99662,-100,4,1,1,50,0,0
100528,-133.333333333333,4,1,1,50,0,0
101180,-100,4,1,1,50,0,0
102267,-133.333333333333,4,1,1,50,0,0
103137,-100,4,1,1,50,0,0
104006,-133.333333333333,4,1,1,50,0,0
104876,-100,4,1,1,50,0,0
107484,-133.333333333333,4,1,1,50,0,0
108137,-100,4,1,1,50,0,0
109223,-133.333333333333,4,1,1,50,0,0
110201,-133.333333333333,4,1,1,55,0,0
110419,-133.333333333333,4,1,1,60,0,0
110636,-133.333333333333,4,1,1,65,0,0
111940,-133.333333333333,4,1,1,50,0,0
127487,-133.333333333333,4,2,1,20,0,0
139661,-66.6666666666667,4,2,1,40,0,0
139987,-66.6666666666667,4,2,1,45,0,0
140313,-66.6666666666667,4,2,1,50,0,0
140639,-66.6666666666667,4,2,1,55,0,0
140965,-66.6666666666667,4,2,1,60,0,0
141400,-100,4,1,1,45,0,1
141509,-100,4,1,1,45,0,0
144336,-100,4,1,1,30,0,0
144553,-100,4,1,1,45,0,0
147488,-133.333333333333,4,1,1,45,0,0
148356,-100,4,1,1,45,0,0
151292,-100,4,1,1,30,0,0
151510,-100,4,1,1,45,0,0
154010,-100,4,2,1,40,0,0
155311,-133.333333333333,4,2,1,20,0,0
161398,-133.333333333333,4,1,1,20,0,0
162268,-133.333333333333,4,1,1,20,0,0
164011,-133.333333333333,4,1,1,25,0,0
165750,-133.333333333333,4,1,1,30,0,0
166185,-133.333333333333,4,1,1,35,0,0
166619,-133.333333333333,4,1,1,40,0,0
167054,-133.333333333333,4,1,1,45,0,0
167489,-133.333333333333,4,1,1,50,0,0
170965,-66.6666666666667,4,1,1,50,0,1
171291,-100,4,1,1,50,0,1
171834,-133.333333333333,4,1,1,60,0,1
172487,-100,4,1,1,50,0,1
175312,-133.333333333333,4,1,1,60,0,1
175965,-100,4,1,1,50,0,1
177921,-66.6666666666667,4,1,1,50,0,1
178247,-100,4,1,1,50,0,1
178792,-133.333333333333,4,1,1,60,0,1
179229,-100,4,1,1,50,0,1
183140,-133.333333333333,4,1,1,50,0,1
183468,-100,4,1,1,50,0,1
184009,-66.6666666666667,4,1,1,50,0,1
184229,-100,4,1,1,50,0,1
184771,-100,4,1,1,50,0,0
184878,-100,4,1,1,50,0,1
185746,-133.333333333333,4,1,1,60,0,1
186399,-100,4,1,1,50,0,1
187485,-133.333333333333,4,1,1,55,0,1
188355,-100,4,1,1,50,0,1
189224,-100,4,1,1,60,0,1
189333,-100,4,1,1,50,0,1
190963,-100,4,1,1,55,0,1
191833,-66.6666666666667,4,1,1,50,0,1
192159,-100,4,1,1,50,0,1
192702,-133.333333333333,4,1,1,60,0,1
193355,-100,4,1,1,50,0,1
194441,-133.333333333333,4,1,1,50,0,1
195311,-100,4,1,1,50,0,1
196180,-100,4,1,1,60,0,1
196289,-100,4,1,1,50,0,1
197050,-100,4,1,1,55,0,1
198792,-100,4,1,1,50,0,0
199658,-133.333333333333,4,1,1,50,0,0
200310,-100,4,1,1,50,0,0
201397,-66.6666666666667,4,1,1,50,0,0
202157,-100,4,1,1,50,0,0
206614,-133.333333333333,4,1,1,50,0,0
207048,-100,4,1,1,50,0,0
212704,-133.333333333333,4,1,1,50,0,0
214443,-133.333333333333,4,1,1,35,0,0
215313,-133.333333333333,4,1,1,50,0,0
217921,-133.333333333333,4,1,1,35,0,0
218791,-66.6666666666667,4,1,1,60,0,0
219660,-133.333333333333,4,1,1,50,0,0
221399,-133.333333333333,4,1,1,35,0,0
222269,-133.333333333333,4,1,1,50,0,0
228355,-133.333333333333,4,1,1,35,0,0
229333,-133.333333333333,4,1,1,50,0,0
230094,-100,4,1,1,50,0,0
230964,-133.333333333333,4,1,1,50,0,0
231290,-133.333333333333,4,1,1,25,0,0
231724,-133.333333333333,4,1,1,40,0,0
232703,-66.6666666666667,4,1,1,50,0,0
233463,-133.333333333333,4,1,1,50,0,0
240530,-200,4,2,1,10,0,0
254443,-133.333333333333,4,2,1,35,0,0
262271,-133.333333333333,4,2,1,40,0,0
263140,-133.333333333333,4,2,1,45,0,0
264879,-133.333333333333,4,2,1,40,0,0
265314,-133.333333333333,4,2,1,45,0,0
265749,-133.333333333333,4,2,1,45,0,0
266618,-200,4,2,1,25,0,0
268357,-66.6666666666667,4,1,1,50,0,1
268575,-100,4,1,1,50,0,1
269118,-100,4,1,1,50,0,0
269227,-133.333333333333,4,1,1,60,0,1
269879,-100,4,1,1,50,0,1
270966,-133.333333333333,4,1,1,60,0,1
271400,-100,4,1,1,50,0,1
272705,-133.333333333333,4,1,1,60,0,1
273357,-100,4,1,1,50,0,1
275205,-100,4,1,1,50,0,0
275313,-66.6666666666667,4,1,1,50,0,1
275531,-100,4,1,1,50,0,1
276074,-100,4,1,1,50,0,0
276183,-133.333333333333,4,1,1,60,0,1
276835,-100,4,1,1,50,0,1
278791,-66.6666666666667,4,1,1,50,0,1
279009,-100,4,1,1,50,0,1
279661,-133.333333333333,4,1,1,60,0,1
280095,-100,4,1,1,50,0,1
281400,-66.6666666666667,4,1,1,50,0,1
282161,-66.6666666666667,4,1,1,50,0,0
282271,-100,4,1,1,50,0,1
283030,-100,4,1,1,50,0,0
283139,-133.333333333333,4,1,1,60,0,1
283791,-100,4,1,1,50,0,1
284878,-133.333333333333,4,1,1,55,0,1
285747,-66.6666666666667,4,1,1,50,0,1
286073,-100,4,1,1,50,0,1
286617,-133.333333333333,4,1,1,60,0,1
287269,-100,4,1,1,50,0,1
289119,-100,4,1,1,50,0,0
289227,-66.6666666666667,4,1,1,50,0,1
289553,-100,4,1,1,50,0,1
289988,-100,4,1,1,50,0,0
290097,-133.333333333333,4,1,1,60,0,1
290749,-100,4,1,1,50,0,1
292705,-66.6666666666667,4,1,1,50,0,1
293031,-100,4,1,1,50,0,1
293575,-133.333333333333,4,1,1,60,0,1
294227,-100,4,1,1,50,0,1
294444,-100,4,1,1,55,0,1
296183,-100,4,1,1,50,0,0
297053,-133.333333333333,4,1,1,50,0,0
297705,-100,4,1,1,50,0,0
298792,-66.6666666666667,4,1,1,50,0,0
299444,-100,4,1,1,50,0,0
304009,-133.333333333333,4,1,1,50,0,0
304661,-100,4,1,1,50,0,0
307378,-100,4,1,1,50,0,0
308465,-100,4,1,1,50,0,0
310095,-66.6666666666667,4,1,1,50,0,0
310421,-100,4,1,1,50,0,0
312052,-100,4,1,1,35,0,0
312704,-100,4,1,1,40,0,0
313573,-100,4,1,1,50,0,0
315457,-100,4,1,1,40,0,0
315747,-100,4,1,1,45,0,0
316182,-66.6666666666667,4,1,1,60,0,0
317051,-100,4,1,1,50,0,0
319008,-100,4,1,1,30,0,0
319662,-100,4,1,1,40,0,0
320097,-66.6666666666667,4,1,1,40,0,0
320531,-100,4,1,1,50,0,0
322415,-100,4,1,1,40,0,0
322705,-100,4,1,1,45,0,0
323140,-66.6666666666667,4,1,1,60,0,0
323575,-66.6666666666667,4,1,1,40,0,0

[Colours]
Combo1 : 255,255,255
Combo2 : 43,206,198
Combo3 : 82,121,131
Combo4 : 68,111,100
Combo5 : 82,172,180
Combo6 : 255,159,136

[HitObjects]
132,112,532,2,0,P|168:108|208:112,1,67.5000025749208
200,272,966,2,0,P|182:240|170:202,1,67.5000025749208
268,184,1401,2,0,P|308:168|416:192,1,135.000005149842,8|0,0:0|0:0,0:0:0:0:
488,124,2053,1,0,0:0:0:0:
504,232,2271,1,0,0:0:0:0:
400,184,2488,1,0,0:0:0:0:
508,236,2705,2,0,P|512:276|512:308,1,67.5000025749208
424,360,3140,2,0,P|384:344|280:368,1,135.000005149842,8|0,0:0|0:0,0:0:0:0:
244,304,3792,1,0,0:0:0:0:
104,348,4010,6,0,P|136:360|172:364,1,67.5000025749208
244,304,4445,2,0,P|212:292|176:288,1,67.5000025749208
64,264,4879,2,0,B|84:200|40:192|60:124,1,135.000005149842,8|0,0:0|0:0,0:0:0:0:
128,64,5531,1,0,0:0:0:0:
40,44,5749,2,0,L|-32:60,1,67.5000025749208
128,64,6184,2,0,L|193:49,1,67.5000025749208
296,108,6618,1,8,0:0:0:0:
296,108,7053,1,0,0:0:0:0:
384,88,7271,1,0,0:0:0:0:
480,64,7488,6,0,L|484:136,1,67.5000025749208
384,88,7923,2,0,L|388:160,1,67.5000025749208
296,108,8358,2,0,P|300:176|304:248,1,135.000005149842,8|0,0:0|0:0,0:0:0:0:
384,308,9010,1,0,0:0:0:0:
384,308,9227,2,0,P|420:296|452:296,1,67.5000025749208
300,312,9662,2,0,P|272:324|236:328,1,67.5000025749208
160,232,10097,1,8,0:0:0:0:
160,232,10531,1,0,0:0:0:0:
176,136,10749,1,0,0:0:0:0:
192,44,10966,6,0,L|264:36,1,67.5000025749208
176,136,11401,2,0,L|108:143,1,67.5000025749208
24,252,11836,2,0,P|80:244|160:232,1,135.000005149842,8|0,0:0|0:0,0:0:0:0:
264,192,12488,1,0,0:0:0:0:
180,140,12705,5,2,0:0:0:0:
160,236,12923,1,0,0:0:0:0:
268,196,13140,1,2,0:0:0:0:
184,144,13358,1,0,0:0:0:0:
164,240,13575,1,2,0:0:0:0:
256,312,13792,1,2,0:0:0:0:
260,312,13901,1,0,0:0:0:0:
264,312,14010,1,2,0:0:0:0:
360,264,14227,1,0,0:0:0:0:
432,52,14445,22,0,L|340:64,1,90,4|0,0:0|2:0,0:0:0:0:
252,96,14771,2,0,L|116:80,1,135,2|0,2:0|0:0,0:0:0:0:
68,212,15314,2,0,P|64:260|76:304,1,90,2|2,0:0|0:0,0:0:0:0:
260,184,15749,2,0,P|264:136|252:92,1,90,2|2,0:0|0:0,0:0:0:0:
164,180,16184,5,4,0:0:0:0:
257,308,16401,1,0,0:0:0:0:
273,301,16510,1,0,0:0:0:0:
290,297,16618,1,0,0:0:0:0:
308,296,16727,1,0,0:0:0:0:
325,299,16836,1,0,0:0:0:0:
341,304,16945,1,0,0:0:0:0:
356,312,17053,5,0,0:0:0:0:
372,297,17162,1,0,0:0:0:0:
385,279,17271,1,0,0:0:0:0:
393,257,17379,1,0,0:0:0:0:
397,234,17488,1,0,0:0:0:0:
397,211,17597,1,0,0:0:0:0:
392,188,17705,1,0,0:0:0:0:
386,166,17814,1,0,0:0:0:0:
364,132,17923,6,0,L|271:127,1,90,4|0,0:0|2:0,0:0:0:0:
68,204,18249,2,0,L|204:199,1,135,2|0,2:0|0:0,0:0:0:0:
330,198,18792,1,2,0:0:0:0:
226,274,19010,1,2,0:0:0:0:
266,146,19227,1,2,0:0:0:0:
310,274,19445,1,2,0:0:0:0:
456,208,19662,38,2,P|464:160|460:120,1,90,4|0,0:0|0:0,0:0:0:0:
444,108,19988,1,0,0:0:0:0:
428,100,20097,1,0,0:0:0:0:
412,92,20205,1,0,0:0:0:0:
396,84,20314,1,0,0:0:0:0:
380,76,20423,1,0,0:0:0:0:
288,88,20531,70,2,P|184:68|96:104,1,202.500007724762,4|0,0:0|2:0,0:0:0:0:
192,232,20966,2,2,P|296:252|388:216,1,202.500007724762,2|0,0:0|2:0,0:0:0:0:
464,280,21401,21,4,0:0:0:0:
184,336,21618,1,2,2:0:0:0:
184,336,21727,2,0,P|116:316|56:332,1,135
76,184,22271,2,0,L|64:92,1,90,2|2,0:0|0:0,0:0:0:0:
216,40,22705,2,0,L|208:132,1,90,2|2,0:0|0:0,0:0:0:0:
200,256,23140,6,0,L|292:248,1,90,4|0,0:0|0:0,0:0:0:0:
312,249,23466,1,0,0:0:0:0:
333,252,23575,1,0,0:0:0:0:
355,256,23684,1,0,0:0:0:0:
377,260,23792,1,0,0:0:0:0:
398,266,23901,1,0,0:0:0:0:
419,272,24010,5,0,0:0:0:0:
435,265,24118,1,0,0:0:0:0:
452,259,24227,1,0,0:0:0:0:
469,255,24336,1,0,0:0:0:0:
486,252,24445,2,0,P|500:182|488:120,1,135
404,152,24879,37,4,0:0:0:0:
404,152,25097,1,2,2:0:0:0:
404,152,25205,2,0,L|264:144,1,135
48,84,25749,2,0,L|140:76,1,90,2|2,0:0|0:0,0:0:0:0:
272,148,26184,1,2,0:0:0:0:
140,80,26401,1,2,0:0:0:0:
116,184,26618,6,2,P|116:228|124:276,1,90,4|0,0:0|0:0,0:0:0:0:
132,289,26945,1,0,0:0:0:0:
141,304,27053,1,0,0:0:0:0:
153,317,27162,1,0,0:0:0:0:
168,327,27271,1,0,0:0:0:0:
184,333,27379,1,0,0:0:0:0:
201,335,27488,54,2,B|271:320|271:320|324:329|324:329|400:316,1,202.500007724762,0|0,0:0|0:0,0:0:0:0:
496,342,27923,1,2,0:0:0:0:
324,244,28140,1,0,0:0:0:0:
324,244,28249,1,0,0:0:0:0:
324,244,28358,37,4,0:0:0:0:
280,76,28684,1,0,0:0:0:0:
280,76,28792,2,0,L|376:84,1,90,0|0,2:0|0:0,0:0:0:0:
392,192,29227,2,0,P|304:164|240:216,1,180,0|0,0:0|2:0,0:0:0:0:
324,244,29879,1,0,0:0:0:0:
396,300,30097,2,0,P|344:332|268:316,1,135
104,276,30531,2,0,P|147:265|191:273,1,90,0|0,2:0|0:0,0:0:0:0:
268,84,30966,22,2,P|272:136|256:184,1,101.250003862381,2|0,0:0|0:0,0:0:0:0:
120,132,31401,2,2,B|156:132|156:132|192:140,1,67.5000025749208,0|0,2:0|0:0,0:0:0:0:
432,184,31836,70,0,P|368:184|292:192,1,135
288,184,32271,1,0,2:0:0:0:
180,144,32488,1,0,0:0:0:0:
192,256,32705,1,0,0:0:0:0:
192,256,33140,2,0,P|228:284|248:324,1,90,0|0,2:0|0:0,0:0:0:0:
44,368,33575,2,0,P|104:328|168:332,1,135
320,356,34010,2,0,P|372:352|408:336,1,90,0|0,2:0|0:0,0:0:0:0:
192,256,34445,6,2,L|200:144,1,101.250003862381,2|0,0:0|2:0,0:0:0:0:
296,176,34879,2,2,L|304:68,1,101.250003862381,0|0,0:0|2:0,0:0:0:0:
392,32,35314,21,0,0:0:0:0:
456,184,35640,1,0,0:0:0:0:
456,184,35749,2,0,P|444:232|448:280,1,90,0|0,2:0|0:0,0:0:0:0:
508,336,36184,2,0,P|444:308|364:344,1,135,0|0,0:0|2:0,0:0:0:0:
208,364,36618,2,0,P|260:368|296:360,1,90,0|0,2:0|0:0,0:0:0:0:
296,268,37053,2,0,P|296:204|260:136,1,135
184,104,37488,2,0,P|187:153|207:189,1,90,0|0,2:0|0:0,0:0:0:0:
467,222,37923,54,2,P|420:204|368:204,1,101.250003862381,2|0,0:0|0:0,0:0:0:0:
352,108,38358,2,2,L|376:44,1,67.5000025749208,0|0,2:0|0:0,0:0:0:0:
248,24,38792,37,0,0:0:0:0:
256,332,39118,1,0,0:0:0:0:
256,332,39227,2,0,P|256:272|248:232,1,90,0|0,2:0|0:0,0:0:0:0:
352,108,39662,1,0,0:0:0:0:
136,136,40097,2,0,P|136:188|140:228,1,90,0|0,2:0|0:0,0:0:0:0:
256,332,40531,1,0,0:0:0:0:
272,328,40640,1,0,0:0:0:0:
288,324,40749,1,0,0:0:0:0:
304,320,40858,1,0,0:0:0:0:
320,316,40966,1,0,0:0:0:0:
336,312,41075,1,0,0:0:0:0:
352,308,41184,1,0,0:0:0:0:
368,304,41292,1,0,0:0:0:0:
384,300,41401,54,2,B|420:196|420:196|388:108,1,202.500007724762,2|0,0:0|0:0,0:0:0:0:
372,100,41836,1,0,0:0:0:0:
372,100,41945,1,0,0:0:0:0:
372,100,42053,1,0,0:0:0:0:
372,100,42162,1,0,0:0:0:0:
372,100,42271,37,4,0:0:0:0:
188,56,42597,1,0,0:0:0:0:
244,236,42923,1,0,0:0:0:0:
268,132,43140,1,0,0:0:0:0:
264,136,43575,2,0,L|172:144,1,90,0|0,2:0|0:0,0:0:0:0:
48,272,44010,2,0,L|140:264,1,90,0|0,0:0|2:0,0:0:0:0:
244,236,44336,2,0,P|304:260|376:256,1,135
488,176,44879,22,2,B|488:228|488:228|472:274,1,101.250003862381,6|0,0:0|0:0,0:0:0:0:
420,69,45314,2,2,B|408:108|408:108|408:140,1,67.5000025749208,0|0,2:0|0:0,0:0:0:0:
373,257,45749,69,0,0:0:0:0:
232,336,46075,1,0,0:0:0:0:
224,176,46401,1,0,0:0:0:0:
140,264,46618,2,0,P|100:276|44:272,1,90,0|0,0:0|2:0,0:0:0:0:
108,152,47053,2,0,P|96:112|104:64,1,90,0|0,2:0|0:0,0:0:0:0:
224,176,47488,2,0,P|236:216|228:264,1,90,0|0,0:0|2:0,0:0:0:0:
312,320,47814,2,0,B|380:308|380:308|456:312,1,135
445,312,48358,6,2,L|456:212,1,101.250003862381,6|0,0:0|2:0,0:0:0:0:
364,36,48792,2,2,L|372:136,1,101.250003862381,0|0,1:0|2:0,0:0:0:0:
288,208,49227,21,0,0:0:0:0:
72,160,49553,1,0,0:0:0:0:
288,208,49879,1,0,0:0:0:0:
368,256,50097,2,0,P|368:300|356:344,1,90,0|0,0:0|2:0,0:0:0:0:
208,256,50531,2,0,P|196:212|196:168,1,90,0|0,2:0|0:0,0:0:0:0:
288,104,50966,1,0,0:0:0:0:
484,64,51292,1,0,0:0:0:0:
288,104,51618,1,0,0:0:0:0:
184,72,51836,54,2,L|80:80,1,101.250003862381,4|0,0:0|0:0,0:0:0:0:
136,172,52271,2,2,L|44:180,1,90,0|0,2:0|0:0,0:0:0:0:
108,268,52705,38,0,P|104:316|120:360,1,90,4|0,0:0|2:0,0:0:0:0:
228,324,53031,2,0,P|297:324|365:332,1,135
456,352,53575,1,0,0:0:0:0:
460,356,54010,1,0,2:0:0:0:
472,256,54227,1,0,0:0:0:0:
488,156,54445,1,4,0:0:0:0:
344,68,54662,1,0,0:0:0:0:
344,68,54771,1,0,0:0:0:0:
344,232,54988,1,0,0:0:0:0:
344,232,55097,1,0,0:0:0:0:
248,156,55314,54,2,P|144:148|44:168,1,202.500007724762,6|0,0:0|2:0,0:0:0:0:
64,304,55749,2,2,P|168:312|268:292,1,202.500007724762,0|0,0:0|2:0,0:0:0:0:
360,332,56184,37,4,0:0:0:0:
360,332,56836,1,0,0:0:0:0:
476,244,57053,2,0,P|496:176|480:108,1,135.000005149842,8|0,1:0|0:0,0:0:0:0:
264,120,57923,6,0,B|169:76|169:76|69:82,1,202.500007724762,0|0,1:0|1:0,0:0:0:0:
57,80,58792,1,8,1:0:0:0:
176,244,59662,38,0,B|270:287|270:287|370:281,1,202.500007724762,0|0,1:0|1:0,0:0:0:0:
368,281,60531,2,0,B|356:168|356:168|372:116|372:116|364:16,1,270.000010299683,8|0,1:0|1:0,0:0:0:0:
344,16,61836,1,0,1:0:0:0:
324,16,62271,1,4,1:0:0:0:
384,300,63140,6,0,P|344:300|308:296,1,67.5000025749208,0|0,1:0|0:0,0:0:0:0:
212,208,63575,2,0,P|252:208|288:212,1,67.5000025749208,0|0,1:0|0:0,0:0:0:0:
380,160,64010,2,0,L|388:92,1,67.5000025749208,8|0,1:0|0:0,0:0:0:0:
204,140,64445,2,0,L|212:208,1,67.5000025749208,0|0,1:0|0:0,0:0:0:0:
300,292,64879,2,0,L|308:224,1,67.5000025749208,0|0,1:0|0:0,0:0:0:0:
124,272,65314,2,0,L|132:340,1,67.5000025749208,0|0,1:0|0:0,0:0:0:0:
240,328,65749,2,0,P|312:324|384:328,1,135.000005149842,8|0,1:0|1:0,0:0:0:0:
488,268,66401,1,0,0:0:0:0:
376,212,66618,5,0,0:0:0:0:
380,328,66836,1,0,0:0:0:0:
492,272,67053,1,0,0:0:0:0:
380,216,67271,1,0,0:0:0:0:
384,332,67488,1,0,0:0:0:0:
496,276,67705,1,0,0:0:0:0:
384,220,67923,1,0,0:0:0:0:
256,264,68140,1,0,0:0:0:0:
256,264,68249,1,0,0:0:0:0:
256,264,68358,5,0,0:0:0:0:
212,140,68575,1,0,0:0:0:0:
336,96,68792,1,0,0:0:0:0:
384,220,69010,1,0,0:0:0:0:
256,192,69227,12,4,70097,2:0:0:0:
168,116,70749,6,0,L|176:80,2,33.7500012874604,0|0|0,2:0|0:0|0:0,0:0:0:0:
96,216,71184,1,0,0:0:0:0:
176,320,71401,1,0,0:0:0:0:
188,316,71510,1,0,0:0:0:0:
200,312,71618,1,0,0:0:0:0:
212,308,71727,1,0,2:0:0:0:
224,304,71836,6,0,L|360:316,1,135.000005149842,4|0,0:0|2:0,0:0:0:0:
440,232,72162,6,0,P|464:164|448:104,1,135
312,64,72705,54,2,B|244:68|244:68|184:96|184:96|116:96,1,202.500007724762,4|2,0:0|2:0,0:0:0:0:
36,188,73575,38,0,L|132:191,1,90,0|0,0:0|2:0,0:0:0:0:
240,276,73901,2,0,L|150:275,1,90,0|0,0:0|2:0,0:0:0:0:
64,316,74227,1,0,0:0:0:0:
304,200,74445,38,2,B|368:192|368:192|436:216,1,135.000005149842,6|2,0:0|0:0,0:0:0:0:
392,296,75097,1,2,2:0:0:0:
240,276,75314,54,0,P|176:260|104:264,2,135
392,296,76184,1,6,0:0:0:0:
332,96,76401,1,0,2:0:0:0:
144,152,76618,1,0,2:0:0:0:
204,352,76836,1,2,2:0:0:0:
396,300,77053,6,0,P|416:232|408:168,2,135
204,352,77923,1,6,0:0:0:0:
204,352,78032,1,0,0:0:0:0:
280,252,78249,1,0,0:0:0:0:
280,252,78358,1,2,0:0:0:0:
96,304,78575,1,0,0:0:0:0:
92,292,78684,1,0,0:0:0:0:
88,280,78792,22,0,L|92:144,1,135.000005149842,4|0,0:0|2:0,0:0:0:0:
196,40,79118,6,0,L|192:180,1,135
280,252,79662,54,2,B|360:232|360:232|484:244,1,202.500007724762,4|2,0:0|2:0,0:0:0:0:
216,332,80532,38,0,P|172:328|120:324,1,90,0|0,0:0|2:0,0:0:0:0:
72,156,80858,2,0,L|164:164,1,90,0|0,0:0|2:0,0:0:0:0:
280,252,81184,2,0,L|190:244,1,90,0|6,0:0|0:0,0:0:0:0:
312,336,81618,1,0,2:0:0:0:
328,336,81727,1,0,0:0:0:0:
344,336,81836,1,0,2:0:0:0:
444,352,82053,1,0,0:0:0:0:
464,244,82271,6,0,P|476:196|468:148,1,90,0|0,0:0|2:0,0:0:0:0:
372,188,82597,2,0,L|236:196,1,135
24,260,83140,22,2,B|122:244|122:244|216:284,1,202.500007724762,4|2,0:0|2:0,0:0:0:0:
348,336,84010,69,0,0:0:0:0:
320,208,84227,1,0,0:0:0:0:
320,208,84336,1,0,0:0:0:0:
220,288,84553,1,0,0:0:0:0:
220,288,84662,1,0,0:0:0:0:
392,256,84879,21,4,0:0:0:0:
472,140,85097,1,0,0:0:0:0:
468,116,85205,1,0,0:0:0:0:
464,88,85314,1,0,0:0:0:0:
312,80,85532,1,0,0:0:0:0:
284,88,85640,1,0,0:0:0:0:
256,96,85749,5,4,0:0:0:0:
52,216,86075,1,0,0:0:0:0:
52,216,86184,2,0,P|98:221|148:232,1,90,0|0,2:0|0:0,0:0:0:0:
288,332,86618,54,2,B|208:316|208:316|168:328|168:328|88:312,1,202.500007724762,4|2,0:0|2:0,0:0:0:0:
316,248,87488,38,0,L|224:232,1,90,0|2,0:0|2:0,0:0:0:0:
132,168,87814,2,0,P|120:116|136:32,1,135
336,180,88358,1,6,0:0:0:0:
248,332,88575,1,0,2:0:0:0:
368,340,88792,1,0,0:0:0:0:
240,224,89010,1,2,2:0:0:0:
320,272,89227,6,0,P|388:244|448:252,2,135
120,296,90097,2,2,L|124:200,1,90,6|2,0:0|2:0,0:0:0:0:
240,224,90532,2,0,L|244:124,1,90,0|0,2:0|0:0,0:0:0:0:
152,36,90966,1,0,0:0:0:0:
336,92,91184,1,0,0:0:0:0:
336,92,91292,2,0,P|412:92|480:100,1,135,0|4,0:0|0:0,0:0:0:0:
464,256,91836,5,2,0:0:0:0:
464,256,91945,1,0,0:0:0:0:
348,324,92162,1,0,0:0:0:0:
348,324,92271,1,2,0:0:0:0:
336,216,92488,1,0,0:0:0:0:
336,216,92597,1,0,0:0:0:0:
336,216,92705,22,0,P|284:232|204:216,1,135.000005149842,4|0,0:0|2:0,0:0:0:0:
76,132,93032,22,0,P|140:112|216:116,1,135
348,24,93575,2,2,L|340:132,1,90,6|2,0:0|2:0,0:0:0:0:
472,208,94010,2,0,L|480:112,1,90,0|0,2:0|0:0,0:0:0:0:
336,216,94445,6,0,P|276:208|196:232,1,135,0|0,0:0|0:0,0:0:0:0:
144,320,94879,2,0,P|196:328|240:312,1,90,0|0,2:0|0:0,0:0:0:0:
116,108,95314,2,2,P|104:172|118:241,1,135,6|0,0:0|0:0,0:0:0:0:
128,240,95749,1,0,2:0:0:0:
368,116,95966,1,0,0:0:0:0:
256,188,96184,5,4,0:0:0:0:
428,220,96510,1,0,0:0:0:0:
328,292,96836,1,0,0:0:0:0:
340,204,97053,6,2,B|352:128|352:128|344:80|344:80|356:4,1,202.500007724762,4|2,0:0|2:0,0:0:0:0:
448,80,97923,21,0,0:0:0:0:
448,80,98140,1,0,0:0:0:0:
448,80,98358,1,0,0:0:0:0:
472,188,98575,5,0,0:0:0:0:
461,190,98684,1,0,0:0:0:0:
450,193,98792,1,0,0:0:0:0:
316,152,99010,1,0,0:0:0:0:
336,272,99227,1,0,0:0:0:0:
322,278,99336,1,0,0:0:0:0:
309,284,99445,1,0,0:0:0:0:
296,290,99553,1,0,0:0:0:0:
283,296,99662,5,4,0:0:0:0:
64,272,99988,1,0,0:0:0:0:
208,120,100314,1,0,0:0:0:0:
284,180,100532,22,2,B|356:160|356:160|488:176,1,202.500007724762,4|0,0:0|0:0,0:0:0:0:
424,256,101401,70,0,P|432:300|416:344,1,90,0|0,0:0|2:0,0:0:0:0:
417,342,101727,2,0,P|353:318|289:334,1,135
60,324,102271,6,2,L|162:338,1,101.250003862381,4|0,0:0|0:0,0:0:0:0:
172,348,102705,2,2,L|184:280,1,67.5000025749208,0|0,0:0|0:0,0:0:0:0:
240,208,103140,21,0,0:0:0:0:
456,244,103466,1,0,0:0:0:0:
296,268,103792,1,0,0:0:0:0:
216,288,104010,54,2,B|144:268|144:268|20:296,1,202.500007724762,4|0,0:0|0:0,0:0:0:0:
336,160,104879,38,0,L|472:152,2,135
212,192,105749,1,0,0:0:0:0:
340,240,105966,1,2,2:0:0:0:
260,124,106184,1,0,0:0:0:0:
264,260,106401,1,2,2:0:0:0:
100,136,106618,5,4,0:0:0:0:
96,132,106945,1,0,0:0:0:0:
92,128,107271,1,0,0:0:0:0:
196,72,107488,22,2,B|260:64|260:64|328:84|328:84|400:76,1,202.500007724762,4|0,0:0|0:0,0:0:0:0:
460,192,108358,69,4,0:0:0:0:
464,196,108684,1,0,0:0:0:0:
468,200,109010,1,0,0:0:0:0:
376,288,109227,6,2,L|276:276,1,101.250003862381,4|0,0:0|0:0,0:0:0:0:
196,296,109662,2,2,L|268:288,1,67.5000025749208,0|0,2:0|0:0,0:0:0:0:
212,200,110097,21,0,0:0:0:0:
112,212,110314,1,0,0:0:0:0:
204,108,110532,5,0,0:0:0:0:
304,96,110749,1,0,0:0:0:0:
456,168,110966,5,0,0:0:0:0:
442,170,111075,1,0,0:0:0:0:
428,172,111184,1,0,0:0:0:0:
414,174,111292,1,0,0:0:0:0:
400,175,111401,1,0,0:0:0:0:
386,177,111510,1,0,0:0:0:0:
372,179,111618,1,0,0:0:0:0:
358,181,111727,1,0,0:0:0:0:
344,183,111836,1,4,0:0:0:0:
84,296,112488,22,0,L|40:288,2,33.7500012874604
184,332,112923,1,0,0:0:0:0:
300,292,113140,1,0,0:0:0:0:
316,292,113249,1,0,0:0:0:0:
332,292,113358,1,0,0:0:0:0:
452,316,113575,5,4,0:0:0:0:
68,158,127488,38,0,B|136:144|136:144|192:160|192:160|272:144,1,202.500007724762
272,140,128358,1,0,0:0:0:0:
440,332,129227,1,0,0:0:0:0:
360,240,129553,1,0,0:0:0:0:
292,340,129879,1,0,0:0:0:0:
284,344,130097,1,0,0:0:0:0:
444,158,130966,6,0,B|376:144|376:144|320:160|320:160|240:144,1,202.500007724762
244,136,131836,1,0,0:0:0:0:
72,332,132705,1,0,0:0:0:0:
152,240,133032,1,0,0:0:0:0:
220,340,133358,37,2,0:0:0:0:
232,344,133466,1,0,0:0:0:0:
244,348,133575,1,2,0:0:0:0:
364,324,133901,1,2,0:0:0:0:
488,304,134227,1,2,0:0:0:0:
488,304,134445,6,0,B|496:236|496:236|488:184|488:184|496:100,1,202.500007724762
488,96,135314,1,8,0:0:0:0:
256,36,136184,1,2,0:0:0:0:
252,40,137053,1,2,0:0:0:0:
168,152,137705,2,0,L|136:160,3,22.5000008583069,2|0|0|2,0:0|0:0|0:0|0:0,0:0:0:0:
224,340,139227,1,2,0:0:0:0:
236,332,139336,1,0,0:0:0:0:
248,324,139445,1,2,0:0:0:0:
260,316,139553,1,0,0:0:0:0:
272,308,139662,54,0,P|292:252|280:176,1,135.000005149842,0|8,1:0|0:0,0:0:0:0:
148,112,139988,2,0,P|148:176|188:236,1,135.000005149842,0|8,1:0|0:0,0:0:0:0:
281,179,140314,2,0,L|437:167,1,135.000005149842,0|8,1:0|0:0,0:0:0:0:
148,112,140640,2,0,L|13:122,1,135.000005149842,0|8,1:0|0:0,0:0:0:0:
12,96,140966,1,0,1:0:0:0:
80,232,141184,1,8,0:0:0:0:
88,260,141292,1,0,0:0:0:0:
96,284,141401,5,4,0:0:0:0:
264,384,141727,1,0,0:0:0:0:
264,384,141836,2,0,L|396:376,1,90,0|0,2:0|0:0,0:0:0:0:
476,264,142271,2,0,B|420:268|420:268|376:292|376:292|296:296,1,180,0|0,0:0|2:0,0:0:0:0:
92,248,142923,1,0,0:0:0:0:
92,248,143140,2,0,P|162:220|245:223,1,135
356,216,143575,2,0,P|364:168|360:128,1,90,0|0,2:0|0:0,0:0:0:0:
232,24,144010,2,2,P|224:80|232:164,1,135,2|0,0:0|0:0,0:0:0:0:
240,164,144445,53,2,0:0:0:0:
448,192,144662,1,0,0:0:0:0:
356,216,144879,38,0,P|364:276|352:360,1,135
248,336,145314,2,0,P|204:332|156:340,1,90,0|0,2:0|0:0,0:0:0:0:
0,256,145749,2,0,P|96:276|180:232,1,180,0|0,0:0|2:0,0:0:0:0:
280,192,146401,1,0,0:0:0:0:
184,152,146618,2,0,L|180:12,1,135,0|0,0:0|0:0,0:0:0:0:
276,102,147053,2,0,L|280:192,1,90,0|0,2:0|0:0,0:0:0:0:
416,120,147488,38,2,L|408:224,1,101.250003862381,2|0,0:0|2:0,0:0:0:0:
280,192,147923,2,2,L|304:304,1,101.250003862381,0|0,0:0|2:0,0:0:0:0:
408,220,148358,69,0,0:0:0:0:
188,336,148684,1,0,0:0:0:0:
188,336,148792,2,0,P|144:332|100:352,1,90,0|0,2:0|0:0,0:0:0:0:
268,352,149227,2,0,P|368:376|440:332,1,180,0|0,0:0|2:0,0:0:0:0:
348,288,149879,1,0,0:0:0:0:
400,216,150097,2,0,P|339:199|272:226,1,135,0|0,0:0|0:0,0:0:0:0:
264,220,150532,1,0,2:0:0:0:
96,112,150749,1,0,0:0:0:0:
96,112,150966,2,2,P|168:124|228:96,1,135,2|0,0:0|0:0,0:0:0:0:
228,88,151401,5,2,0:0:0:0:
496,68,151618,1,0,0:0:0:0:
388,88,151836,22,0,P|372:152|400:240,1,135
404,228,152271,2,0,P|356:224|312:240,1,90,0|0,2:0|0:0,0:0:0:0:
232,384,152705,2,0,P|308:388|368:312,1,180,0|0,0:0|2:0,0:0:0:0:
276,300,153358,1,0,0:0:0:0:
128,320,153575,1,0,0:0:0:0:
128,320,153684,1,0,0:0:0:0:
128,320,153792,1,0,0:0:0:0:
156,228,154010,5,2,0:0:0:0:
240,220,154445,1,4,0:0:0:0:
276,300,154879,1,2,0:0:0:0:
216,368,155314,6,0,B|168:324|136:256|152:176|200:124,1,270.000010299683,4|8,1:0|1:0,0:0:0:0:
199,125,157053,2,0,B|312:112|312:112|400:148,1,202.500007724762,0|0,1:0|1:0,0:0:0:0:
484,128,157923,1,8,1:0:0:0:
484,128,158792,6,0,B|464:200|464:200|504:264|468:324,1,202.500007724762,0|0,1:0|1:0,0:0:0:0:
384,292,159662,2,0,B|288:284|288:284|212:320|212:320|120:312,1,270.000010299683,8|0,1:0|1:0,0:0:0:0:
112,320,160966,1,0,1:0:0:0:
104,328,161401,6,0,B|48:280|32:176|92:112,1,236.250009012223,4|0,0:0|2:0,0:0:0:0:
100,123,162271,21,0,0:0:0:0:
176,164,162705,1,0,0:0:0:0:
216,88,163140,1,8,0:0:0:0:
141,47,163575,1,0,0:0:0:0:
357,260,164010,5,0,0:0:0:0:
453,212,164445,1,0,0:0:0:0:
408,112,164879,1,8,0:0:0:0:
312,160,165314,1,0,0:0:0:0:
73,255,165749,5,0,0:0:0:0:
164,245,165966,1,0,0:0:0:0:
200,164,166184,5,0,0:0:0:0:
109,173,166401,1,0,0:0:0:0:
129,327,166618,37,0,0:0:0:0:
220,317,166836,1,0,0:0:0:0:
256,236,167053,5,0,0:0:0:0:
164,245,167271,1,0,0:0:0:0:
163,245,167379,1,0,0:0:0:0:
163,245,167488,1,4,0:0:0:0:
256,192,167597,12,4,169227,0:0:0:0:
440,300,169879,37,0,0:0:0:0:
424,304,169988,1,0,0:0:0:0:
408,308,170097,1,0,0:0:0:0:
284,288,170314,1,0,0:0:0:0:
168,336,170532,1,0,0:0:0:0:
148,332,170640,1,0,0:0:0:0:
128,328,170749,1,0,0:0:0:0:
40,236,170966,6,0,P|108:224|176:224,1,135.000005149842,4|0,0:0|2:0,0:0:0:0:
284,288,171292,6,0,P|292:220|288:152,1,135,0|0,0:0|0:0,0:0:0:0:
80,96,171836,54,2,B|152:80|152:80|196:88|196:88|280:64,1,202.500007724762,4|2,0:0|2:0,0:0:0:0:
380,176,172705,38,0,L|396:264,1,90,0|0,0:0|2:0,0:0:0:0:
300,376,173032,2,0,L|284:288,1,90,0|0,0:0|2:0,0:0:0:0:
276,280,173358,1,0,0:0:0:0:
80,344,173575,2,0,P|128:332|176:332,1,90,6|2,0:0|2:0,0:0:0:0:
136,236,174010,2,0,P|160:140|104:56,1,180,2|0,0:0|0:0,0:0:0:0:
124,72,174771,5,0,0:0:0:0:
384,104,175097,1,0,0:0:0:0:
484,156,175314,22,2,B|412:192|412:192|368:192|368:192|296:224,1,202.500007724762,4|2,0:0|2:0,0:0:0:0:
136,328,176184,22,0,L|224:292,1,90
228,296,176510,2,0,P|204:236|228:160,1,135
356,104,177053,1,2,0:0:0:0:
352,116,177162,1,0,0:0:0:0:
288,232,177379,1,0,0:0:0:0:
296,240,177488,1,2,0:0:0:0:
460,216,177705,1,0,0:0:0:0:
460,216,177814,1,0,0:0:0:0:
460,216,177923,70,0,P|452:312|468:348,1,135.000005149842,4|0,0:0|2:0,0:0:0:0:
320,368,178249,22,0,P|256:352|176:380,1,135,0|0,0:0|0:0,0:0:0:0:
40,316,178792,38,2,B|112:304|112:304|164:255,1,135.000005149842,4|2,0:0|2:0,0:0:0:0:
344,108,179445,53,0,0:0:0:0:
184,104,179662,2,0,P|112:112|60:144,1,135
56,140,180097,2,0,B|71:189|71:189|72:232,1,90,0|0,2:0|0:0,0:0:0:0:
176,352,180532,2,0,B|172:304|172:304|184:264,1,90,6|0,0:0|2:0,0:0:0:0:
184,264,180858,2,0,P|252:260|326:291,1,135
408,312,181401,5,0,0:0:0:0:
280,204,181727,1,0,0:0:0:0:
280,204,181836,2,0,L|276:112,1,90,0|0,2:0|0:0,0:0:0:0:
388,0,182271,2,0,L|304:60,1,90,6|2,0:0|2:0,0:0:0:0:
148,16,182705,2,0,L|236:60,1,90,0|0,2:0|0:0,0:0:0:0:
168,176,183140,6,2,B|100:184|100:184|52:196,1,101.250003862381,2|0,0:0|0:0,0:0:0:0:
64,188,183575,1,0,2:0:0:0:
84,304,183792,1,0,0:0:0:0:
192,288,184010,6,2,L|328:272,1,135.000005149842,6|0,0:0|0:0,0:0:0:0:
332,264,184336,1,0,0:0:0:0:
336,256,184445,1,4,0:0:0:0:
424,116,184662,1,0,0:0:0:0:
424,116,184771,1,0,0:0:0:0:
424,116,184879,5,4,0:0:0:0:
288,64,185097,1,0,2:0:0:0:
288,64,185205,2,0,L|220:72|152:80,1,135
0,160,185749,54,2,B|100:140|100:140|204:180,1,202.500007724762,4|2,0:0|2:0,0:0:0:0:
296,220,186618,38,0,P|308:264|296:308,1,90,0|0,0:0|2:0,0:0:0:0:
208,240,186945,2,0,P|192:176|212:112,1,135
380,88,187488,38,2,L|308:96,1,67.5000025749208,4|0,0:0|2:0,0:0:0:0:
476,168,187923,2,2,L|372:180,1,101.250003862381,0|0,0:0|2:0,0:0:0:0:
296,220,188358,53,0,0:0:0:0:
392,300,188575,1,0,2:0:0:0:
392,300,188684,1,0,0:0:0:0:
236,320,188901,1,0,2:0:0:0:
236,320,189010,1,0,0:0:0:0:
84,288,189227,1,6,0:0:0:0:
120,144,189445,1,0,2:0:0:0:
272,176,189662,1,0,2:0:0:0:
236,320,189879,1,2,2:0:0:0:
40,208,190097,6,0,P|36:140|36:116,1,90,0|0,0:0|2:0,0:0:0:0:
140,36,190423,2,0,P|144:80|144:128,1,90,0|0,0:0|2:0,0:0:0:0:
236,252,190749,2,0,L|236:208|236:160,1,90,0|6,0:0|0:0,0:0:0:0:
244,148,191075,1,0,0:0:0:0:
332,52,191292,1,0,0:0:0:0:
348,56,191401,1,0,0:0:0:0:
472,128,191618,1,0,0:0:0:0:
452,136,191727,1,0,0:0:0:0:
432,144,191836,22,0,P|444:212|424:280,1,135.000005149842,4|0,0:0|2:0,0:0:0:0:
340,320,192162,6,0,L|200:316,1,135
36,240,192705,54,2,B|108:248|108:248|164:224|164:224|237:226,1,202.500007724762,4|2,0:0|2:0,0:0:0:0:
328,212,193575,38,0,L|320:120,1,90,0|0,0:0|2:0,0:0:0:0:
424,168,193901,2,0,L|412:33,1,135
260,56,194445,38,2,L|192:48,1,67.5000025749208,4|0,0:0|2:0,0:0:0:0:
64,108,194879,2,2,B|116:104|116:104|164:124,1,101.250003862381,0|0,0:0|2:0,0:0:0:0:
232,196,195314,54,0,L|324:188,1,90,0|0,0:0|2:0,0:0:0:0:
240,288,195640,2,0,L|150:295,1,90,0|0,0:0|2:0,0:0:0:0:
68,344,195966,1,0,0:0:0:0:
332,336,196184,1,6,0:0:0:0:
448,320,196401,1,0,2:0:0:0:
456,204,196618,1,0,2:0:0:0:
464,88,196836,1,2,2:0:0:0:
340,136,197053,5,0,0:0:0:0:
336,140,197271,1,0,0:0:0:0:
332,144,197488,1,0,0:0:0:0:
224,192,197705,1,0,0:0:0:0:
200,188,197814,1,0,0:0:0:0:
176,184,197923,1,0,0:0:0:0:
72,164,198140,1,0,0:0:0:0:
91,277,198358,1,0,0:0:0:0:
108,280,198466,1,0,0:0:0:0:
125,282,198575,1,0,0:0:0:0:
142,285,198684,1,0,0:0:0:0:
160,288,198792,38,0,B|228:296|228:296|296:320,1,135,4|0,0:0|0:0,0:0:0:0:
404,340,199227,2,0,L|400:236,1,90,0|0,2:0|0:0,0:0:0:0:
480,136,199662,54,2,B|404:141|404:141|360:164|360:164|280:163,1,202.500007724762,4|0,0:0|0:0,0:0:0:0:
72,136,200532,38,0,P|128:116|232:112,1,135
340,92,200966,2,0,P|332:52|340:4,1,90,0|0,2:0|0:0,0:0:0:0:
284,164,201401,54,2,P|312:252|284:356,1,202.500007724762,6|0,0:0|0:0,0:0:0:0:
180,328,201836,2,2,P|116:316|52:340,1,135.000005149842,0|0,2:0|0:0,0:0:0:0:
8,208,202271,37,0,0:0:0:0:
112,72,202597,1,0,0:0:0:0:
260,168,202923,1,0,0:0:0:0:
260,168,203140,2,0,P|332:160|400:168,1,135,6|0,0:0|2:0,0:0:0:0:
488,128,203575,2,0,P|496:76|488:32,1,90,0|0,2:0|0:0,0:0:0:0:
394,165,204010,6,0,P|382:233|406:301,1,135
414,305,204445,1,0,2:0:0:0:
260,304,204662,1,0,0:0:0:0:
112,332,204879,1,0,0:0:0:0:
112,332,205097,1,2,2:0:0:0:
112,332,205314,1,0,0:0:0:0:
112,332,205532,1,2,2:0:0:0:
184,196,205749,38,0,P|204:128|188:64,1,135,4|0,0:0|0:0,0:0:0:0:
276,60,206184,2,0,L|372:56,1,90,0|0,2:0|0:0,0:0:0:0:
128,128,206618,54,2,B|56:124|56:124|-4:148,1,135.000005149842,0|2,0:0|2:0,0:0:0:0:
76,216,207271,37,0,0:0:0:0:
24,300,207488,2,0,P|96:308|156:280,1,135,4|0,0:0|0:0,0:0:0:0:
240,300,207923,2,0,L|140:280,1,90,0|0,2:0|0:0,0:0:0:0:
424,152,208358,2,0,P|368:140|280:164,1,135,2|0,0:0|0:0,0:0:0:0:
204,140,208792,2,0,L|304:160,1,90,0|0,2:0|0:0,0:0:0:0:
376,232,209227,5,0,0:0:0:0:
376,232,209445,1,0,0:0:0:0:
376,232,209662,1,0,0:0:0:0:
376,232,209879,1,0,0:0:0:0:
275,326,210097,5,0,0:0:0:0:
264,328,210205,1,0,0:0:0:0:
252,329,210314,1,0,0:0:0:0:
240,330,210423,1,0,0:0:0:0:
228,331,210532,1,0,0:0:0:0:
216,333,210640,1,0,0:0:0:0:
204,334,210749,1,0,0:0:0:0:
192,335,210858,1,0,0:0:0:0:
180,336,210966,37,4,0:0:0:0:
84,136,211618,54,0,L|92:88,2,45
220,176,212053,1,0,0:0:0:0:
340,128,212271,1,0,0:0:0:0:
356,120,212379,1,0,0:0:0:0:
372,112,212488,1,0,0:0:0:0:
460,176,212705,38,0,P|468:224|456:276,2,101.250003862381,4|0|0,0:0|0:0|0:0,0:0:0:0:
356,252,213575,1,0,0:0:0:0:
352,256,214445,5,0,0:0:0:0:
335,254,214553,1,0,0:0:0:0:
318,253,214662,1,0,0:0:0:0:
301,253,214771,1,0,0:0:0:0:
285,260,214879,1,0,0:0:0:0:
268,260,214988,1,0,0:0:0:0:
251,260,215097,1,0,0:0:0:0:
234,260,215205,1,0,0:0:0:0:
208,248,215314,6,0,L|139:252|70:256,2,135.000005149842,0|0|4,0:0|0:0|0:0,0:0:0:0:
288,304,216510,1,0,0:0:0:0:
288,304,216618,1,0,2:0:0:0:
376,312,216836,1,0,0:0:0:0:
464,320,217053,1,0,0:0:0:0:
468,324,217923,38,0,L|524:312,2,50.6250019311906
384,244,218358,2,0,L|280:228,1,101.250003862381
60,320,218792,70,2,P|144:284|256:312,1,202.500007724762,4|0,0:0|2:0,0:0:0:0:
388,248,219227,2,2,P|432:152|400:60,1,202.500007724762,4|0,0:0|2:0,0:0:0:0:
320,108,219662,21,4,0:0:0:0:
160,172,219988,1,0,0:0:0:0:
296,272,220314,1,0,0:0:0:0:
260,184,220532,1,0,0:0:0:0:
68,296,221184,38,2,L|101:292,1,33.7500012874604,2|0,0:0|0:0,0:0:0:0:
112,284,221401,69,0,0:0:0:0:
116,272,221510,1,0,0:0:0:0:
120,260,221618,1,0,0:0:0:0:
124,248,221727,1,0,0:0:0:0:
128,236,221836,1,0,0:0:0:0:
132,224,221945,1,0,0:0:0:0:
136,212,222053,1,0,0:0:0:0:
140,200,222162,1,0,0:0:0:0:
144,188,222271,2,0,L|256:180,1,101.250003862381
316,208,222705,1,0,0:0:0:0:
468,236,222923,6,2,L|424:240,1,33.7500012874604,2|0,0:0|0:0,0:0:0:0:
436,240,223140,38,0,P|444:188|432:140,2,101.250003862381
348,316,224010,1,0,0:0:0:0:
208,256,224662,38,2,L|172:260,1,33.7500012874604,2|0,0:0|0:0,0:0:0:0:
160,248,224879,70,0,P|108:244|60:240,2,101.250003862381
284,208,225749,2,0,P|300:156|288:108,1,101.250003862381
280,100,226184,1,0,0:0:0:0:
160,56,226401,1,0,0:0:0:0:
72,144,226618,37,4,0:0:0:0:
284,208,226945,1,0,0:0:0:0:
120,320,227271,1,0,0:0:0:0:
124,328,227488,1,0,0:0:0:0:
392,360,228358,5,0,0:0:0:0:
396,348,228466,1,0,0:0:0:0:
400,336,228575,1,0,0:0:0:0:
404,324,228684,1,0,0:0:0:0:
408,312,228792,1,0,0:0:0:0:
406,299,228901,1,0,0:0:0:0:
405,286,229010,1,0,0:0:0:0:
404,274,229118,1,0,0:0:0:0:
403,261,229227,1,0,0:0:0:0:
312,80,229553,1,0,2:0:0:0:
312,80,229662,2,0,P|304:128|312:168,1,67.5000025749208,0|2,0:0|2:0,0:0:0:0:
200,200,230097,6,0,B|136:192|136:192|52:208,1,135,4|0,0:0|0:0,0:0:0:0:
92,120,230532,2,0,L|-4:140,1,90,0|0,2:0|0:0,0:0:0:0:
144,272,230966,2,0,B|252:284|252:284|348:248,1,202.500007724762,0|0,0:0|2:0,0:0:0:0:
436,132,231836,6,0,L|428:80,2,50.6250019311906
340,252,232271,2,0,L|352:356,1,101.250003862381,0|0,0:0|0:0,0:0:0:0:
232,312,232705,22,2,P|184:240|208:124,1,202.500007724762,6|0,0:0|0:0,0:0:0:0:
312,72,233140,2,2,P|360:144|336:260,1,202.500007724762,4|0,2:0|2:0,0:0:0:0:
232,312,233575,5,4,0:0:0:0:
44,208,233901,1,0,0:0:0:0:
197,128,234227,1,0,0:0:0:0:
205,127,234445,1,0,0:0:0:0:
160,324,235097,54,2,L|208:332,1,33.7500012874604,2|0,0:0|0:0,0:0:0:0:
208,332,235314,38,0,L|336:320,2,101.250003862381
52,192,236184,1,0,0:0:0:0:
308,112,236510,1,0,0:0:0:0:
308,112,236618,1,0,2:0:0:0:
156,188,236836,37,2,0:0:0:0:
156,188,236945,1,0,0:0:0:0:
156,188,237053,53,0,0:0:0:0:
232,224,237271,1,0,0:0:0:0:
308,112,237488,1,0,0:0:0:0:
232,148,237705,1,0,0:0:0:0:
304,192,237923,5,0,0:0:0:0:
316,196,238032,1,0,0:0:0:0:
328,200,238140,1,0,0:0:0:0:
340,204,238249,1,0,0:0:0:0:
352,208,238358,1,0,0:0:0:0:
364,212,238466,1,0,0:0:0:0:
376,216,238575,1,0,0:0:0:0:
388,220,238684,1,0,0:0:0:0:
408,228,240532,37,4,1:0:0:0:
304,264,241184,1,2,0:0:0:0:
172,244,241836,2,0,P|100:236|32:236,2,135,0|0|2,0:0|0:0|0:0,0:0:0:0:
176,248,243575,1,0,0:0:0:0:
264,300,244010,6,0,P|304:296|356:292,1,90,2|0,0:0|0:0,0:0:0:0:
352,292,244662,2,0,P|336:232|356:160,1,135,2|0,0:0|0:0,0:0:0:0:
354,162,246618,1,2,0:0:0:0:
420,112,247053,1,0,0:0:0:0:
276,136,247488,6,0,P|209:126|140:128,1,135,0|2,0:0|0:0,0:0:0:0:
260,288,248792,2,0,P|327:289|394:279,2,135,0|0|2,0:0|0:0|0:0,0:0:0:0:
172,240,250532,1,0,0:0:0:0:
63,315,250966,6,0,P|128:312|196:328,1,135
360,96,252488,1,2,0:0:0:0:
352,96,252597,1,0,0:0:0:0:
344,96,252705,1,2,0:0:0:0:
196,144,253032,1,2,0:0:0:0:
320,248,253358,1,0,0:0:0:0:
436,196,253575,6,0,L|432:140,1,45,0|2,0:0|0:0,0:0:0:0:
316,252,254010,2,0,L|312:304,1,45,0|2,0:0|0:0,0:0:0:0:
88,320,254445,22,0,B|152:304|152:304|219:324,1,135.000005149842,4|0,0:0|0:0,0:0:0:0:
312,296,255097,1,2,0:0:0:0:
412,312,255314,2,0,P|432:248|416:176,1,135.000005149842,8|2,0:0|0:0,0:0:0:0:
419,182,255858,1,0,0:0:0:0:
419,182,255966,1,0,0:0:0:0:
356,104,256184,6,0,L|288:120,1,67.5000025749208,2|0,0:0|0:0,0:0:0:0:
292,120,256510,2,0,P|240:110|184:100,1,101.250003862381,2|2,0:0|0:0,0:0:0:0:
44,192,257053,2,0,P|108:172|184:184,1,135.000005149842,8|2,0:0|0:0,0:0:0:0:
272,212,257705,1,0,0:0:0:0:
376,192,257923,6,0,P|384:160|376:128,1,67.5000025749208,2|0,0:0|0:0,0:0:0:0:
364,116,258249,1,2,0:0:0:0:
352,104,258358,2,0,L|368:36,1,67.5000025749208,0|2,0:0|0:0,0:0:0:0:
240,52,258792,2,0,L|100:68,1,135.000005149842,8|2,0:0|0:0,0:0:0:0:
172,156,259445,1,0,0:0:0:0:
172,156,259662,6,0,L|243:149,1,67.5000025749208,2|0,0:0|0:0,0:0:0:0:
239,149,259988,2,0,L|336:176,1,101.250003862381,2|2,0:0|0:0,0:0:0:0:
432,204,260532,1,8,0:0:0:0:
432,204,260966,1,2,0:0:0:0:
432,204,261401,38,0,L|428:271,1,67.5000025749208,0|0,1:0|0:0,0:0:0:0:
320,328,261836,2,0,L|316:260,1,67.5000025749208,0|0,1:0|0:0,0:0:0:0:
192,200,262271,2,0,L|184:267,1,67.5000025749208,0|0,1:0|0:0,0:0:0:0:
64,336,262705,2,0,L|56:268,1,67.5000025749208,0|0,1:0|0:0,0:0:0:0:
196,204,263140,6,0,P|269:199|332:196,2,135.000005149842,0|0|0,1:0|1:0|1:0,0:0:0:0:
92,232,264227,1,0,0:0:0:0:
72,228,264336,1,2,0:0:0:0:
52,224,264445,1,0,1:0:0:0:
120,140,264662,1,2,0:0:0:0:
220,108,264879,5,0,1:0:0:0:
308,132,265097,1,0,1:0:0:0:
464,52,265314,5,0,1:0:0:0:
376,76,265532,1,0,1:0:0:0:
205,232,265749,37,0,1:0:0:0:
214,230,265858,1,0,1:0:0:0:
224,228,265966,1,0,1:0:0:0:
234,227,266075,1,0,1:0:0:0:
243,225,266184,1,0,1:0:0:0:
253,223,266292,1,0,1:0:0:0:
263,221,266401,1,0,1:0:0:0:
272,219,266510,1,0,1:0:0:0:
272,219,266618,54,0,B|316:200|360:220|400:240|448:220,1,180
116,288,268358,6,0,P|96:228|120:160,1,135.000005149842,6|0,0:0|2:0,0:0:0:0:
204,76,268684,22,0,L|56:64,1,135.000005149842,0|0,0:0|0:0,0:0:0:0:
224,160,269227,38,2,B|304:168|304:168|340:192|340:192|424:196,1,202.500007724762,4|2,0:0|2:0,0:0:0:0:
472,348,270097,54,2,L|372:340,1,90,2|0,0:0|2:0,0:0:0:0:
256,264,270423,2,0,L|345:271,1,90,2|0,0:0|2:0,0:0:0:0:
419,195,270749,1,0,0:0:0:0:
220,176,270966,22,2,P|172:176|76:184,1,135.000005149842,4|2,0:0|2:0,0:0:0:0:
4,152,271618,69,0,2:0:0:0:
136,92,271836,2,2,P|212:84|272:80,1,135
276,76,272271,1,0,2:0:0:0:
340,172,272488,1,0,0:0:0:0:
256,264,272705,6,2,B|152:268|152:268|60:316,1,202.500007724762,4|2,0:0|2:0,0:0:0:0:
264,352,273575,22,0,L|360:360,1,90
360,364,273901,2,0,P|380:300|360:236,1,135
248,172,274445,1,2,0:0:0:0:
248,172,274553,1,4,0:0:0:0:
416,140,274771,1,0,0:0:0:0:
416,140,274879,1,2,0:0:0:0:
312,76,275097,1,0,0:0:0:0:
304,72,275205,1,0,0:0:0:0:
296,68,275314,70,0,L|132:80,1,135.000005149842,6|0,0:0|2:0,0:0:0:0:
114,183,275640,22,0,L|248:173,1,135.000005149842,0|0,0:0|0:0,0:0:0:0:
416,268,276184,38,2,B|324:244|324:244|212:256,1,202.500007724762,4|2,0:0|2:0,0:0:0:0:
52,340,277053,54,2,L|148:348,1,90,2|0,0:0|2:0,0:0:0:0:
216,255,277379,2,0,L|124:247,1,90,2|0,0:0|2:0,0:0:0:0:
120,243,277705,1,0,0:0:0:0:
28,120,277923,1,6,0:0:0:0:
184,112,278140,1,0,2:0:0:0:
184,112,278249,1,0,0:0:0:0:
184,112,278358,1,0,2:0:0:0:
112,160,278575,1,0,0:0:0:0:
216,256,278792,38,0,L|356:248,1,135,6|0,0:0|2:0,0:0:0:0:
320,104,279118,54,0,L|185:111,1,135,2|0,0:0|0:0,0:0:0:0:
0,220,279662,6,2,B|65:218|65:218|134:237,1,135.000005149842,4|2,0:0|2:0,0:0:0:0:
356,348,280314,21,2,2:0:0:0:
356,348,280532,2,2,P|292:352|224:332,1,135
132,237,280966,2,0,L|128:145,1,90,0|0,2:0|0:0,0:0:0:0:
252,32,281401,70,0,L|260:168,1,135.000005149842,6|0,0:0|0:0,0:0:0:0:
268,172,281727,1,0,0:0:0:0:
276,176,281836,1,4,0:0:0:0:
456,260,282053,1,0,0:0:0:0:
456,260,282162,1,0,0:0:0:0:
456,260,282271,21,4,0:0:0:0:
356,348,282488,1,0,2:0:0:0:
356,348,282597,2,0,P|291:349|220:356,1,135
96,320,283140,38,2,B|60:276|60:276|76:132,1,202.500007724762,4|2,0:0|2:0,0:0:0:0:
160,60,284010,54,2,L|252:68,1,90,0|0,0:0|2:0,0:0:0:0:
388,128,284336,2,0,L|296:136,1,90,2|0,0:0|2:0,0:0:0:0:
232,188,284662,1,0,0:0:0:0:
348,336,284879,22,2,B|372:300|372:300|364:208,1,135.000005149842,4|2,0:0|0:0,0:0:0:0:
232,188,285532,1,2,2:0:0:0:
220,192,285640,1,0,2:0:0:0:
208,196,285749,6,2,L|72:184,1,135.000005149842,6|0,0:0|2:0,0:0:0:0:
28,76,286075,54,0,L|120:84,1,90,2|0,0:0|2:0,0:0:0:0:
208,44,286401,1,0,0:0:0:0:
472,96,286618,6,2,B|400:92|400:92|344:116|344:116|268:112,1,202.500007724762,4|2,0:0|2:0,0:0:0:0:
208,196,287488,22,0,L|212:288,1,90,0|0,0:0|2:0,0:0:0:0:
304,248,287814,2,0,L|307:337,1,90,0|0,0:0|2:0,0:0:0:0:
392,168,288140,2,0,L|395:257,1,90,0|6,0:0|0:0,0:0:0:0:
395,257,288466,1,0,0:0:0:0:
488,200,288684,1,0,0:0:0:0:
488,200,288792,1,2,0:0:0:0:
412,72,289010,1,0,0:0:0:0:
396,64,289118,1,0,0:0:0:0:
380,56,289227,70,0,L|244:64,1,135.000005149842,6|0,0:0|2:0,0:0:0:0:
120,52,289553,22,0,P|108:120|132:180,1,135
208,256,290097,38,2,B|284:236|284:236|408:276,1,202.500007724762,4|2,0:0|2:0,0:0:0:0:
488,176,290966,54,0,L|396:184,1,90,0|0,0:0|2:0,0:0:0:0:
292,84,291292,2,0,L|381:96,1,90,0|0,0:0|2:0,0:0:0:0:
248,168,291618,1,0,0:0:0:0:
248,168,291836,2,0,L|156:176,1,90,6|0,0:0|2:0,0:0:0:0:
140,184,292162,1,0,0:0:0:0:
124,192,292271,1,0,2:0:0:0:
32,160,292488,1,0,0:0:0:0:
60,324,292705,38,2,L|196:312,1,135.000005149842,6|0,0:0|2:0,0:0:0:0:
288,268,293032,54,0,L|380:280,1,90,2|0,0:0|2:0,0:0:0:0:
468,300,293358,1,0,0:0:0:0:
468,300,293575,6,2,B|480:232|480:232|460:172|460:172|476:100,1,202.500007724762,4|2,0:0|2:0,0:0:0:0:
392,48,294445,21,0,0:0:0:0:
304,60,294662,1,0,0:0:0:0:
216,76,294879,1,0,0:0:0:0:
84,160,295097,5,0,0:0:0:0:
96,160,295205,1,0,0:0:0:0:
108,160,295314,1,0,0:0:0:0:
220,200,295532,1,0,0:0:0:0:
328,180,295749,1,0,0:0:0:0:
344,180,295858,1,0,0:0:0:0:
360,180,295966,1,0,0:0:0:0:
376,180,296075,1,0,0:0:0:0:
392,180,296184,6,0,P|420:128|404:56,1,135,4|0,0:0|0:0,0:0:0:0:
404,56,296618,2,0,L|496:56,1,90,0|0,2:0|0:0,0:0:0:0:
304,92,297053,22,2,B|236:92|236:92|180:112|180:112|104:112,1,202.500007724762,4|0,0:0|0:0,0:0:0:0:
32,208,297923,70,0,P|24:276|48:340,1,135
144,320,298358,2,0,B|192:316|192:316|232:328,1,90,0|0,2:0|0:0,0:0:0:0:
308,264,298792,22,2,P|412:300|504:276,1,202.500007724762,6|0,0:0|0:0,0:0:0:0:
360,200,299227,2,2,B|300:176|300:176|232:204,1,135.000005149842,0|0,2:0|0:0,0:0:0:0:
56,212,299662,6,0,P|32:152|40:80,1,135
32,72,300097,1,0,2:0:0:0:
160,92,300314,1,0,0:0:0:0:
256,28,300532,1,4,0:0:0:0:
360,200,300858,1,0,2:0:0:0:
360,200,300966,2,0,L|472:216,1,90,0|0,2:0|0:0,0:0:0:0:
352,320,301401,6,0,B|288:312|288:312|216:340,1,135
212,328,301836,1,0,2:0:0:0:
124,284,302053,1,0,0:0:0:0:
140,188,302271,1,0,0:0:0:0:
228,168,302488,1,2,2:0:0:0:
280,252,302705,1,0,0:0:0:0:
212,328,302923,1,2,2:0:0:0:
140,188,303140,6,0,B|124:124|124:124|140:56,1,135,4|0,0:0|0:0,0:0:0:0:
136,44,303575,1,0,2:0:0:0:
300,68,303792,1,0,0:0:0:0:
300,68,304010,22,2,B|368:64|368:64|432:80|432:80|508:76,1,202.500007724762,4|0,0:0|0:0,0:0:0:0:
364,184,304879,70,0,P|300:184|216:200,1,135
220,184,305314,1,0,2:0:0:0:
64,164,305532,1,0,0:0:0:0:
128,324,305749,2,0,P|192:324|276:340,1,135,6|0,0:0|0:0,0:0:0:0:
272,324,306184,1,0,2:0:0:0:
420,316,306401,1,0,0:0:0:0:
364,184,306618,37,0,0:0:0:0:
368,176,306836,1,0,0:0:0:0:
372,168,307053,1,0,0:0:0:0:
376,160,307271,1,0,0:0:0:0:
264,40,307488,5,0,0:0:0:0:
260,52,307597,1,0,0:0:0:0:
256,64,307705,1,0,0:0:0:0:
252,76,307814,1,0,0:0:0:0:
248,88,307923,1,0,0:0:0:0:
244,100,308032,1,0,0:0:0:0:
240,112,308140,2,0,L|244:160,2,45,0|0|4,0:0|0:0|0:0,0:0:0:0:
48,276,309010,38,0,L|44:231,2,45,0|0|0,0:0|0:0|0:0,0:0:0:0:
232,328,309445,1,0,0:0:0:0:
156,252,309662,1,0,0:0:0:0:
168,248,309771,1,0,0:0:0:0:
180,244,309879,1,0,0:0:0:0:
336,288,310097,6,0,P|404:300|468:272,1,135.000005149842,4|0,0:0|2:0,0:0:0:0:
420,192,310423,6,0,L|432:56,1,135,2|0,2:0|0:0,0:0:0:0:
288,60,310966,1,2,0:0:0:0:
184,44,311184,1,2,0:0:0:0:
100,128,311401,1,2,0:0:0:0:
204,144,311618,1,2,0:0:0:0:
308,160,311836,6,0,L|400:152,1,90,4|0,0:0|0:0,0:0:0:0:
410,165,312162,1,0,0:0:0:0:
421,179,312271,1,0,0:0:0:0:
432,192,312379,1,0,0:0:0:0:
443,205,312488,1,0,0:0:0:0:
454,219,312597,1,0,0:0:0:0:
443,248,312705,5,0,0:0:0:0:
439,260,312814,1,0,0:0:0:0:
435,273,312923,1,0,0:0:0:0:
430,285,313032,1,0,0:0:0:0:
426,298,313140,1,0,0:0:0:0:
422,311,313249,1,0,0:0:0:0:
417,323,313358,1,0,0:0:0:0:
412,335,313466,1,0,0:0:0:0:
380,344,313575,6,0,L|288:336,1,90,4|0,0:0|2:0,0:0:0:0:
136,348,313901,2,0,P|116:288|132:220,1,135,2|0,2:0|0:0,0:0:0:0:
153,119,314445,2,0,L|64:112,1,90,2|2,0:0|0:0,0:0:0:0:
232,192,314879,2,0,L|321:199,1,90,2|2,0:0|0:0,0:0:0:0:
420,132,315314,38,0,L|488:116,2,60,4|0|0,0:0|0:0|0:0,0:0:0:0:
344,68,315749,2,0,L|284:56,2,60
328,160,316184,70,2,P|360:256|328:348,1,202.500007724762,4|0,0:0|2:0,0:0:0:0:
192,312,316618,2,2,P|160:216|192:124,1,202.500007724762,0|0,0:0|2:0,0:0:0:0:
256,56,317053,21,4,0:0:0:0:
328,160,317271,1,0,2:0:0:0:
328,160,317379,2,0,L|464:152,1,135,2|0,2:0|0:0,0:0:0:0:
428,256,317923,2,0,P|436:300|420:344,1,90,2|2,0:0|0:0,0:0:0:0:
212,228,318358,2,0,P|204:184|220:140,1,90,2|2,0:0|0:0,0:0:0:0:
316,252,318792,6,0,P|324:296|308:340,1,90,4|0,0:0|0:0,0:0:0:0:
296,336,319118,1,0,0:0:0:0:
284,336,319227,1,0,0:0:0:0:
272,336,319336,1,0,0:0:0:0:
260,336,319445,1,0,0:0:0:0:
248,336,319553,1,0,0:0:0:0:
232,328,319662,5,0,0:0:0:0:
216,328,319771,1,0,0:0:0:0:
200,328,319879,1,0,0:0:0:0:
184,328,319988,1,0,0:0:0:0:
156,344,320097,22,0,P|120:276|140:156,1,202.500007724762,4|0,0:0|0:0,0:0:0:0:
192,80,320531,5,4,0:0:0:0:
192,80,320749,1,0,2:0:0:0:
192,80,320858,2,0,L|328:88,1,135,2|0,2:0|0:0,0:0:0:0:
432,116,321401,2,0,P|444:72|432:28,1,90,2|2,0:0|0:0,0:0:0:0:
356,192,321836,2,0,L|368:284,1,90,2|2,0:0|0:0,0:0:0:0:
264,332,322271,38,0,L|200:320,2,60,4|0|0,0:0|0:0|0:0,0:0:0:0:
168,212,322705,2,0,L|226:223,2,60,0|0|0,0:0|0:0|0:0,0:0:0:0:
72,268,323140,22,2,P|32:184|52:76,1,202.500007724762,4|0,0:0|2:0,0:0:0:0:
148,120,323575,2,0,P|252:116|352:128,1,202.500007724762,4|0,0:0|2:0,0:0:0:0:
