osu file format v12

[General]
AudioFilename: Masazi - Mayday B .mp3
AudioLeadIn: 1500
PreviewTime: 170966
Countdown: 0
SampleSet: Soft
StackLeniency: 0.7
Mode: 0
LetterboxInBreaks: 0
EpilepsyWarning: 1

[Editor]
Bookmarks: 65097,65314,65531,65749,65966,66184
DistanceSpacing: 1.2
BeatDivisor: 4
GridSize: 8

[Metadata]
Title:mayday B
TitleUnicode:mayday B
Artist:masazi
ArtistUnicode:masazi
Creator:Vass_Bass
Version:Jacob's Beginner
Source:Touhou
Tags:mononofrog_4sk lunar clock luna dial Sakuya izayoi otomekan embodiment of scarlet devil reiji reiji-Rj dubstep BCI Black_Cherry_Ita Jacob
BeatmapID:247749
BeatmapSetID:74277

[Difficulty]
HPDrainRate:2
CircleSize:3
OverallDifficulty:2
ApproachRate:3
SliderMultiplier:1
SliderTickRate:1

[Events]
//Background and Video events
0,0,"Izayoi.Sakuya.full.935625.jpg",0,0
//Break Periods
2,113575,126048
2,212705,239091
//Storyboard Layer 0 (Background)
//Storyboard Layer 1 (Fail)
//Storyboard Layer 2 (Pass)
//Storyboard Layer 3 (Foreground)
//Storyboard Sound Samples
//Background Colour Transformations
3,100,163,162,255

[TimingPoints]
532,434.782608695652,4,2,0,60,1,0
532,-100,4,2,1,25,0,0
12597,-133.333333333333,4,2,1,25,0,0
14445,-100,4,1,0,60,0,1
14554,-100,4,1,0,50,0,0
16184,-133.333333333333,4,1,0,50,0,0
16402,-100,4,1,0,30,0,0
17054,-100,4,1,0,40,0,0
17924,-100,4,1,0,50,0,0
19662,-133.333333333333,4,1,0,50,0,0
20423,-100,4,1,0,40,0,0
21402,-100,4,1,0,50,0,0
21510,-100,4,1,0,50,0,0
23358,-100,4,1,0,30,0,0
24445,-133.333333333333,4,1,0,30,0,0
24880,-100,4,1,0,50,0,0
26618,-133.333333333333,4,1,0,50,0,0
27488,-100,4,1,0,50,0,0
28359,-100,4,1,0,45,0,1
28466,-100,4,1,0,45,0,0
30966,-80,4,1,0,45,0,0
31401,-100,4,1,0,45,0,0
34445,-80,4,1,0,45,0,0
34879,-100,4,1,0,45,0,0
38031,-100,4,1,0,45,0,0
40422,-100,4,1,0,35,0,0
44771,-80,4,1,0,35,0,0
45748,-100,4,1,0,45,0,0
48356,-80,4,1,0,35,0,0
49226,-100,4,1,0,45,0,0
51834,-80,4,1,0,45,0,0
52269,-100,4,1,0,45,0,0
55312,-100,4,1,0,35,0,0
56182,-100,4,1,0,45,0,0
56292,-100,4,2,0,30,0,0
63029,-100,4,2,1,30,0,0
64768,-100,4,2,1,40,0,0
66507,-100,4,1,1,45,0,0
66727,-100,4,1,1,20,0,0
67923,-100,4,1,1,45,0,0
69985,-100,4,2,1,37,0,0
70637,-100,4,1,1,50,0,0
71835,-100,4,1,1,50,0,1
72704,-80,4,1,1,60,0,1
73356,-100,4,1,1,50,0,1
74443,-100,4,1,1,55,0,1
74878,-100,4,1,1,50,0,1
76182,-80,4,1,1,60,0,1
76291,-100,4,1,1,50,0,1
77921,-100,4,1,1,55,0,1
78791,-100,4,1,1,50,0,1
79117,-100,4,1,1,50,0,1
79660,-80,4,1,1,60,0,1
80312,-100,4,1,1,50,0,1
81399,-100,4,1,1,55,0,1
81508,-100,4,1,1,50,0,1
83138,-80,4,1,1,50,0,1
83790,-100,4,1,1,50,0,1
84877,-100,4,1,1,60,0,1
85640,-100,4,1,1,60,0,0
85749,-100,4,1,1,60,0,1
86616,-80,4,1,1,60,0,1
87268,-100,4,1,1,50,0,1
88358,-100,4,1,1,50,0,1
88792,-100,4,1,1,50,0,1
90097,-80,4,1,1,55,0,1
90205,-100,4,1,1,50,0,1
91725,-100,4,1,1,50,0,1
92703,-100,4,1,1,50,0,1
93575,-80,4,1,1,50,0,1
94227,-100,4,1,1,50,0,1
95314,-100,4,1,1,55,0,1
95423,-100,4,1,1,50,0,1
97050,-100,4,1,1,60,0,1
97053,-80,4,1,1,60,0,1
97702,-100,4,1,1,50,0,1
99662,-100,4,1,1,50,0,0
100528,-133.333333333333,4,1,1,50,0,0
102267,-100,4,1,1,50,0,0
103137,-100,4,1,1,50,0,0
104006,-133.333333333333,4,1,1,50,0,0
104876,-100,4,1,1,50,0,0
107484,-133.333333333333,4,1,1,50,0,0
108137,-100,4,1,1,50,0,0
110201,-100,4,1,1,55,0,0
110636,-100,4,1,1,65,0,0
111940,-100,4,1,1,50,0,0
127487,-133.333333333333,4,2,1,10,0,0
127923,-133.333333333333,4,2,1,60,0,0
128358,-133.333333333333,4,2,1,10,0,0
129553,-133.333333333333,4,2,1,20,0,0
129879,-133.333333333333,4,2,1,30,0,0
130966,-133.333333333333,4,2,1,10,0,0
131401,-133.333333333333,4,2,1,60,0,0
131836,-133.333333333333,4,2,1,10,0,0
133031,-133.333333333333,4,2,1,20,0,0
133358,-133.333333333333,4,2,1,30,0,0
134445,-133.333333333333,4,2,1,10,0,0
136184,-133.333333333333,4,2,1,20,0,0
139661,-100,4,2,1,40,0,0
139987,-100,4,2,1,45,0,0
140313,-100,4,2,1,50,0,0
140639,-100,4,2,1,55,0,0
140965,-100,4,2,1,60,0,0
141401,-100,4,2,1,60,0,1
141510,-100,4,1,1,60,0,0
143901,-80,4,1,1,35,0,0
144771,-100,4,1,1,45,0,0
147379,-80,4,1,1,35,0,0
148356,-100,4,1,1,45,0,0
150858,-80,4,1,1,35,0,0
151836,-100,4,1,1,45,0,0
155311,-100,4,2,1,20,0,0
161398,-100,4,1,1,20,0,0
162268,-100,4,2,1,20,0,0
164011,-100,4,2,1,25,0,0
165750,-100,4,1,1,30,0,0
165858,-100,4,1,1,10,0,0
167488,-100,4,1,1,30,0,0
169118,-100,4,1,1,50,0,0
170965,-100,4,1,1,50,0,1
171291,-100,4,1,1,50,0,1
171834,-80,4,1,1,60,0,1
172487,-100,4,1,1,50,0,1
173466,-100,4,1,1,55,0,1
173684,-100,4,1,1,50,0,1
175312,-80,4,1,1,60,0,1
175965,-100,4,1,1,50,0,1
177921,-100,4,1,1,50,0,1
178792,-80,4,1,1,60,0,1
179445,-100,4,1,1,50,0,1
182270,-80,4,1,1,60,0,1
183031,-100,4,1,1,50,0,1
184771,-100,4,1,1,50,0,0
184879,-100,4,1,1,50,0,1
185746,-80,4,1,1,60,0,1
186399,-100,4,1,1,50,0,1
187485,-100,4,1,1,50,0,1
188355,-100,4,1,1,50,0,1
189224,-80,4,1,1,60,0,1
189333,-100,4,1,1,50,0,1
190963,-100,4,1,1,50,0,1
191833,-100,4,1,1,50,0,1
192702,-80,4,1,1,60,0,1
193355,-100,4,1,1,50,0,1
196180,-80,4,1,1,60,0,1
197050,-100,4,1,1,55,0,1
198792,-100,4,1,1,50,0,0
199658,-133.333333333333,4,1,1,50,0,0
200310,-100,4,1,1,50,0,0
201397,-100,4,1,1,50,0,0
202157,-100,4,1,1,50,0,0
203140,-133.333333333333,4,1,1,50,0,0
203792,-100,4,1,1,50,0,0
206614,-133.333333333333,4,1,1,50,0,0
207271,-100,4,1,1,50,0,0
212704,-100,4,1,1,50,0,0
240530,-133.333333333333,4,2,1,15,0,0
254443,-133.333333333333,4,2,1,35,0,0
261401,-100,4,2,1,35,0,0
262271,-100,4,2,1,40,0,0
263140,-100,4,2,1,45,0,0
264879,-100,4,2,1,40,0,0
265314,-100,4,2,1,45,0,0
265749,-100,4,2,1,45,0,0
266618,-100,4,2,1,25,0,0
268357,-100,4,1,1,50,0,1
269118,-100,4,1,1,50,0,0
269227,-80,4,1,1,60,0,1
269879,-100,4,1,1,50,0,1
270966,-80,4,1,1,60,0,1
271400,-100,4,1,1,50,0,1
272705,-80,4,1,1,60,0,1
273357,-100,4,1,1,50,0,1
275205,-100,4,1,1,50,0,0
275313,-100,4,1,1,50,0,1
276074,-100,4,1,1,50,0,0
276183,-80,4,1,1,60,0,1
276835,-100,4,1,1,50,0,1
277814,-80,4,1,1,55,0,1
278031,-100,4,1,1,50,0,1
278791,-100,4,1,1,50,0,1
279661,-80,4,1,1,60,0,1
280314,-100,4,1,1,60,0,1
281400,-80,4,1,1,50,0,1
282161,-100,4,1,1,50,0,0
282271,-100,4,1,1,50,0,1
283030,-100,4,1,1,50,0,0
283139,-80,4,1,1,60,0,1
283791,-100,4,1,1,50,0,1
284878,-80,4,1,1,55,0,1
285747,-100,4,1,1,50,0,1
286617,-100,4,1,1,60,0,1
286618,-80,4,1,1,60,0,1
287269,-100,4,1,1,50,0,1
289119,-100,4,1,1,50,0,0
289227,-100,4,1,1,50,0,1
289988,-100,4,1,1,50,0,0
290097,-80,4,1,1,60,0,1
290749,-100,4,1,1,50,0,1
292705,-100,4,1,1,50,0,1
293031,-100,4,1,1,50,0,1
293575,-80,4,1,1,60,0,1
294227,-100,4,1,1,50,0,1
294444,-100,4,1,1,55,0,1
296183,-100,4,1,1,50,0,0
297053,-100,4,1,1,50,0,0
297705,-100,4,1,1,50,0,0
298792,-100,4,1,1,50,0,0
299444,-100,4,1,1,50,0,0
300531,-100,4,1,1,50,0,0
301184,-100,4,1,1,50,0,0
304009,-100,4,1,1,50,0,0
304661,-100,4,1,1,50,0,0
310095,-100,4,1,1,50,0,0
310421,-100,4,1,1,50,0,0
312052,-100,4,1,1,35,0,0
312704,-100,4,1,1,40,0,0
313573,-100,4,1,1,50,0,0
315457,-100,4,1,1,40,0,0
316182,-100,4,1,1,60,0,0
317051,-100,4,1,1,50,0,0
319008,-100,4,1,1,30,0,0
319662,-100,4,1,1,40,0,0
320531,-100,4,1,1,50,0,0
322415,-100,4,1,1,40,0,0
323140,-100,4,1,1,60,0,0
323575,-66.6666666666667,4,1,1,40,0,0

[Colours]
Combo1 : 255,255,255
Combo2 : 43,206,198
Combo3 : 71,104,112
Combo4 : 44,73,71
Combo5 : 82,172,180
Combo6 : 255,159,136

[HitObjects]
504,304,532,2,0,P|424:352|336:304,1,200,0|8,0:0|0:0,0:0:0:0:
272,208,1836,1,0,0:0:0:0:
208,104,2271,2,0,L|160:16,1,100
40,32,3140,2,0,L|88:120,1,100,8|0,0:0|0:0,0:0:0:0:
144,224,4010,6,0,B|176:280|176:280|312:312,1,200,0|8,0:0|0:0,0:0:0:0:
424,328,5314,1,0,0:0:0:0:
376,216,5749,1,2,0:0:0:0:
372,223,6618,2,0,L|188:134,1,200,8|0,0:0|0:0,0:0:0:0:
87,77,7923,5,0,0:0:0:0:
62,194,8358,2,0,L|238:292,1,200,8|0,0:0|0:0,0:0:0:0:
347,337,9662,1,0,0:0:0:0:
449,275,10097,2,0,P|499:234|515:184,1,100,8|0,0:0|0:0,0:0:0:0:
451,99,10966,6,0,P|401:140|385:190,1,100,0|0,0:0|0:0,0:0:0:0:
328,276,11836,2,0,P|235:298|137:237,1,200,8|2,0:0|0:0,0:0:0:0:
49,98,13575,5,2,0:0:0:0:
52,105,14445,22,0,L|152:74,1,100,4|2,0:0|2:0,0:0:0:0:
262,42,15314,2,2,L|291:137,1,100,2|2,0:0|0:0,0:0:0:0:
314,243,16184,54,0,B|272:243|272:243|212:267|212:267|164:266,2,150.000005722046,0|0|4,0:0|0:0|0:0,0:0:0:0:
433,247,18358,37,4,2:0:0:0:
374,142,18792,2,2,L|362:35,1,100,2|2,0:0|0:0,0:0:0:0:
243,30,19662,38,0,B|204:63|204:63|160:54|99:73,1,150.000005722046,0|6,0:0|1:0,0:0:0:0:
24,159,20966,1,6,0:0:0:0:
80,264,21401,54,0,P|180:262|265:341,1,200,4|2,0:0|0:0,0:0:0:0:
374,318,22705,2,2,P|356:271|353:211,1,100,2|0,0:0|0:0,0:0:0:0:
396,109,23575,1,0,0:0:0:0:
310,25,24010,1,0,0:0:0:0:
215,94,24445,22,2,L|209:177,1,75.0000028610231,2|4,0:0|0:0,0:0:0:0:
198,288,25314,69,2,2:0:0:0:
101,216,25749,2,2,L|111:117,1,100
187,24,26618,6,0,B|254:54|254:54|331:34,1,150.000005722046,0|2,0:0|0:0,0:0:0:0:
447,18,27923,1,2,0:0:0:0:
408,131,28358,22,0,L|430:239,1,100,4|2,0:0|2:0,0:0:0:0:
449,347,29227,1,0,0:0:0:0:
209,328,30097,2,0,P|258:329|313:347,1,100,0|0,0:0|2:0,0:0:0:0:
345,230,30966,70,2,B|334:184|334:184|340:156|340:156|330:107,1,125,2|2,0:0|0:0,0:0:0:0:
254,14,31836,21,0,0:0:0:0:
174,104,32271,2,0,P|164:154|178:214,1,100,2|0,2:0|0:0,0:0:0:0:
396,289,33575,2,0,P|320:295|259:341,1,150
239,358,34445,54,2,L|151:260,1,125,2|2,0:0|0:0,0:0:0:0:
72,177,35314,37,0,0:0:0:0:
71,56,35749,1,2,2:0:0:0:
175,115,36184,1,0,0:0:0:0:
312,311,37053,2,0,P|402:297|425:191,1,200,0|2,0:0|0:0,0:0:0:0:
360,104,38358,37,2,0:0:0:0:
259,38,38792,54,0,B|85:35|85:35|108:65,1,200
231,256,40531,1,0,0:0:0:0:
329,325,40966,1,2,2:0:0:0:
389,221,41401,2,2,P|394:165|380:124,1,100,0|2,0:2|0:0,0:0:0:0:
260,114,42271,38,0,L|157:128,1,100,0|2,0:0|2:0,0:0:0:0:
42,149,43140,1,0,0:0:0:0:
216,312,44010,2,0,L|315:293,1,100,0|0,0:0|2:0,0:0:0:0:
441,271,44879,70,2,P|517:198|429:121,1,250,2|0,0:0|0:0,0:0:0:0:
313,155,46184,21,2,2:0:0:0:
195,133,46618,1,0,1:0:0:0:
112,358,47488,2,0,P|126:308|154:264,1,100,0|0,0:0|2:0,0:0:0:0:
268,241,48358,54,2,B|312:241|312:241|349:257|349:257|389:257,2,125,2|2|0,0:0|0:0|0:0,0:0:0:0:
158,192,49662,38,0,B|105:187|105:187|56:192,1,100,2|0,2:0|0:0,0:0:0:0:
236,31,50966,1,0,0:0:0:0:
116,19,51401,1,0,2:0:0:0:
163,129,51836,38,2,B|149:194|149:194|167:251,1,125,2|2,0:0|0:0,0:0:0:0:
258,327,52705,54,0,P|359:322|456:298,1,200,0|0,0:0|0:0,0:0:0:0:
241,187,54445,2,0,P|342:182|439:158,1,200,0|0,0:0|0:0,0:0:0:0:
479,45,55749,1,0,0:0:0:0:
359,60,56184,38,0,P|251:74|157:73,1,200,0|8,0:0|1:0,0:0:0:0:
17,266,57923,2,0,P|90:270|177:260,1,150,0|0,1:0|1:0,0:0:0:0:
197,251,58792,1,8,1:0:0:0:
420,337,59662,6,0,B|419:272|419:272|407:213|407:213|407:139,1,200,0|8,1:0|1:0,0:0:0:0:
166,139,61401,2,0,L|166:240,2,100,0|0|8,1:0|1:0|1:0,0:0:0:0:
157,131,63140,5,0,1:0:0:0:
268,87,63575,1,0,1:0:0:0:
317,196,64010,1,8,1:0:0:0:
206,242,64445,1,0,1:0:0:0:
88,232,64879,2,0,P|64:280|56:336,1,100,0|0,1:0|1:0,0:0:0:0:
176,352,65749,2,0,P|224:376|280:384,1,100,8|0,1:0|1:0,0:0:0:0:
392,368,66618,6,8,P|413:248|420:61,1,300,0|0,0:0|0:0,0:0:0:0:
312,17,68358,2,0,L|199:62,1,100
131,135,69227,2,0,L|244:180,1,100
337,216,70097,37,4,1:3:0:0:
337,216,70966,2,0,B|309:263|260:291,1,100,0|0,0:0|0:0,0:0:0:0:
150,302,71836,6,0,L|43:184,1,150,4|0,0:0|0:0,0:0:0:0:
28,168,72705,54,2,B|85:118|85:118|191:120|191:120|245:71,1,250,6|0,0:0|0:0,0:0:0:0:
340,5,74010,37,2,2:0:0:0:
433,80,74445,2,2,P|449:127|451:185,1,100,6|2,0:0|0:0,0:0:0:0:
432,296,75314,5,0,0:0:0:0:
326,238,75749,1,0,2:0:0:0:
320,376,76184,22,2,L|96:256,1,250,6|0,0:0|0:0,0:0:0:0:
41,152,77488,5,2,2:0:0:0:
161,149,77923,2,2,P|213:147|266:162,1,100,6|2,0:0|0:0,0:0:0:0:
354,232,78792,6,0,B|400:248|400:248|453:247,1,100,0|0,0:0|2:0,0:0:0:0:
500,351,79662,54,2,B|380:351|380:351|260:300,1,250,6|0,0:0|0:0,0:0:0:0:
178,212,80966,37,2,2:0:0:0:
87,290,81401,2,2,L|45:187,1,100,6|2,0:0|0:0,0:0:0:0:
168,209,82271,6,0,L|99:65,1,150
72,71,83140,22,2,B|106:38|106:38|170:64|251:56|304:25,1,250,6|0,0:0|0:0,0:0:0:0:
422,26,84445,5,0,2:0:0:0:
362,129,84879,1,6,1:0:0:0:
481,132,85314,2,0,P|484:183|470:252,1,100,6|4,0:0|0:0,0:0:0:0:
452,348,86184,5,2,2:0:0:0:
355,276,86618,54,2,P|226:226|103:231,1,250,6|0,0:0|0:0,0:0:0:0:
38,145,87923,37,0,2:0:0:0:
129,67,88358,2,2,L|230:29,1,100,6|2,0:0|0:0,0:0:0:0:
277,138,89227,6,0,L|378:100,1,100,0|2,0:0|2:0,0:0:0:0:
494,68,90097,22,2,P|481:177|362:227,1,250,6|0,0:0|0:0,0:0:0:0:
243,213,91401,5,0,2:0:0:0:
127,181,91836,2,2,P|98:222|84:272,1,100,6|2,0:0|0:0,0:0:0:0:
174,349,92705,6,0,P|246:320|345:298,1,150
342,325,93575,54,2,B|351:245|351:245|322:156|322:156|338:72,1,250,6|0,0:0|0:0,0:0:0:0:
227,31,94879,37,2,2:0:0:0:
213,150,95314,2,2,L|239:258,1,100,6|2,0:0|0:0,0:0:0:0:
176,351,96184,6,0,P|129:333|60:330,1,100,0|0,0:0|2:0,0:0:0:0:
7,235,97053,22,2,B|65:123|65:123|189:41,1,250,6|0,0:0|0:0,0:0:0:0:
286,30,98358,5,0,0:0:0:0:
403,52,98792,2,0,L|442:151,1,100
487,255,99662,5,0,0:0:0:0:
442,366,100097,1,2,2:0:0:0:
366,283,100531,38,2,P|296:249|220:231,1,150.000005722046,4|0,0:0|0:0,0:0:0:0:
109,234,101836,53,0,2:0:0:0:
168,128,102271,2,2,L|216:14,1,100,4|2,0:0|0:0,0:0:0:0:
326,30,103140,6,0,L|271:176,1,150,0|0,0:0|1:0,0:0:0:0:
261,204,104010,5,6,0:0:0:0:
217,308,104445,1,2,2:0:0:0:
135,219,104879,22,0,P|92:192|43:140,1,100,0|2,0:0|2:0,0:0:0:0:
65,37,105749,1,2,2:2:0:0:
184,31,106184,1,2,2:0:0:0:
216,144,106618,6,0,P|264:144|344:152,1,100,0|0,0:0|2:0,0:0:0:0:
440,168,107488,38,2,P|399:235|360:320,1,150.000005722046,4|0,0:0|0:0,0:0:0:0:
256,344,108792,53,2,2:0:0:0:
144,304,109227,2,2,P|112:240|88:152,1,150,4|0,0:0|0:0,0:0:0:0:
72,152,110097,6,0,L|200:112,1,100
272,184,110966,2,0,L|400:144,1,100
480,120,111836,1,4,0:0:0:0:
432,200,127488,38,0,P|360:192|280:200,1,150.000005722046,0|0,0:0|0:0,0:0:0:0:
104,240,129227,2,0,L|96:312,2,56.2500021457673
112,24,130966,6,0,B|160:32|160:32|216:24|216:24|264:32,1,150.000005722046
360,184,132705,2,0,P|353:220|353:240,2,56.2500021457673,0|0|2,0:0|0:0|0:0,0:0:0:0:
373,154,133575,2,0,P|305:115|225:110,1,150.000005722046,2|2,0:0|0:0,0:0:0:0:
153,139,136184,5,2,0:0:0:0:
173,153,137053,1,2,0:0:0:0:
198,168,137923,1,2,0:0:0:0:
259,194,139662,37,0,1:0:0:0:
231,77,140097,1,0,1:0:0:0:
115,106,140531,1,8,1:2:0:0:
143,224,140966,1,0,1:0:0:0:
230,306,141401,54,0,P|298:335|377:328,1,150,4|0,1:0|0:0,0:0:0:0:
405,310,142271,1,0,0:1:0:0:
388,70,143140,2,0,P|341:62|289:72,1,100,0|0,0:0|2:0,0:0:0:0:
227,173,144010,22,2,P|159:185|89:168,2,125,2|2|0,0:0|0:0|0:0,0:0:0:0:
346,161,145314,5,2,2:0:0:0:
421,254,145749,1,0,0:0:0:0:
182,280,146618,2,0,L|293:271,1,100,0|0,0:0|2:0,0:0:0:0:
431,254,147488,69,2,0:0:0:0:
358,158,147923,1,2,0:0:0:0:
271,74,148358,22,0,L|151:67,1,100,0|2,0:0|2:0,0:0:0:0:
51,58,149227,1,0,0:0:0:0:
62,297,150097,2,0,P|54:246|56:187,1,100,0|0,0:0|2:0,0:0:0:0:
196,148,150966,54,2,P|325:120|419:188,1,250,2|0,0:0|0:0,0:0:0:0:
340,277,152271,37,2,2:0:0:0:
433,345,152705,1,0,0:0:0:0:
192,351,153575,2,0,L|86:333,1,100
54,220,154445,2,0,L|152:236,1,100
270,259,155314,6,0,P|338:173|349:65,1,200,0|8,1:0|1:0,0:0:0:0:
114,123,157053,2,0,P|46:209|35:317,1,200,0|8,1:0|1:0,0:0:0:0:
269,335,158792,38,0,B|320:311|366:318|366:318|414:328|464:305,1,200,0|8,1:0|1:0,0:0:0:0:
393,75,160531,2,0,P|345:71|281:90,2,100,0|0|12,1:0|1:0|0:0,0:0:0:0:
457,306,162271,5,0,1:0:0:0:
338,287,162705,1,0,1:0:0:0:
224,324,163140,1,8,1:0:0:0:
108,291,163575,1,0,1:0:0:0:
193,207,164010,6,0,L|228:108,1,100,0|0,1:0|1:0,0:0:0:0:
331,170,164879,2,0,L|366:71,1,100,8|0,1:0|1:0,0:0:0:0:
469,17,165749,6,0,P|477:264|356:313,1,400,4|0,0:0|0:0,0:0:0:0:
256,192,167597,12,4,169227,0:3:0:0:
361,302,170966,38,0,L|468:184,1,150,4|0,0:0|0:0,0:0:0:0:
483,168,171836,70,2,B|426:118|426:118|320:120|320:120|266:71,1,250,6|0,0:0|0:0,0:0:0:0:
171,5,173140,21,2,2:0:0:0:
78,80,173575,2,2,P|62:127|60:185,1,100,6|2,0:0|0:0,0:0:0:0:
79,296,174445,5,0,0:0:0:0:
185,238,174879,1,0,2:0:0:0:
191,376,175314,38,2,L|415:256,1,250,6|0,0:0|0:0,0:0:0:0:
470,152,176618,53,2,2:0:0:0:
350,149,177053,2,2,P|298:147|245:162,1,100,6|2,0:0|0:0,0:0:0:0:
157,232,177923,38,0,B|111:248|111:248|58:247,1,100,0|0,0:0|2:0,0:0:0:0:
11,351,178792,70,2,B|131:351|131:351|251:300,1,250,6|0,0:0|0:0,0:0:0:0:
340,220,180097,21,2,2:0:0:0:
433,295,180531,2,2,L|475:192,1,100,6|2,0:0|0:0,0:0:0:0:
343,209,181401,6,0,L|412:65,1,150
439,71,182271,38,2,B|405:38|405:38|341:64|260:56|207:25,1,250,6|0,0:0|0:0,0:0:0:0:
89,26,183575,53,0,2:0:0:0:
149,129,184010,1,6,1:0:0:0:
30,132,184445,2,0,P|27:183|41:252,1,100,6|4,0:0|0:0,0:0:0:0:
59,348,185314,37,2,2:0:0:0:
156,276,185749,70,2,P|285:226|408:231,1,250,6|0,0:0|0:0,0:0:0:0:
473,145,187053,21,0,2:0:0:0:
382,67,187488,2,2,L|281:29,1,100,6|2,0:0|0:0,0:0:0:0:
234,138,188358,6,0,L|133:100,1,100,0|2,0:0|2:0,0:0:0:0:
17,68,189227,38,2,P|30:177|149:227,1,250,6|0,0:0|0:0,0:0:0:0:
268,213,190531,53,0,2:0:0:0:
384,181,190966,2,2,P|413:222|427:272,1,100,6|2,0:0|0:0,0:0:0:0:
337,349,191836,38,0,P|265:320|166:298,1,150
169,325,192705,70,2,B|160:245|160:245|189:156|189:156|173:72,1,250,6|0,0:0|0:0,0:0:0:0:
284,31,194010,21,2,2:0:0:0:
298,150,194445,2,2,L|272:258,1,100,6|2,0:0|0:0,0:0:0:0:
335,351,195314,6,0,P|382:333|451:330,1,100,0|0,0:0|2:0,0:0:0:0:
504,235,196184,38,2,B|446:123|446:123|322:41,1,250,6|0,0:0|0:0,0:0:0:0:
225,29,197488,53,0,0:0:0:0:
108,52,197923,2,0,L|65:155,1,100
24,255,198792,37,0,0:0:0:0:
69,366,199227,1,2,2:0:0:0:
145,283,199662,54,2,P|215:249|291:231,1,150.000005722046,4|0,0:0|0:0,0:0:0:0:
402,234,200966,37,0,2:0:0:0:
343,128,201401,2,2,L|295:14,1,100,4|2,0:0|0:0,0:0:0:0:
185,30,202271,6,0,L|240:176,1,150,0|0,0:0|1:0,0:0:0:0:
250,204,203140,21,6,0:0:0:0:
294,308,203575,1,2,2:0:0:0:
376,219,204010,70,0,P|419:192|468:140,1,100,0|2,0:0|2:0,0:0:0:0:
446,37,204879,1,2,2:2:0:0:
327,31,205314,1,2,2:0:0:0:
295,144,205749,38,0,P|247:144|167:152,1,100,0|0,0:0|2:0,0:0:0:0:
71,168,206618,54,2,P|112:235|151:320,1,150.000005722046,4|0,0:0|0:0,0:0:0:0:
255,344,207923,37,2,2:0:0:0:
367,304,208358,2,2,P|399:240|423:152,1,150,4|0,0:0|0:0,0:0:0:0:
439,152,209227,6,0,L|311:112,1,100
239,184,210097,2,0,L|111:144,1,100
31,120,210966,1,4,0:0:0:0:
292,178,240531,6,0,P|237:162|166:164,2,112.500004291535,4|0|0,0:2|0:0|0:0,0:0:0:0:
412,240,242488,1,0,0:0:0:0:
296,309,243140,2,0,P|258:317|211:316,1,75.0000028610231
134,295,244010,37,4,0:0:0:0:
138,283,246618,2,0,P|147:243|165:199,1,75.0000028610231
218,143,247488,6,0,P|272:147|333:143,2,112.500004291535,4|0|0,0:0|0:0|0:0,0:0:0:0:
94,87,249445,1,0,0:0:0:0:
52,215,250097,2,0,L|54:292,2,75.0000028610231,0|0|4,0:0|0:0|0:0,0:0:0:0:
59,203,252705,6,0,L|184:180,1,112.500004291535,2|2,0:0|0:0,0:0:0:0:
302,157,254010,1,2,0:0:0:0:
385,137,254445,6,0,L|459:168,1,75.0000028610231,4|0,0:0|0:0,0:0:0:0:
398,236,255314,2,0,L|472:267,1,75.0000028610231,8|2,0:0|0:0,0:0:0:0:
454,354,256184,38,0,L|384:325,1,75.0000028610231,4|0,0:0|0:0,0:0:0:0:
297,346,257053,2,0,L|227:317,1,75.0000028610231,8|2,0:0|0:0,0:0:0:0:
150,278,257923,5,4,0:0:0:0:
62,254,258358,2,0,P|58:213|60:168,1,75.0000028610231,0|8,0:0|0:0,0:0:0:0:
140,140,259227,54,0,B|181:130|181:130|214:137|214:137|257:125,2,112.500004291535,2|2|14,0:0|0:0|2:2,0:0:0:0:
113,225,260966,37,2,0:0:0:0:
160,301,261401,6,0,P|196:292|266:289,1,100,0|0,1:0|1:0,0:0:0:0:
362,348,262271,2,0,P|424:344|460:335,1,100,0|0,1:0|1:0,0:0:0:0:
488,218,263140,37,0,1:0:0:0:
434,110,263575,1,0,1:0:0:0:
336,180,264010,1,8,1:2:0:0:
274,76,264445,1,2,2:2:0:0:
162,31,264879,54,0,P|37:175|133:341,1,400,4|4,0:0|1:0,0:0:0:0:
137,342,268358,37,4,0:0:0:0:
228,264,268792,1,2,2:0:0:0:
315,347,269227,54,2,P|443:296|481:178,1,250,6|0,0:0|0:0,0:0:0:0:
446,83,270531,37,2,2:0:0:0:
331,42,270966,38,2,B|285:40|285:40|252:50|252:50|196:47,1,125,6|2,0:0|0:0,0:0:0:0:
87,43,271836,54,0,P|65:91|61:148,1,100,0|0,0:0|2:0,0:0:0:0:
70,259,272705,22,2,P|198:262|260:362,1,250,6|0,0:0|0:0,0:0:0:0:
378,369,274010,5,2,2:0:0:0:
451,274,274445,2,2,P|460:227|457:154,1,100,6|2,0:0|0:0,0:0:0:0:
391,76,275314,6,0,L|278:102,1,100,0|0,0:0|2:0,0:0:0:0:
165,122,276184,54,2,P|130:262|198:267,1,250,6|0,1:0|0:0,0:0:0:0:
304,254,277488,37,2,2:0:0:0:
426,226,277923,38,2,P|456:271|484:351,2,125,6|2|0,0:0|0:0|0:0,0:0:0:0:
347,134,279227,53,2,2:0:0:0:
249,79,279662,22,2,B|188:64|188:64|72:91|72:91|6:67,1,250,6|0,0:0|0:0,0:0:0:0:
13,187,280966,5,0,2:0:0:0:
71,290,281401,69,6,0:0:0:0:
172,227,281836,1,2,0:0:0:0:
201,343,282271,22,0,L|313:335,1,100,0|2,0:0|2:0,0:0:0:0:
428,304,283140,54,2,B|415:82|415:82|386:102,1,250,6|0,0:0|0:0,0:0:0:0:
295,168,284445,38,0,L|209:228,1,100,2|6,2:0|0:0,0:0:0:0:
115,292,285314,1,2,0:0:0:0:
51,189,285749,6,0,P|56:142|81:89,1,100,0|2,0:0|2:0,0:0:0:0:
224,62,286618,22,2,P|356:56|479:103,1,250,6|0,0:0|0:0,0:0:0:0:
408,200,287923,5,2,2:0:0:0:
449,312,288358,2,0,L|342:333,1,100,6|6,0:0|0:0,0:0:0:0:
232,350,289227,5,4,0:0:0:0:
116,315,289662,1,2,2:0:0:0:
201,243,290097,54,2,B|213:118|213:118|323:28,1,250,6|0,0:0|0:0,0:0:0:0:
429,47,291401,37,2,2:0:0:0:
483,153,291836,2,0,P|474:202|486:259,1,100,6|2,0:0|0:0,0:0:0:0:
502,369,292705,5,0,0:0:0:0:
384,345,293140,1,2,2:0:0:0:
263,323,293575,22,2,P|76:258|70:217,1,250,6|0,0:0|0:0,0:0:0:0:
80,117,294879,5,0,0:0:0:0:
187,64,295314,1,0,0:0:0:0:
294,117,295749,1,0,0:0:0:0:
404,70,296184,6,0,P|442:104|473:167,1,100,0|0,0:0|2:0,0:0:0:0:
463,266,297053,2,2,P|373:311|254:302,1,200,4|0,0:0|0:0,0:0:0:0:
180,234,298358,5,0,2:0:0:0:
70,186,298792,1,6,0:0:0:0:
144,92,299227,1,2,0:0:0:0:
257,135,299662,6,0,L|368:139,1,100,0|2,0:0|2:0,0:0:0:0:
471,173,300531,2,2,P|440:267|431:372,1,200,4|0,0:0|0:0,0:0:0:0:
326,307,301836,37,2,2:0:0:0:
206,320,302271,1,2,2:0:0:0:
96,271,302705,1,2,2:0:0:0:
197,206,303140,6,0,P|218:167|253:121,1,100,0|0,0:0|2:0,0:0:0:0:
371,125,304010,2,2,P|416:178|480:308,1,200,4|0,0:0|0:0,0:0:0:0:
371,352,305314,5,2,2:0:0:0:
252,333,305749,2,2,P|214:293|187:245,1,100,4|2,0:0|0:0,0:0:0:0:
256,192,306618,12,4,308358,0:3:0:0:
417,135,310097,6,0,P|369:115|311:109,1,100,4|2,0:0|2:0,0:0:0:0:
211,155,310966,1,2,0:0:0:0:
269,260,311401,1,2,0:0:0:0:
156,303,311836,2,0,P|74:303|-3:281,2,150
272,275,313575,37,4,0:0:0:0:
384,317,314010,1,2,2:0:0:0:
370,197,314445,2,2,L|424:99,1,100,2|2,0:0|0:0,0:0:0:0:
315,47,315314,2,0,B|285:30|285:30|258:45|258:45|226:29|226:29|200:49|200:49|176:33|176:33|125:53,1,200,0|6,0:0|0:0,0:0:0:0:
56,130,316618,1,6,0:0:0:0:
49,249,317053,6,0,P|81:286|107:332,1,100,4|2,0:0|2:0,0:0:0:0:
226,330,317923,2,2,P|250:286|283:248,1,100,2|2,0:0|1:0,0:0:0:0:
374,171,318792,1,0,0:0:0:0:
477,110,319227,2,0,P|400:52|272:20,1,200,0|2,0:0|0:0,0:0:0:0:
185,53,320531,5,4,0:0:0:0:
106,148,320966,1,2,2:0:0:0:
225,161,321401,2,2,P|273:184|334:242,1,100,2|2,0:0|0:0,0:0:0:0:
380,310,322271,1,0,0:0:0:0:
266,347,322705,1,0,0:0:0:0:
156,297,323140,37,2,0:0:0:0:
148,190,323575,2,2,B|140:145|140:145|142:116|142:116|137:72,1,112.500004291535,2|2,0:0|2:0,0:0:0:0:
