osu file format v14

[General]
AudioFilename: Marshmello - WaNt U 2.mp3
AudioLeadIn: 0
PreviewTime: 52833
Countdown: 0
SampleSet: Soft
StackLeniency: 0.7
Mode: 3
LetterboxInBreaks: 0
SpecialStyle: 0
WidescreenStoryboard: 0

[Editor]
DistanceSpacing: 3
BeatDivisor: 4
GridSize: 4
TimelineZoom: 1.299999

[Metadata]
Title:WaNt U 2
TitleUnicode:WaNt U 2
Artist:marshmello
ArtistUnicode:marshmello
Creator:erlinadewi-
Version:MEDIUM
Source:
Tags:Trap Original Mix cut version Critical_Star EDM Electronic Dance Music
BeatmapID:1092774
BeatmapSetID:514440

[Difficulty]
HPDrainRate:7
CircleSize:4
OverallDifficulty:7
ApproachRate:5
SliderMultiplier:1.4
SliderTickRate:1

[Events]
//Background and Video events
0,0,"BG.jpg",0,0
//Break Periods
//Storyboard Layer 0 (Background)
//Storyboard Layer 1 (Fail)
//Storyboard Layer 2 (Pass)
//Storyboard Layer 3 (Foreground)
//Storyboard Sound Samples

[TimingPoints]
122,422.535211267606,4,2,1,40,1,0
54206,-100,4,2,1,40,0,1
81248,-100,4,2,1,40,0,0

[HitObjects]
448,192,122,5,0,0:0:0:0:
320,192,122,1,0,0:0:0:0:
320,192,755,1,0,0:0:0:0:
192,192,755,1,0,0:0:0:0:
192,192,1812,1,0,0:0:0:0:
64,192,1812,1,0,0:0:0:0:
64,192,2234,1,0,0:0:0:0:
320,192,2234,1,0,0:0:0:0:
448,192,2445,1,0,0:0:0:0:
192,192,2445,1,0,0:0:0:0:
192,192,3502,1,0,0:0:0:0:
320,192,3502,1,0,0:0:0:0:
192,192,3924,1,0,0:0:0:0:
448,192,3924,1,0,0:0:0:0:
320,192,4136,1,0,0:0:0:0:
64,192,4136,1,0,0:0:0:0:
64,192,5192,1,0,0:0:0:0:
192,192,5192,1,0,0:0:0:0:
320,192,5614,1,0,0:0:0:0:
448,192,5614,1,0,0:0:0:0:
64,192,5826,1,0,0:0:0:0:
192,192,5826,1,0,0:0:0:0:
192,192,6882,1,0,0:0:0:0:
320,192,6882,1,0,0:0:0:0:
64,192,7516,1,0,0:0:0:0:
448,192,7516,1,0,0:0:0:0:
448,192,8572,1,0,0:0:0:0:
320,192,8572,1,0,0:0:0:0:
64,192,8995,1,0,0:0:0:0:
320,192,8995,1,0,0:0:0:0:
192,192,9206,1,0,0:0:0:0:
448,192,9206,1,0,0:0:0:0:
192,192,10262,1,0,0:0:0:0:
64,192,10262,1,0,0:0:0:0:
448,192,10685,1,0,0:0:0:0:
192,192,10685,1,0,0:0:0:0:
320,192,10896,1,0,0:0:0:0:
64,192,10896,1,0,0:0:0:0:
320,192,11952,1,0,0:0:0:0:
192,192,11952,1,0,0:0:0:0:
64,192,12375,1,0,0:0:0:0:
192,192,12375,1,0,0:0:0:0:
320,192,12586,1,0,0:0:0:0:
448,192,12586,1,0,0:0:0:0:
64,192,12798,128,0,13643:0:0:0:0:
192,192,13643,1,0,0:0:0:0:
448,192,13643,1,0,0:0:0:0:
320,192,14065,1,8,0:0:0:0:
64,192,14276,1,0,0:0:0:0:
448,192,14276,1,0,0:0:0:0:
192,192,14910,1,8,0:0:0:0:
448,192,15333,1,0,0:0:0:0:
320,192,15333,1,0,0:0:0:0:
64,192,15755,1,0,0:0:0:0:
192,192,15755,1,8,0:0:0:0:
320,192,15967,1,0,0:0:0:0:
448,192,15967,1,0,0:0:0:0:
192,192,16600,1,8,0:0:0:0:
64,192,17023,1,0,0:0:0:0:
448,192,17023,1,0,0:0:0:0:
320,192,17445,1,8,0:0:0:0:
192,192,17445,1,0,0:0:0:0:
64,192,17657,1,0,0:0:0:0:
448,192,17657,1,0,0:0:0:0:
320,192,18291,1,8,0:0:0:0:
64,192,18713,1,0,0:0:0:0:
192,192,18713,1,0,0:0:0:0:
448,192,19136,1,8,0:0:0:0:
192,192,19136,1,0,0:0:0:0:
320,192,19347,1,0,0:0:0:0:
64,192,19347,1,0,0:0:0:0:
192,192,19981,1,8,0:0:0:0:
448,192,20403,1,0,0:0:0:0:
64,192,20403,1,0,0:0:0:0:
320,192,20826,1,8,0:0:0:0:
192,192,21037,1,0,0:0:0:0:
64,192,21037,1,0,0:0:0:0:
448,192,21671,1,8,0:0:0:0:
64,192,22093,1,0,0:0:0:0:
320,192,22093,1,0,0:0:0:0:
448,192,22516,1,8,0:0:0:0:
320,192,22516,1,0,0:0:0:0:
192,192,22727,1,0,0:0:0:0:
64,192,22727,1,0,0:0:0:0:
320,192,23361,1,8,0:0:0:0:
192,192,23783,1,0,0:0:0:0:
448,192,23783,1,0,0:0:0:0:
320,192,24206,1,8,0:0:0:0:
64,192,24206,1,0,0:0:0:0:
448,192,24417,1,0,0:0:0:0:
192,192,24417,1,0,0:0:0:0:
64,192,25051,1,8,0:0:0:0:
320,192,25474,1,0,0:0:0:0:
448,192,25474,1,0,0:0:0:0:
64,192,25896,1,0,0:0:0:0:
192,192,25896,1,8,0:0:0:0:
448,192,26107,1,0,0:0:0:0:
320,192,26107,1,0,0:0:0:0:
64,192,26319,128,0,27164:0:0:0:0:
448,192,26741,128,8,27164:0:0:0:0:
192,192,27164,1,2,0:0:0:0:
320,192,27164,1,0,0:0:0:0:
448,192,27375,1,0,0:0:0:0:
320,192,27586,1,0,0:0:0:0:
192,192,27798,1,2,0:0:0:0:
64,192,27798,1,0,0:0:0:0:
448,192,28009,1,8,0:0:0:0:
320,192,28009,1,0,0:0:0:0:
64,192,28220,1,0,0:0:0:0:
320,192,28431,1,2,0:0:0:0:
192,192,28431,1,0,0:0:0:0:
448,192,28643,1,0,0:0:0:0:
192,192,28854,1,0,0:0:0:0:
64,192,29065,1,2,0:0:0:0:
448,192,29065,1,0,0:0:0:0:
64,192,29276,1,2,0:0:0:0:
448,192,29276,1,0,0:0:0:0:
320,192,29488,1,0,0:0:0:0:
64,192,29699,1,8,0:0:0:0:
192,192,29699,1,0,0:0:0:0:
320,192,29910,1,2,0:0:0:0:
448,192,29910,1,0,0:0:0:0:
192,192,30122,1,0,0:0:0:0:
448,192,30333,1,0,0:0:0:0:
320,192,30544,1,2,0:0:0:0:
64,192,30544,1,0,0:0:0:0:
192,192,30755,1,0,0:0:0:0:
320,192,30967,1,0,0:0:0:0:
448,192,31178,1,2,0:0:0:0:
64,192,31178,1,0,0:0:0:0:
320,192,31389,1,8,0:0:0:0:
192,192,31389,1,0,0:0:0:0:
448,192,31600,1,0,0:0:0:0:
64,192,31812,1,2,0:0:0:0:
192,192,31812,1,0,0:0:0:0:
320,192,32023,1,0,0:0:0:0:
64,192,32234,1,0,0:0:0:0:
448,192,32445,1,2,0:0:0:0:
192,192,32445,1,0,0:0:0:0:
192,192,32657,1,2,0:0:0:0:
448,192,32657,1,0,0:0:0:0:
320,192,32868,1,0,0:0:0:0:
64,192,33079,1,8,0:0:0:0:
192,192,33079,1,0,0:0:0:0:
320,192,33291,1,2,0:0:0:0:
448,192,33291,1,0,0:0:0:0:
64,192,33502,1,0,0:0:0:0:
448,192,33713,1,0,0:0:0:0:
192,192,33924,1,2,0:0:0:0:
320,192,33924,1,0,0:0:0:0:
64,192,34136,1,0,0:0:0:0:
448,192,34347,1,0,0:0:0:0:
64,192,34558,1,2,0:0:0:0:
320,192,34558,1,0,0:0:0:0:
192,192,34769,1,8,0:0:0:0:
448,192,34769,1,0,0:0:0:0:
320,192,34981,1,0,0:0:0:0:
192,192,35192,1,2,0:0:0:0:
64,192,35192,1,0,0:0:0:0:
448,192,35403,1,0,0:0:0:0:
64,192,35614,1,0,0:0:0:0:
320,192,35826,1,2,0:0:0:0:
448,192,35826,1,0,0:0:0:0:
320,192,36037,1,2,0:0:0:0:
448,192,36037,1,0,0:0:0:0:
192,192,36248,1,0,0:0:0:0:
64,192,36460,1,8,0:0:0:0:
320,192,36460,1,0,0:0:0:0:
192,192,36671,1,2,0:0:0:0:
448,192,36671,1,0,0:0:0:0:
320,192,36882,1,0,0:0:0:0:
64,192,37093,1,0,0:0:0:0:
320,192,37305,1,2,0:0:0:0:
192,192,37305,1,0,0:0:0:0:
448,192,37516,1,0,0:0:0:0:
192,192,37727,1,0,0:0:0:0:
64,192,37938,1,2,0:0:0:0:
448,192,37938,1,0,0:0:0:0:
320,192,38150,1,8,0:0:0:0:
192,192,38150,1,0,0:0:0:0:
448,192,38361,1,0,0:0:0:0:
320,192,38572,1,2,0:0:0:0:
64,192,38572,1,0,0:0:0:0:
192,192,38783,1,0,0:0:0:0:
320,192,38995,1,0,0:0:0:0:
64,192,39206,1,2,0:0:0:0:
448,192,39206,1,0,0:0:0:0:
64,192,39417,1,2,0:0:0:0:
448,192,39417,1,0,0:0:0:0:
192,192,39629,1,0,0:0:0:0:
320,192,39840,1,8,0:0:0:0:
64,192,39840,1,0,0:0:0:0:
448,192,40051,1,2,0:0:0:0:
192,192,40051,1,0,0:0:0:0:
64,192,40262,128,8,40685:0:0:0:0:
448,192,40685,1,8,0:0:0:0:
320,192,40685,1,0,0:0:0:0:
64,192,41107,1,8,0:0:0:0:
192,192,41107,1,0,0:0:0:0:
320,192,41319,1,0,0:0:0:0:
192,192,41530,1,8,0:0:0:0:
448,192,41530,1,0,0:0:0:0:
64,192,41952,1,8,0:0:0:0:
448,192,41952,1,0,0:0:0:0:
320,192,42375,1,8,0:0:0:0:
192,192,42375,1,0,0:0:0:0:
64,192,42798,1,8,0:0:0:0:
448,192,42798,1,0,0:0:0:0:
320,192,43009,1,0,0:0:0:0:
448,192,43220,1,8,0:0:0:0:
192,192,43220,1,0,0:0:0:0:
64,192,43643,1,8,0:0:0:0:
320,192,43643,1,0,0:0:0:0:
448,192,44065,1,8,0:0:0:0:
320,192,44065,1,0,0:0:0:0:
448,192,44488,1,8,0:0:0:0:
64,192,44488,1,0,0:0:0:0:
192,192,44699,1,0,0:0:0:0:
320,192,44910,1,8,0:0:0:0:
64,192,44910,1,0,0:0:0:0:
192,192,45333,1,8,0:0:0:0:
320,192,45333,1,0,0:0:0:0:
448,192,45755,1,8,0:0:0:0:
64,192,45755,1,0,0:0:0:0:
448,192,46178,1,8,0:0:0:0:
192,192,46178,1,0,0:0:0:0:
320,192,46389,1,0,0:0:0:0:
192,192,46600,1,8,0:0:0:0:
64,192,46600,1,0,0:0:0:0:
320,192,47023,1,8,0:0:0:0:
448,192,47023,1,0,0:0:0:0:
192,192,47445,1,2,0:0:0:0:
64,192,47445,1,0,0:0:0:0:
320,192,47657,1,8,0:0:0:0:
448,192,47868,1,2,0:0:0:0:
192,192,47868,1,0,0:0:0:0:
64,192,48079,1,8,0:0:0:0:
320,192,48291,1,2,0:0:0:0:
192,192,48291,1,0,0:0:0:0:
448,192,48502,1,8,0:0:0:0:
320,192,48713,1,2,0:0:0:0:
64,192,48713,1,0,0:0:0:0:
192,192,48924,1,8,0:0:0:0:
448,192,49136,1,2,0:0:0:0:
64,192,49136,1,0,0:0:0:0:
320,192,49347,1,8,0:0:0:0:
192,192,49558,1,2,0:0:0:0:
448,192,49558,1,0,0:0:0:0:
64,192,49769,1,8,0:0:0:0:
320,192,49981,1,2,0:0:0:0:
192,192,49981,1,0,0:0:0:0:
448,192,50192,1,8,0:0:0:0:
192,192,50403,1,2,0:0:0:0:
64,192,50403,1,0,0:0:0:0:
320,192,50614,1,8,0:0:0:0:
64,192,50826,1,2,0:0:0:0:
448,192,50826,1,0,0:0:0:0:
192,192,51037,1,2,0:0:0:0:
320,192,51037,1,0,0:0:0:0:
64,192,51248,1,2,0:0:0:0:
448,192,51248,1,0,0:0:0:0:
192,192,51460,1,2,0:0:0:0:
320,192,51460,1,0,0:0:0:0:
448,192,51671,1,0,0:0:0:0:
320,192,51671,1,2,0:0:0:0:
192,192,51882,1,0,0:0:0:0:
64,192,51882,1,2,0:0:0:0:
320,192,52093,1,2,0:0:0:0:
448,192,52093,1,0,0:0:0:0:
192,192,52305,1,0,0:0:0:0:
64,192,52305,1,2,0:0:0:0:
448,192,52938,1,0,0:0:0:0:
320,192,53150,1,0,0:0:0:0:
64,192,53361,1,0,0:0:0:0:
192,192,53572,1,0,0:0:0:0:
320,192,53783,128,0,54206:0:0:0:0:
64,192,54206,1,4,0:0:0:0:
448,192,54206,1,2,0:0:0:0:
448,192,54629,1,0,0:0:0:0:
64,192,54629,1,0,0:0:0:0:
320,192,54840,1,2,0:0:0:0:
64,192,55051,1,8,0:0:0:0:
192,192,55051,1,0,0:0:0:0:
448,192,55262,1,0,0:0:0:0:
320,192,55262,1,0,0:0:0:0:
192,192,55474,1,2,0:0:0:0:
64,192,55474,1,0,0:0:0:0:
192,192,55896,1,0,0:0:0:0:
448,192,55896,1,0,0:0:0:0:
320,192,56107,1,2,0:0:0:0:
448,192,56319,1,2,0:0:0:0:
192,192,56319,1,0,0:0:0:0:
64,192,56741,1,8,0:0:0:0:
448,192,56741,1,0,0:0:0:0:
192,192,56952,1,2,0:0:0:0:
320,192,56952,1,0,0:0:0:0:
64,192,57164,1,0,0:0:0:0:
448,192,57164,1,0,0:0:0:0:
192,192,57586,1,2,0:0:0:0:
320,192,57586,1,0,0:0:0:0:
192,192,58009,1,0,0:0:0:0:
320,192,58009,1,0,0:0:0:0:
448,192,58220,1,2,0:0:0:0:
64,192,58431,1,8,0:0:0:0:
192,192,58431,1,0,0:0:0:0:
448,192,58643,1,0,0:0:0:0:
320,192,58643,1,0,0:0:0:0:
192,192,58854,1,2,0:0:0:0:
64,192,58854,1,0,0:0:0:0:
64,192,59276,1,0,0:0:0:0:
448,192,59276,1,0,0:0:0:0:
320,192,59488,1,2,0:0:0:0:
64,192,59699,1,2,0:0:0:0:
448,192,59699,1,0,0:0:0:0:
192,192,60122,1,8,0:0:0:0:
320,192,60122,1,0,0:0:0:0:
448,192,60333,1,2,0:0:0:0:
64,192,60333,1,0,0:0:0:0:
320,192,60544,1,0,0:0:0:0:
192,192,60544,1,0,0:0:0:0:
448,192,60755,1,0,0:0:0:0:
320,192,60967,1,4,0:0:0:0:
64,192,60967,1,2,0:0:0:0:
64,192,61389,1,0,0:0:0:0:
320,192,61389,1,0,0:0:0:0:
192,192,61600,1,2,0:0:0:0:
320,192,61812,1,8,0:0:0:0:
448,192,61812,1,0,0:0:0:0:
192,192,62023,1,0,0:0:0:0:
64,192,62023,1,0,0:0:0:0:
320,192,62234,1,2,0:0:0:0:
448,192,62234,1,0,0:0:0:0:
192,192,62657,1,0,0:0:0:0:
64,192,62657,1,0,0:0:0:0:
448,192,62868,1,2,0:0:0:0:
192,192,63079,1,2,0:0:0:0:
64,192,63079,1,0,0:0:0:0:
320,192,63502,1,8,0:0:0:0:
192,192,63502,1,0,0:0:0:0:
64,192,63713,1,2,0:0:0:0:
448,192,63713,1,0,0:0:0:0:
320,192,63924,1,0,0:0:0:0:
192,192,63924,1,0,0:0:0:0:
448,192,64347,1,2,0:0:0:0:
192,192,64347,1,0,0:0:0:0:
192,192,64769,1,0,0:0:0:0:
448,192,64769,1,0,0:0:0:0:
320,192,64981,1,2,0:0:0:0:
64,192,65192,1,8,0:0:0:0:
448,192,65192,1,0,0:0:0:0:
192,192,65403,1,0,0:0:0:0:
320,192,65403,1,0,0:0:0:0:
64,192,65614,1,2,0:0:0:0:
448,192,65614,1,0,0:0:0:0:
320,192,66037,1,0,0:0:0:0:
192,192,66037,1,0,0:0:0:0:
448,192,66248,1,2,0:0:0:0:
320,192,66460,1,2,0:0:0:0:
192,192,66460,1,0,0:0:0:0:
320,192,66882,1,8,0:0:0:0:
64,192,66882,1,0,0:0:0:0:
192,192,67093,1,2,0:0:0:0:
448,192,67093,1,0,0:0:0:0:
320,192,67305,1,0,0:0:0:0:
64,192,67305,1,0,0:0:0:0:
448,192,67516,1,0,0:0:0:0:
64,192,67727,1,4,0:0:0:0:
192,192,67727,1,2,0:0:0:0:
320,192,67938,1,0,0:0:0:0:
192,192,68150,1,8,0:0:0:0:
64,192,68361,1,2,0:0:0:0:
448,192,68361,1,0,0:0:0:0:
320,192,68572,1,8,0:0:0:0:
192,192,68572,1,0,0:0:0:0:
64,192,68783,1,0,0:0:0:0:
192,192,68995,1,2,0:0:0:0:
448,192,68995,1,0,0:0:0:0:
320,192,69206,1,0,0:0:0:0:
448,192,69417,1,8,0:0:0:0:
64,192,69629,1,2,0:0:0:0:
192,192,69629,1,0,0:0:0:0:
64,192,69840,1,2,0:0:0:0:
192,192,69840,1,0,0:0:0:0:
320,192,70051,1,0,0:0:0:0:
448,192,70262,1,8,0:0:0:0:
64,192,70262,1,0,0:0:0:0:
192,192,70474,1,2,0:0:0:0:
320,192,70474,1,0,0:0:0:0:
448,192,70685,1,8,0:0:0:0:
64,192,70896,1,0,0:0:0:0:
448,192,71107,1,8,0:0:0:0:
320,192,71107,1,0,0:0:0:0:
192,192,71319,1,0,0:0:0:0:
320,192,71530,1,8,0:0:0:0:
448,192,71741,1,2,0:0:0:0:
64,192,71741,1,0,0:0:0:0:
320,192,71952,1,8,0:0:0:0:
192,192,71952,1,0,0:0:0:0:
448,192,72164,1,0,0:0:0:0:
192,192,72375,1,2,0:0:0:0:
64,192,72375,1,0,0:0:0:0:
320,192,72586,1,0,0:0:0:0:
64,192,72798,1,8,0:0:0:0:
448,192,73009,1,2,0:0:0:0:
320,192,73009,1,0,0:0:0:0:
448,192,73220,1,2,0:0:0:0:
320,192,73220,1,0,0:0:0:0:
192,192,73431,1,0,0:0:0:0:
320,192,73643,1,8,0:0:0:0:
64,192,73643,1,0,0:0:0:0:
192,192,73854,1,2,0:0:0:0:
448,192,73854,1,0,0:0:0:0:
320,192,74065,1,8,0:0:0:0:
64,192,74276,1,0,0:0:0:0:
320,192,74488,1,2,0:0:0:0:
448,192,74488,1,4,0:0:0:0:
192,192,74699,1,0,0:0:0:0:
448,192,74910,1,8,0:0:0:0:
192,192,75122,1,2,0:0:0:0:
64,192,75122,1,0,0:0:0:0:
320,192,75333,1,8,0:0:0:0:
448,192,75333,1,0,0:0:0:0:
64,192,75544,1,0,0:0:0:0:
192,192,75755,1,2,0:0:0:0:
320,192,75755,1,0,0:0:0:0:
448,192,75967,1,0,0:0:0:0:
192,192,76178,1,8,0:0:0:0:
320,192,76389,1,2,0:0:0:0:
64,192,76389,1,0,0:0:0:0:
64,192,76600,1,2,0:0:0:0:
320,192,76600,1,0,0:0:0:0:
448,192,76812,1,0,0:0:0:0:
192,192,77023,1,8,0:0:0:0:
64,192,77023,1,0,0:0:0:0:
320,192,77234,1,2,0:0:0:0:
448,192,77234,1,0,0:0:0:0:
64,192,77445,1,8,0:0:0:0:
320,192,77657,1,0,0:0:0:0:
192,192,77868,1,2,0:0:0:0:
448,192,77868,1,0,0:0:0:0:
64,192,78079,1,0,0:0:0:0:
320,192,78291,1,8,0:0:0:0:
448,192,78502,1,2,0:0:0:0:
64,192,78502,1,0,0:0:0:0:
192,192,78713,1,8,0:0:0:0:
320,192,78713,1,0,0:0:0:0:
64,192,78924,1,0,0:0:0:0:
448,192,79136,1,2,0:0:0:0:
320,192,79136,1,0,0:0:0:0:
192,192,79347,1,0,0:0:0:0:
448,192,79558,1,8,0:0:0:0:
320,192,79769,1,2,0:0:0:0:
64,192,79769,1,0,0:0:0:0:
64,192,79981,1,2,0:0:0:0:
320,192,79981,1,0,0:0:0:0:
192,192,80192,1,0,0:0:0:0:
320,192,80403,1,8,0:0:0:0:
448,192,80403,1,0,0:0:0:0:
64,192,80614,1,2,0:0:0:0:
192,192,80614,1,0,0:0:0:0:
448,192,80826,1,8,0:0:0:0:
192,192,81037,1,0,0:0:0:0:
320,192,81248,1,4,0:0:0:0:
64,192,81248,1,0,0:0:0:0:
