osu file format v14

[General]
AudioFilename: Defiance.mp3
AudioLeadIn: 0
PreviewTime: 214049
Countdown: 0
SampleSet: Normal
StackLeniency: 0.7
Mode: 0
LetterboxInBreaks: 0
EpilepsyWarning: 1
WidescreenStoryboard: 1

[Editor]
Bookmarks: 36566,59839,80203,106384,129657,152930,176203,179112,202384,214021,237293,260566
DistanceSpacing: 1
BeatDivisor: 4
GridSize: 4
TimelineZoom: 0.8999999

[Metadata]
Title:Defiance
TitleUnicode:Defiance
Artist:maritumix
ArtistUnicode:maritumix
Creator:Leorda
Version:Normal
Source:東方Project
Tags:touhou shinmyoumaru sukuna th13 double dealing character little princess
BeatmapID:658962
BeatmapSetID:292857

[Difficulty]
HPDrainRate:3
CircleSize:3
OverallDifficulty:3
ApproachRate:5
SliderMultiplier:1.2
SliderTickRate:2

[Events]
//Background and Video events
0,0,"a.jpg",0,0
//Break Periods
2,83140,93548
2,129885,151730
2,176431,177912
2,202612,211366
//Storyboard Layer 0 (Background)
//Storyboard Layer 1 (Fail)
//Storyboard Layer 2 (Pass)
//Storyboard Layer 3 (Foreground)
//Storyboard Sound Samples

[TimingPoints]
231,363.636363636364,4,1,1,90,1,0
94776,-200,4,1,1,90,0,0
106412,-100,4,1,1,90,0,0
179140,-100,4,1,1,90,0,1
202412,-100,4,1,1,90,0,0
237321,-100,4,1,1,90,0,1
260594,-100,4,1,1,90,0,0

[Colours]
Combo1 : 255,128,255
Combo2 : 128,128,255

[HitObjects]
260,192,36594,5,6,0:0:0:0:
260,72,36958,1,8,0:0:0:0:
364,132,37321,2,0,L|440:132,2,60,0|2|8,0:0|0:0|0:0,0:0:0:0:
364,252,38049,6,0,P|360:304|284:344,1,120,2|8,0:0|0:0,0:0:0:0:
192,344,38776,2,0,P|144:312|136:244,1,120,0|8,0:0|0:0,0:0:0:0:
160,136,39503,5,2,0:0:0:0:
248,52,39867,1,8,0:0:0:0:
368,72,40231,2,0,L|444:76,2,60,0|2|8,0:0|0:0|0:0,0:0:0:0:
408,184,40958,6,0,L|352:224,2,60,2|0|8,0:0|0:0|0:0,0:0:0:0:
360,148,41503,2,0,L|296:148,1,60
200,216,42049,2,0,P|182:148|200:88,1,120,8|2,0:0|0:0,0:0:0:0:
288,28,42776,5,8,0:0:0:0:
176,72,43140,2,0,L|108:124,2,60,0|2|8,0:0|0:0|0:0,0:0:0:0:
272,144,43867,6,0,P|272:212|232:268,2,120,2|8|0,0:0|0:0|0:0,0:0:0:0:
284,24,44958,1,8,0:0:0:0:
376,100,45321,6,0,P|464:132|480:164,1,120,2|8,0:0|0:0,0:0:0:0:
376,220,46049,2,0,P|364:280|400:332,1,120,0|8,0:0|0:0,0:0:0:0:
384,208,46776,6,0,P|320:244|272:244,1,120,2|8,0:0|0:0,0:0:0:0:
244,192,47321,2,0,P|192:144|120:136,1,120,0|2,0:0|0:0,0:0:0:0:
92,164,47867,2,0,L|92:232,2,60,8|0|6,0:0|0:0|0:0,0:0:0:0:
144,56,48594,5,8,0:0:0:0:
264,68,48958,2,0,L|332:80,2,60,0|2|8,0:0|0:0|0:0,0:0:0:0:
216,176,49685,6,0,P|220:252|268:288,1,120,2|8,0:0|0:0,0:0:0:0:
368,280,50412,2,0,P|404:234|400:175,1,120,0|8,0:0|0:0,0:0:0:0:
312,96,51140,5,2,0:0:0:0:
192,64,51503,1,8,0:0:0:0:
88,128,51867,1,0,0:0:0:0:
48,172,52049,1,0,0:0:0:0:
32,232,52231,1,8,0:0:0:0:
88,128,52594,6,0,L|144:248,1,120,2|8,0:0|0:0,0:0:0:0:
256,232,53321,2,0,L|306:123,1,120,0|8,0:0|0:0,0:0:0:0:
368,16,54049,5,2,0:0:0:0:
448,104,54412,1,8,0:0:0:0:
440,224,54776,2,0,L|408:300,2,60,0|2|8,0:0|0:0|0:0,0:0:0:0:
336,160,55503,6,0,L|200:160,1,120,2|8,0:0|0:0,0:0:0:0:
152,264,56231,2,0,L|284:264,1,120,0|8,0:0|0:0,0:0:0:0:
256,192,56958,12,0,58412,0:0:0:0:
256,332,59867,5,6,0:0:0:0:
256,212,60231,1,8,0:0:0:0:
256,152,60412,2,0,P|208:64|120:48,1,180,0|8,0:0|0:0,0:0:0:0:
140,164,61321,5,2,0:0:0:0:
156,284,61685,1,8,0:0:0:0:
256,212,62049,2,0,L|328:212,2,60,0|2|8,0:0|0:0|0:0,0:0:0:0:
256,332,62776,6,0,P|212:352|160:296,1,120,2|8,0:0|0:0,0:0:0:0:
148,252,63321,2,0,P|120:208|40:216,1,120,0|2,0:0|0:0,0:0:0:0:
12,244,63867,1,8,0:0:0:0:
16,124,64231,5,2,0:0:0:0:
124,72,64594,1,8,0:0:0:0:
232,128,64958,1,0,0:0:0:0:
292,144,65140,1,0,0:0:0:0:
352,128,65321,1,8,0:0:0:0:
452,60,65685,6,0,B|500:180|416:168|456:312,1,240,2|0,0:0|0:0,0:0:0:0:
356,224,66776,1,8,0:0:0:0:
320,340,67140,6,0,L|188:340,1,120,2|8,0:0|0:0,0:0:0:0:
168,288,67685,2,0,P|128:236|148:176,1,120,0|2,0:0|0:0,0:0:0:0:
172,136,68231,1,8,0:0:0:0:
272,72,68594,6,0,P|400:72|416:184,1,240,2|0,0:0|0:0,0:0:0:0:
448,280,69685,1,8,0:0:0:0:
328,296,70049,6,0,P|272:332|216:300,1,120,2|8,0:0|0:0,0:0:0:0:
132,240,70776,1,0,0:0:0:0:
108,184,70958,1,2,0:0:0:0:
132,128,71140,1,8,0:0:0:0:
252,128,71503,5,6,0:0:0:0:
360,184,71867,1,8,0:0:0:0:
444,100,72231,2,0,L|444:20,2,60,0|2|8,0:0|0:0|0:0,0:0:0:0:
488,212,72958,6,0,P|456:284|404:296,1,120,2|8,0:0|0:0,0:0:0:0:
312,252,73685,2,0,L|224:252,1,60,0|2,0:0|0:0,0:0:0:0:
204,292,74049,2,0,P|136:256|128:208,1,120,8|2,0:0|0:0,0:0:0:0:
124,100,74776,5,8,0:0:0:0:
236,132,75140,1,0,0:0:0:0:
292,116,75321,1,0,0:0:0:0:
352,100,75503,1,8,0:0:0:0:
436,184,75867,5,2,0:0:0:0:
364,280,76231,1,8,0:0:0:0:
464,344,76594,2,0,L|532:376,2,60,0|2|8,0:0|0:0|0:0,0:0:0:0:
364,280,77321,6,0,P|312:248|236:272,1,120,2|8,0:0|0:0,0:0:0:0:
208,296,77867,2,0,P|149:304|100:272,1,120,0|2,0:0|0:0,0:0:0:0:
68,220,78412,1,8,0:0:0:0:
256,192,78776,12,4,80231,0:0:0:0:
76,72,94776,6,0,P|24:196|204:224,1,360
176,116,97685,2,0,P|333:123|296:276,1,360
184,240,100594,6,0,P|312:160|476:260,1,360
356,264,103503,2,0,P|276:136|292:48,1,240,0|2,0:0|0:0,0:0:0:0:
289,54,106049,1,8,0:0:0:0:
289,54,106412,6,0,P|256:136|320:208,2,180,6|0|8,0:0|0:0|0:0,0:0:0:0:
392,116,107867,2,0,P|442:185|409:265,2,180,2|0|8,0:0|0:0|0:0,0:0:0:0:
296,188,109321,6,0,P|224:220|180:208,1,120,2|8,0:0|0:0,0:0:0:0:
148,164,109867,2,0,P|96:152|28:200,1,120,0|2,0:0|0:0,0:0:0:0:
8,232,110412,1,8,0:0:0:0:
100,308,110776,2,0,P|172:344|232:324,1,120,2|8,0:0|0:0,0:0:0:0:
260,304,111321,2,0,P|328:272|384:300,1,120,0|2,0:0|0:0,0:0:0:0:
420,316,111867,1,8,0:0:0:0:
496,220,112231,6,0,P|504:148|464:96,1,120,2|8,0:0|0:0,0:0:0:0:
368,64,112958,2,0,L|368:0,2,60,0|2|8,0:0|0:0|0:0,0:0:0:0:
336,116,113503,1,0,0:0:0:0:
300,164,113685,2,0,P|256:200|192:176,1,120,2|8,0:0|0:0,0:0:0:0:
112,104,114412,2,0,P|56:88|11:124,1,120,0|8,0:0|0:0,0:0:0:0:
0,244,115140,6,0,P|68:328|192:316,2,240,2|0|2,0:0|0:0|0:0,0:0:0:0:
116,208,116958,1,8,0:0:0:0:
116,88,117321,1,0,0:0:0:0:
172,108,117503,1,2,0:0:0:0:
216,148,117685,1,8,0:0:0:0:
224,208,117867,1,0,0:0:0:0:
224,268,118049,6,0,L|416:268,2,180,6|0|8,0:0|0:0|0:0,0:0:0:0:
292,168,119503,2,0,L|484:168,2,180,2|0|8,0:0|0:0|0:0,0:0:0:0:
352,64,120958,6,0,P|244:40|168:92,2,180,2|0|8,0:0|0:0|0:0,0:0:0:0:
300,172,122412,2,0,P|276:280|328:352,2,180,2|0|8,0:0|0:0|0:0,0:0:0:0:
380,80,123867,5,2,0:0:0:0:
272,32,124231,1,8,0:0:0:0:
188,116,124594,2,0,L|120:116,2,60,0|2|8,0:0|0:0|0:0,0:0:0:0:
232,156,125140,2,0,L|256:220,1,60,0|2,0:0|0:0,0:0:0:0:
184,312,125685,1,8,0:0:0:0:
64,292,126049,1,0,0:0:0:0:
40,236,126231,1,0,0:0:0:0:
20,180,126412,1,8,0:0:0:0:
256,192,126776,12,4,129685,0:0:0:0:
120,96,152958,5,6,0:0:0:0:
80,208,153321,1,8,0:0:0:0:
168,292,153685,1,0,0:0:0:0:
188,236,153867,1,0,0:0:0:0:
204,176,154049,1,8,0:0:0:0:
240,64,154412,6,0,P|296:48|360:88,1,120,2|8,0:0|0:0,0:0:0:0:
400,184,155140,2,0,L|432:260,2,60,0|2|8,0:0|0:0|0:0,0:0:0:0:
296,240,155867,5,2,0:0:0:0:
188,292,156231,1,8,0:0:0:0:
76,248,156594,1,0,0:0:0:0:
56,192,156776,1,0,0:0:0:0:
44,132,156958,1,8,0:0:0:0:
88,20,157321,6,0,P|148:64|152:124,1,120,2|8,0:0|0:0,0:0:0:0:
276,124,158049,2,0,L|356:124,2,60,0|2|8,0:0|0:0|0:0,0:0:0:0:
192,208,158776,5,2,0:0:0:0:
284,284,159140,1,8,0:0:0:0:
392,228,159503,1,0,0:0:0:0:
408,168,159685,1,0,0:0:0:0:
420,108,159867,1,8,0:0:0:0:
336,28,160231,5,2,0:0:0:0:
308,144,160594,1,8,0:0:0:0:
220,64,160958,2,0,L|148:64,2,60,0|2|8,0:0|0:0|0:0,0:0:0:0:
264,176,161685,6,0,P|244:236|172:244,1,120,2|8,0:0|0:0,0:0:0:0:
76,228,162412,2,0,P|96:168|168:160,1,120,0|8,0:0|0:0,0:0:0:0:
264,176,163140,5,2,0:0:0:0:
372,224,163503,1,8,0:0:0:0:
448,132,163867,1,0,0:0:0:0:
424,76,164049,1,0,0:0:0:0:
396,20,164231,1,8,0:0:0:0:
280,48,164594,5,6,0:0:0:0:
336,156,164958,1,8,0:0:0:0:
392,264,165321,2,0,L|432:328,2,60,0|2|8,0:0|0:0|0:0,0:0:0:0:
272,252,166049,6,0,L|132:252,1,120,2|8,0:0|0:0,0:0:0:0:
72,164,166776,1,0,0:0:0:0:
72,104,166958,1,0,0:0:0:0:
72,44,167140,1,8,0:0:0:0:
188,76,167503,6,0,L|320:76,1,120,2|8,0:0|0:0,0:0:0:0:
416,124,168231,2,0,L|448:188,2,60,0|2|8,0:0|0:0|0:0,0:0:0:0:
304,160,168958,5,2,0:0:0:0:
248,264,169321,1,8,0:0:0:0:
168,356,169685,2,0,P|96:364|56:312,1,120,0|8,0:0|0:0,0:0:0:0:
16,224,170412,5,2,0:0:0:0:
48,108,170776,1,8,0:0:0:0:
156,60,171140,1,0,0:0:0:0:
216,48,171321,1,0,0:0:0:0:
276,52,171503,1,8,0:0:0:0:
392,84,171867,6,0,P|420:152|396:200,1,120,2|8,0:0|0:0,0:0:0:0:
296,248,172594,2,0,L|312:312,2,60,0|2|8,0:0|0:0|0:0,0:0:0:0:
180,276,173321,6,0,P|96:272|68:232,1,120,2|8,0:0|0:0,0:0:0:0:
64,128,174049,2,0,L|64:56,1,60,0|2,0:0|0:0,0:0:0:0:
236,116,174776,5,2,0:0:0:0:
352,92,175140,1,8,0:0:0:0:
316,208,175503,2,0,L|340:308,2,90
296,152,176231,1,6,0:0:0:0:
128,316,179140,5,6,0:0:0:0:
56,220,179503,1,8,0:0:0:0:
88,104,179867,2,0,P|136:56|208:64,1,120,0|8,0:0|0:0,0:0:0:0:
232,88,180412,5,0,0:0:0:0:
344,132,180776,1,0,0:0:0:0:
440,60,181140,1,0,0:0:0:0:
460,116,181321,2,0,L|476:180,2,60,0|2|8,0:0|0:0|0:0,0:0:0:0:
492,232,182049,5,2,0:0:0:0:
388,296,182412,1,8,0:0:0:0:
272,284,182776,2,0,P|220:224|164:224,1,120,0|8,0:0|0:0,0:0:0:0:
124,236,183321,5,0,0:0:0:0:
40,148,183685,1,0,0:0:0:0:
88,36,184049,1,0,0:0:0:0:
144,56,184231,2,0,P|220:80|264:52,1,120,0|8,0:0|0:0,0:0:0:0:
360,24,184958,5,2,0:0:0:0:
436,116,185321,1,8,0:0:0:0:
436,116,185685,2,0,L|436:256,1,120,0|8,0:0|0:0,0:0:0:0:
396,280,186231,6,0,P|348:304|272:284,2,120,0|0|0,0:0|0:0|0:0,0:0:0:0:
364,228,187140,2,0,L|304:164,1,60,0|2,0:0|0:0,0:0:0:0:
264,176,187503,2,0,L|208:120,1,60,8|0,0:0|0:0,0:0:0:0:
168,108,187867,5,2,0:0:0:0:
76,184,188231,1,8,0:0:0:0:
128,292,188594,2,0,L|88:360,2,60,0|2|8,0:0|0:0|0:0,0:0:0:0:
228,224,189321,5,2,0:0:0:0:
336,276,189685,1,8,0:0:0:0:
440,212,190049,1,0,0:0:0:0:
444,92,190412,2,0,P|388:36|324:44,1,120,8|6,0:0|0:0,0:0:0:0:
240,88,191140,5,8,0:0:0:0:
140,156,191503,2,0,P|80:216|88:268,1,120,0|8,0:0|0:0,0:0:0:0:
104,300,192049,5,0,0:0:0:0:
220,332,192412,1,0,0:0:0:0:
324,268,192776,1,0,0:0:0:0:
368,228,192958,2,0,L|368:104,1,120,0|8,0:0|0:0,0:0:0:0:
272,36,193685,5,2,0:0:0:0:
168,100,194049,1,8,0:0:0:0:
52,80,194412,2,0,P|32:144|68:196,1,120,0|8,0:0|0:0,0:0:0:0:
100,228,194958,6,0,P|128:276|108:340,2,120,0|0|0,0:0|0:0|0:0,0:0:0:0:
56,187,195867,1,0,0:0:0:0:
112,80,196231,1,8,0:0:0:0:
168,192,196594,6,0,L|288:192|288:192,1,120,2|8,0:0|0:0,0:0:0:0:
408,196,197321,2,0,P|388:264|336:296,1,120,0|8,0:0|0:0,0:0:0:0:
292,304,197867,5,0,0:0:0:0:
172,308,198231,1,0,0:0:0:0:
76,240,198594,1,0,0:0:0:0:
64,180,198776,2,0,L|64:48,1,120,0|8,0:0|0:0,0:0:0:0:
180,96,199503,6,0,P|240:112|308:80,1,120,2|8,0:0|0:0,0:0:0:0:
396,32,200231,2,0,P|428:84|408:160,1,120,0|8,0:0|0:0,0:0:0:0:
384,188,200776,6,0,P|360:236|392:312,1,120,0|0,0:0|0:0,0:0:0:0:
420,340,201321,1,8,0:0:0:0:
492,244,201685,1,0,0:0:0:0:
384,188,202049,1,8,0:0:0:0:
312,284,202412,1,6,0:0:0:0:
256,192,212594,12,4,214049,0:0:0:0:
224,188,215503,5,2,0:0:0:0:
300,96,215867,1,8,0:0:0:0:
416,132,216231,2,0,L|476:152,2,60,0|2|8,0:0|0:0|0:0,0:0:0:0:
352,236,216958,6,0,P|344:304|392:348,1,120,2|8,0:0|0:0,0:0:0:0:
316,344,217503,2,0,B|232:264|140:352,1,180,0|8,0:0|0:0,0:0:0:0:
52,276,218412,5,2,0:0:0:0:
52,156,218776,1,8,0:0:0:0:
124,60,219140,2,0,L|200:48,1,60,0|2,0:0|0:0,0:0:0:0:
220,96,219503,2,0,B|340:128|340:128|348:128,1,120,8|2,0:0|0:0,0:0:0:0:
448,176,220231,5,8,0:0:0:0:
400,284,220594,2,0,L|440:336,2,60,0|2|8,0:0|0:0|0:0,0:0:0:0:
284,260,221321,5,2,0:0:0:0:
168,232,221685,1,8,0:0:0:0:
152,112,222049,1,0,0:0:0:0:
248,40,222412,1,8,0:0:0:0:
248,40,222776,6,0,P|372:52|380:60,2,120,2|8|0,0:0|0:0|0:0,0:0:0:0:
192,144,223867,1,8,0:0:0:0:
312,140,224231,6,0,P|368:168|388:236,2,120,2|8|0,0:0|0:0|0:0,0:0:0:0:
308,260,225321,1,8,0:0:0:0:
208,200,225685,6,0,P|148:232|88:220,1,120,6|8,0:0|0:0,0:0:0:0:
76,168,226231,2,0,L|144:360,1,180,0|8,0:0|0:0,0:0:0:0:
256,356,227140,5,2,0:0:0:0:
352,288,227503,2,0,P|392:236|376:172,2,120,8|0|8,0:0|0:0|0:0,0:0:0:0:
244,236,228594,6,0,B|176:208|128:268,1,120,2|8,0:0|0:0,0:0:0:0:
168,312,229140,2,0,L|64:152,1,180,0|8,0:0|0:0,0:0:0:0:
132,60,230049,5,2,0:0:0:0:
252,60,230412,1,8,0:0:0:0:
372,60,230776,1,0,0:0:0:0:
408,108,230958,1,0,0:0:0:0:
444,152,231140,1,8,0:0:0:0:
384,256,231503,6,0,P|332:320|88:236,1,360,2|8,0:0|0:0,0:0:0:0:
96,140,232958,6,0,P|148:76|392:160,1,360,2|8,0:0|0:0,0:0:0:0:
384,256,234412,6,0,P|332:320|88:236,1,360,2|8,0:0|0:0,0:0:0:0:
256,192,235867,12,4,237321,0:0:0:0:
280,296,238594,5,0,0:0:0:0:
168,252,238958,1,0,0:0:0:0:
72,324,239321,1,0,0:0:0:0:
52,268,239503,2,0,L|36:204,2,60,0|2|8,0:0|0:0|0:0,0:0:0:0:
20,152,240231,5,2,0:0:0:0:
124,88,240594,1,8,0:0:0:0:
240,100,240958,2,0,P|292:160|348:160,1,120,0|8,0:0|0:0,0:0:0:0:
388,148,241503,5,0,0:0:0:0:
472,236,241867,1,0,0:0:0:0:
424,348,242231,1,0,0:0:0:0:
368,328,242412,2,0,P|292:304|248:332,1,120,0|8,0:0|0:0,0:0:0:0:
152,360,243140,5,2,0:0:0:0:
76,268,243503,1,8,0:0:0:0:
76,268,243867,2,0,L|76:128,1,120,0|8,0:0|0:0,0:0:0:0:
116,104,244412,6,0,P|164:80|240:100,2,120,0|0|0,0:0|0:0|0:0,0:0:0:0:
148,156,245321,2,0,L|208:220,1,60,0|2,0:0|0:0,0:0:0:0:
248,208,245685,2,0,L|304:264,1,60,8|0,0:0|0:0,0:0:0:0:
344,276,246049,5,2,0:0:0:0:
436,200,246412,1,8,0:0:0:0:
384,92,246776,2,0,L|424:24,2,60,0|2|8,0:0|0:0|0:0,0:0:0:0:
284,160,247503,5,2,0:0:0:0:
176,108,247867,1,8,0:0:0:0:
72,172,248231,1,0,0:0:0:0:
64,292,248594,2,0,P|120:348|184:340,1,120,8|6,0:0|0:0,0:0:0:0:
268,300,249321,5,8,0:0:0:0:
368,232,249685,2,0,P|428:172|420:120,1,120,0|8,0:0|0:0,0:0:0:0:
408,84,250231,5,0,0:0:0:0:
292,52,250594,1,0,0:0:0:0:
188,116,250958,1,0,0:0:0:0:
144,156,251140,2,0,L|144:280,1,120,0|8,0:0|0:0,0:0:0:0:
240,348,251867,5,2,0:0:0:0:
344,284,252231,1,8,0:0:0:0:
460,304,252594,2,0,P|480:240|444:188,1,120,0|8,0:0|0:0,0:0:0:0:
412,156,253140,6,0,P|384:108|404:44,2,120,0|0|0,0:0|0:0|0:0,0:0:0:0:
460,196,254049,1,0,0:0:0:0:
400,300,254412,1,8,0:0:0:0:
344,192,254776,6,0,L|224:192|224:192,1,120,2|8,0:0|0:0,0:0:0:0:
104,188,255503,2,0,P|124:120|176:88,1,120,0|8,0:0|0:0,0:0:0:0:
220,80,256049,5,0,0:0:0:0:
340,76,256412,1,0,0:0:0:0:
436,144,256776,1,0,0:0:0:0:
448,204,256958,2,0,L|448:336,1,120,0|8,0:0|0:0,0:0:0:0:
332,288,257685,6,0,P|272:272|204:304,1,120,2|8,0:0|0:0,0:0:0:0:
116,352,258412,2,0,P|84:300|104:224,1,120,0|8,0:0|0:0,0:0:0:0:
128,196,258958,6,0,P|152:148|120:72,1,120,0|0,0:0|0:0,0:0:0:0:
84,56,259503,1,8,0:0:0:0:
16,156,259867,1,0,0:0:0:0:
128,196,260231,1,8,0:0:0:0:
200,100,260594,1,6,0:0:0:0:
