osu file format v14

[General]
AudioFilename: Defiance.mp3
AudioLeadIn: 0
PreviewTime: 214049
Countdown: 0
SampleSet: Normal
StackLeniency: 0.7
Mode: 0
LetterboxInBreaks: 0
EpilepsyWarning: 1
WidescreenStoryboard: 1

[Editor]
Bookmarks: 36566,59839,80203,106384,129657,152930,176203,179112,202384,214021,237293,260566
DistanceSpacing: 0.5
BeatDivisor: 4
GridSize: 4
TimelineZoom: 1.6

[Metadata]
Title:Defiance
TitleUnicode:Defiance
Artist:maritumix
ArtistUnicode:maritumix
Creator:Leorda
Version:Lunatic
Source:東方Project
Tags:touhou shinmyoumaru sukuna th13 double dealing character little princess
BeatmapID:658961
BeatmapSetID:292857

[Difficulty]
HPDrainRate:7
CircleSize:4
OverallDifficulty:7
ApproachRate:8.5
SliderMultiplier:1.8
SliderTickRate:2

[Events]
//Background and Video events
0,0,"a.jpg",0,0
//Break Periods
2,83339,94101
2,129885,152283
2,176431,178465
2,202612,211919
//Storyboard Layer 0 (Background)
//Storyboard Layer 1 (Fail)
//Storyboard Layer 2 (Pass)
//Storyboard Layer 3 (Foreground)
//Storyboard Sound Samples

[TimingPoints]
231,363.636363636364,4,1,1,90,1,0
179140,-100,4,1,1,90,0,1
202412,-100,4,1,1,90,0,0
237321,-100,4,1,1,90,0,1
260594,-100,4,1,1,90,0,0

[Colours]
Combo1 : 255,128,255
Combo2 : 128,128,255

[HitObjects]
256,32,36231,5,8,0:0:0:0:
256,40,36321,1,0,0:0:0:0:
256,48,36412,1,0,0:0:0:0:
256,56,36503,1,0,0:0:0:0:
256,74,36594,6,0,P|260:126|219:173,1,90,6|0,0:0|0:0,0:0:0:0:
172,100,36958,1,8,0:0:0:0:
256,74,37140,1,0,0:0:0:0:
340,96,37321,2,0,P|340:144|320:200,2,90,0|2|8,0:0|0:0|0:0,0:0:0:0:
316,8,37867,1,0,0:0:0:0:
400,36,38049,6,0,P|424:96|416:144,1,90,2|0,0:0|0:0,0:0:0:0:
372,266,38412,2,0,P|355:224|356:180,1,90,8|0,0:0|0:0,0:0:0:0:
440,40,38776,2,0,P|464:100|456:148,1,90,2|0,0:0|0:0,0:0:0:0:
352,264,39140,2,0,P|335:222|336:178,1,90,8|0,0:0|0:0,0:0:0:0:
380,92,39503,5,2,0:0:0:0:
296,60,39685,1,0,0:0:0:0:
208,76,39867,1,8,0:0:0:0:
144,140,40049,1,0,0:0:0:0:
128,228,40231,2,0,P|116:276|72:300,1,90,0|2,0:0|0:0,0:0:0:0:
128,228,40594,2,0,L|224:228,1,90,8|0,0:0|0:0,0:0:0:0:
308,212,40958,5,2,0:0:0:0:
308,212,41140,1,0,0:0:0:0:
380,156,41321,1,8,0:0:0:0:
380,156,41503,1,0,0:0:0:0:
380,64,41685,1,0,0:0:0:0:
380,64,41867,1,2,0:0:0:0:
308,8,42049,1,8,0:0:0:0:
308,32,42140,1,0,0:0:0:0:
308,56,42231,1,0,0:0:0:0:
308,80,42321,1,0,0:0:0:0:
305,107,42412,6,0,L|189:107,1,90,2|0,0:0|0:0,0:0:0:0:
124,108,42776,1,8,0:0:0:0:
168,184,42958,1,0,0:0:0:0:
215,107,43140,2,0,P|203:55|163:23,1,90,0|2,0:0|0:0,0:0:0:0:
168,184,43503,2,0,L|168:304,1,90,8|0,0:0|0:0,0:0:0:0:
216,108,43867,6,0,L|216:12,1,90,2|0,0:0|0:0,0:0:0:0:
260,200,44231,2,0,L|260:320,1,90,8|0,0:0|0:0,0:0:0:0:
308,124,44594,2,0,L|308:28,2,90,0|2|8,0:0|0:0|0:0,0:0:0:0:
348,204,45140,1,0,0:0:0:0:
385,280,45321,6,0,P|420:253|436:212,1,90,2|0,0:0|0:0,0:0:0:0:
396,128,45685,1,8,0:0:0:0:
348,204,45867,1,0,0:0:0:0:
348,204,46049,2,0,L|248:204,1,90,0|2,0:0|0:0,0:0:0:0:
90,248,46412,2,0,B|88:248|88:248|180:248,1,90,8|0,0:0|0:0,0:0:0:0:
60,168,46776,5,2,0:0:0:0:
52,160,46867,1,0,0:0:0:0:
44,156,46958,1,0,0:0:0:0:
36,148,47049,1,0,0:0:0:0:
28,144,47140,1,8,0:0:0:0:
120,108,47321,1,0,0:0:0:0:
120,100,47412,1,0,0:0:0:0:
204,172,47594,1,0,0:0:0:0:
204,164,47685,1,2,0:0:0:0:
280,104,47867,1,8,0:0:0:0:
288,96,47958,1,0,0:0:0:0:
296,92,48049,1,0,0:0:0:0:
304,84,48140,1,0,0:0:0:0:
312,80,48231,6,0,L|436:80,1,90,6|0,0:0|0:0,0:0:0:0:
476,132,48594,1,8,0:0:0:0:
476,224,48776,1,0,0:0:0:0:
476,268,48867,2,0,B|468:328|392:344,1,90,0|0,0:0|0:0,0:0:0:0:
376,336,49140,1,2,0:0:0:0:
328,260,49321,2,0,P|288:220|252:220,1,90,8|0,0:0|0:0,0:0:0:0:
168,244,49685,5,2,0:0:0:0:
128,264,49776,1,0,0:0:0:0:
88,284,49867,1,0,0:0:0:0:
168,164,50049,1,8,0:0:0:0:
124,164,50140,1,0,0:0:0:0:
80,164,50231,1,0,0:0:0:0:
168,84,50412,1,0,0:0:0:0:
128,64,50503,1,0,0:0:0:0:
88,44,50594,1,2,0:0:0:0:
252,164,50776,2,0,L|348:164,1,90,8|0,0:0|0:0,0:0:0:0:
432,164,51140,6,0,P|416:220|376:244,1,90,2|0,0:0|0:0,0:0:0:0:
344,164,51503,2,0,P|356:116|388:88,1,90,8|0,0:0|0:0,0:0:0:0:
500,212,51867,2,0,P|484:268|444:292,1,90,0|2,0:0|0:0,0:0:0:0:
376,316,52231,1,8,0:0:0:0:
336,300,52321,1,0,0:0:0:0:
296,320,52412,1,0,0:0:0:0:
256,300,52503,1,0,0:0:0:0:
220,320,52594,6,0,L|184:320,5,30,2|0|0|0|0|0,0:0|0:0|0:0|0:0|0:0|0:0,0:0:0:0:
220,320,52958,2,0,L|220:216,1,90,8|0,0:0|0:0,0:0:0:0:
264,62,53321,2,0,L|264:152,1,90,0|2,0:0|0:0,0:0:0:0:
136,248,53685,2,0,L|136:144,1,90,8|0,0:0|0:0,0:0:0:0:
136,68,54049,5,2,0:0:0:0:
60,120,54231,1,0,0:0:0:0:
136,68,54412,1,8,0:0:0:0:
208,124,54594,1,0,0:0:0:0:
208,168,54685,2,0,P|248:216|332:200,1,135,0|2,0:0|0:0,0:0:0:0:
376,148,55140,2,0,P|338:124|296:132,1,90,8|0,0:0|0:0,0:0:0:0:
228,296,55503,6,0,L|208:336,2,45,2|0|0,0:0|0:0|0:0,0:0:0:0:
316,280,55867,2,0,L|344:236,2,45,8|0|0,0:0|0:0|0:0,0:0:0:0:
388,332,56231,2,0,L|368:372,2,45,0|0|2,0:0|0:0|0:0,0:0:0:0:
476,316,56594,2,0,L|504:272,2,45,8|0|0,0:0|0:0|0:0,0:0:0:0:
256,192,56958,12,0,58049,0:0:0:0:
192,192,58412,6,0,L|96:192,1,90,2|0,0:0|0:0,0:0:0:0:
312,192,58776,2,0,L|416:192,1,90,8|0,0:0|0:0,0:0:0:0:
252,180,59140,2,0,L|252:76,1,90,0|2,0:0|0:0,0:0:0:0:
252,200,59412,2,0,L|252:300,1,90
252,316,59685,1,0,0:0:0:0:
344,292,59867,6,0,P|384:248|384:204,1,90,6|0,0:0|0:0,0:0:0:0:
388,128,60231,1,8,0:0:0:0:
388,40,60412,2,0,P|440:48|468:104,2,90,0|0|2,0:0|0:0|0:0,0:0:0:0:
308,84,60958,1,8,0:0:0:0:
388,128,61140,1,0,0:0:0:0:
308,84,61321,6,0,L|196:60,1,90,2|0,0:0|0:0,0:0:0:0:
248,152,61685,2,0,L|140:164,1,90,8|0,0:0|0:0,0:0:0:0:
208,236,62049,2,0,L|120:276,2,90,0|2|8,0:0|0:0|0:0,0:0:0:0:
300,232,62594,1,0,0:0:0:0:
260,312,62776,6,0,P|344:308|384:224,1,180,2|8,0:0|0:0,0:0:0:0:
340,152,63321,2,0,P|256:156|216:240,1,180,0|2,0:0|0:0,0:0:0:0:
300,232,63867,1,8,0:0:0:0:
340,152,64049,1,0,0:0:0:0:
332,64,64231,6,0,P|272:60|220:96,1,90,2|0,0:0|0:0,0:0:0:0:
89,135,64594,2,0,P|133:142|176:128,1,90,8|0,0:0|0:0,0:0:0:0:
356,20,64958,2,0,P|296:16|244:52,2,90,0|2|8,0:0|0:0|0:0,0:0:0:0:
356,20,65503,1,0,0:0:0:0:
428,72,65685,6,0,P|416:144|376:168,1,90,2|0,0:0|0:0,0:0:0:0:
324,188,66049,1,8,0:0:0:0:
236,176,66231,1,0,0:0:0:0:
148,200,66412,2,0,P|92:220|72:248,1,90,0|2,0:0|0:0,0:0:0:0:
148,200,66776,2,0,P|136:140|112:116,1,90,8|0,0:0|0:0,0:0:0:0:
144,276,67140,6,0,P|156:336|180:360,1,90,2|0,0:0|0:0,0:0:0:0:
228,284,67503,1,8,0:0:0:0:
320,284,67685,2,0,B|408:284|408:308|504:312,1,180,0|2,0:0|0:0,0:0:0:0:
496,220,68231,1,8,0:0:0:0:
496,220,68412,1,0,0:0:0:0:
496,128,68594,6,0,P|488:72|436:60,1,90,2|0,0:0|0:0,0:0:0:0:
388,108,68958,1,8,0:0:0:0:
308,152,69140,2,0,P|256:176|132:132,1,180,0|2,0:0|0:0,0:0:0:0:
76,84,69685,2,0,P|56:128|64:172,1,90,8|0,0:0|0:0,0:0:0:0:
96,252,70049,5,2,0:0:0:0:
96,252,70140,1,0,0:0:0:0:
96,252,70231,1,0,0:0:0:0:
180,284,70412,1,8,0:0:0:0:
180,284,70503,1,0,0:0:0:0:
180,284,70594,1,0,0:0:0:0:
268,276,70776,5,0,0:0:0:0:
268,276,70867,1,0,0:0:0:0:
268,276,70958,1,2,0:0:0:0:
352,244,71140,1,8,0:0:0:0:
352,236,71231,1,0,0:0:0:0:
352,228,71321,1,0,0:0:0:0:
352,220,71412,1,0,0:0:0:0:
352,212,71503,6,0,B|352:112|352:112|348:116,1,90,6|0,0:0|0:0,0:0:0:0:
304,44,71867,1,8,0:0:0:0:
220,76,72049,2,0,P|164:92|132:80,2,90,0|0|2,0:0|0:0|0:0,0:0:0:0:
304,44,72594,1,8,0:0:0:0:
304,44,72776,1,0,0:0:0:0:
244,104,72958,6,0,P|208:140|156:152,1,90,2|0,0:0|0:0,0:0:0:0:
280,128,73321,2,0,P|264:176|216:212,1,90,8|0,0:0|0:0,0:0:0:0:
324,136,73685,2,0,P|328:188|300:240,2,90,0|2|8,0:0|0:0|0:0,0:0:0:0:
304,48,74231,1,0,0:0:0:0:
440,144,74412,6,0,B|440:224|408:240|408:340,1,180,2|8,0:0|0:0,0:0:0:0:
500,320,74958,2,0,L|300:320,1,180,0|2,0:0|0:0,0:0:0:0:
228,320,75503,1,8,0:0:0:0:
148,280,75685,1,0,0:0:0:0:
80,220,75867,5,2,0:0:0:0:
52,184,75958,1,0,0:0:0:0:
28,144,76049,1,0,0:0:0:0:
116,132,76231,1,8,0:0:0:0:
116,88,76321,1,0,0:0:0:0:
116,44,76412,1,0,0:0:0:0:
200,80,76594,1,0,0:0:0:0:
228,44,76685,1,0,0:0:0:0:
252,4,76776,1,2,0:0:0:0:
320,64,76958,2,0,L|420:64,1,90,8|0,0:0|0:0,0:0:0:0:
456,140,77321,6,0,P|480:200|400:280,1,180,2|8,0:0|0:0,0:0:0:0:
331,334,77867,2,0,P|310:251|376:196,1,180,0|2,0:0|0:0,0:0:0:0:
376,195,78412,1,8,0:0:0:0:
256,192,78776,12,4,80231,0:0:0:0:
212,288,80412,5,0,0:0:0:0:
304,288,80594,1,8,0:0:0:0:
376,236,80776,1,0,0:0:0:0:
376,228,80867,1,0,0:0:0:0:
376,220,80958,1,0,0:0:0:0:
376,212,81049,1,0,0:0:0:0:
376,204,81140,1,2,0:0:0:0:
376,196,81231,1,0,0:0:0:0:
376,188,81321,2,0,P|376:124|340:96,1,90,8|0,0:0|0:0,0:0:0:0:
352,108,81594,5,0,0:0:0:0:
344,112,81685,2,0,P|300:128|248:112,1,90,2|0,0:0|0:0,0:0:0:0:
252,112,81958,1,0,0:0:0:0:
244,108,82049,2,0,P|192:100|148:128,1,90,8|0,0:0|0:0,0:0:0:0:
156,124,82321,1,0,0:0:0:0:
156,133,82412,1,0,0:0:0:0:
156,140,82503,1,0,0:0:0:0:
156,148,82594,1,2,0:0:0:0:
156,156,82685,1,0,0:0:0:0:
156,164,82776,6,0,L|156:196,8,22.5,8|0|0|0|0|0|0|0|6,0:0|0:0|0:0|0:0|0:0|0:0|0:0|0:0|0:0,0:0:0:0:
256,36,94776,5,0,0:0:0:0:
256,60,95503,1,0,0:0:0:0:
256,84,96231,1,0,0:0:0:0:
256,104,96958,1,0,0:0:0:0:
100,188,97685,5,0,0:0:0:0:
124,188,98412,1,0,0:0:0:0:
148,188,99140,1,0,0:0:0:0:
168,188,99867,1,0,0:0:0:0:
412,192,100594,5,0,0:0:0:0:
388,192,101321,1,0,0:0:0:0:
364,192,102049,1,0,0:0:0:0:
344,192,102776,1,0,0:0:0:0:
252,348,103503,5,0,0:0:0:0:
252,324,104231,1,0,0:0:0:0:
252,300,104958,1,0,0:0:0:0:
256,192,106049,5,8,0:0:0:0:
436,192,106412,6,0,L|436:140|436:140,2,45,6|0|0,0:0|0:0|0:0,0:0:0:0:
392,272,106776,1,8,0:0:0:0:
452,340,106958,2,0,L|500:372,2,45,0|0|0,0:0|0:0|0:0,0:0:0:0:
392,272,107321,1,2,0:0:0:0:
300,272,107503,2,0,L|204:272,1,90,8|0,0:0|0:0,0:0:0:0:
136,216,107867,5,2,0:0:0:0:
100,188,107958,1,0,0:0:0:0:
88,144,108049,1,0,0:0:0:0:
176,136,108231,1,8,0:0:0:0:
112,72,108412,1,0,0:0:0:0:
148,48,108503,1,0,0:0:0:0:
192,52,108594,1,0,0:0:0:0:
176,136,108776,1,2,0:0:0:0:
244,196,108958,2,0,P|300:208|328:196,1,90,8|0,0:0|0:0,0:0:0:0:
288,116,109321,6,0,L|288:64,2,45,2|0|0,0:0|0:0|0:0,0:0:0:0:
376,136,109685,1,8,0:0:0:0:
464,160,109867,2,0,L|464:216,2,45,0|0|0,0:0|0:0|0:0,0:0:0:0:
436,72,110231,1,2,0:0:0:0:
376,136,110412,2,0,L|376:256,1,90,8|0,0:0|0:0,0:0:0:0:
340,308,110776,5,2,0:0:0:0:
332,308,110867,1,0,0:0:0:0:
324,308,110958,1,0,0:0:0:0:
240,276,111140,1,8,0:0:0:0:
160,232,111321,1,0,0:0:0:0:
152,232,111412,1,0,0:0:0:0:
144,232,111503,1,0,0:0:0:0:
60,200,111685,1,2,0:0:0:0:
240,276,111867,2,0,L|352:276,1,90,8|0,0:0|0:0,0:0:0:0:
432,124,112231,6,0,L|476:92,2,45,2|0|0,0:0|0:0|0:0,0:0:0:0:
392,144,112503,1,0,0:0:0:0:
348,136,112594,1,8,0:0:0:0:
272,84,112776,1,0,0:0:0:0:
192,128,112958,2,0,P|132:112|112:76,1,90,0|2,0:0|0:0,0:0:0:0:
192,128,113231,2,0,P|208:176|160:244,1,135,0|0,0:0|0:0,0:0:0:0:
164,244,113594,6,0,B|260:232|308:288,1,135,0|0,0:0|0:0,0:0:0:0:
224,332,114049,2,0,P|224:264|244:224,1,90,8|0,0:0|0:0,0:0:0:0:
303,92,114412,2,0,P|307:136|296:180,1,90,0|2,0:0|0:0,0:0:0:0:
256,24,114776,2,0,P|316:12|356:32,1,90,8|0,0:0|0:0,0:0:0:0:
336,248,115140,6,0,L|288:260,2,45,2|0|0,0:0|0:0|0:0,0:0:0:0:
424,224,115503,1,8,0:0:0:0:
424,224,115685,1,0,0:0:0:0:
468,300,115867,2,0,L|484:344,2,45,0|0|2,0:0|0:0|0:0,0:0:0:0:
396,136,116231,1,8,0:0:0:0:
396,136,116412,1,0,0:0:0:0:
220,152,116594,6,0,L|176:152,2,45,2|0|0,0:0|0:0|0:0,0:0:0:0:
396,136,116958,2,0,L|448:116|448:116,2,45,8|0|0,0:0|0:0|0:0,0:0:0:0:
268,220,117321,1,0,0:0:0:0:
352,56,117503,1,2,0:0:0:0:
360,224,117685,1,8,0:0:0:0:
360,232,117776,1,0,0:0:0:0:
360,240,117867,1,0,0:0:0:0:
360,248,117958,1,0,0:0:0:0:
360,256,118049,6,0,L|360:308,2,45,6|0|0,0:0|0:0|0:0,0:0:0:0:
276,292,118412,2,0,P|228:308|176:292,1,90,8|0,0:0|0:0,0:0:0:0:
190,300,118685,1,0,0:0:0:0:
190,300,118776,1,0,0:0:0:0:
120,244,118958,1,2,0:0:0:0:
44,200,119140,1,8,0:0:0:0:
76,168,119231,1,0,0:0:0:0:
120,156,119321,1,0,0:0:0:0:
164,172,119412,1,0,0:0:0:0:
200,200,119503,6,0,L|252:216,2,45,2|0|0,0:0|0:0|0:0,0:0:0:0:
204,156,119776,2,0,P|236:108|324:92,1,135
307,88,120140,1,0,0:0:0:0:
307,88,120231,1,0,0:0:0:0:
328,176,120412,1,2,0:0:0:0:
368,256,120594,2,0,P|420:256|448:232,1,90,8|0,0:0|0:0,0:0:0:0:
328,176,120958,6,0,P|288:220|284:272,1,90,2|0,0:0|0:0,0:0:0:0:
308,284,121231,2,0,P|260:312|172:272,1,135,0|0,0:0|0:0,0:0:0:0:
187,291,121594,1,0,0:0:0:0:
187,291,121685,1,0,0:0:0:0:
112,240,121867,2,0,L|80:204,2,45,2|0|8,0:0|0:0|0:0,0:0:0:0:
112,332,122231,1,0,0:0:0:0:
188,204,122412,5,2,0:0:0:0:
224,180,122503,1,0,0:0:0:0:
268,176,122594,1,0,0:0:0:0:
460,264,122776,1,8,0:0:0:0:
424,288,122867,1,0,0:0:0:0:
380,292,122958,1,0,0:0:0:0:
380,88,123140,2,0,L|360:40,1,45,0|0,0:0|0:0,0:0:0:0:
324,68,123321,2,0,L|292:24,1,45,2|0,0:0|0:0,0:0:0:0:
272,68,123503,2,0,L|228:56,1,45,8|0,0:0|0:0,0:0:0:0:
232,100,123685,2,0,L|172:96,1,45,0|0,0:0|0:0,0:0:0:0:
292,248,123867,6,0,L|312:292,2,45,2|0|0,0:0|0:0|0:0,0:0:0:0:
212,296,124231,1,8,0:0:0:0:
128,264,124412,1,0,0:0:0:0:
80,184,124594,2,0,P|68:128|96:92,1,90,0|2,0:0|0:0,0:0:0:0:
83,101,124867,2,0,P|156:116|204:60,1,135,0|0,0:0|0:0,0:0:0:0:
197,78,125231,1,0,0:0:0:0:
197,78,125321,6,0,P|280:88|312:176,1,180,2|8,0:0|0:0,0:0:0:0:
224,164,125867,1,0,0:0:0:0:
400,132,126049,1,0,0:0:0:0:
252,236,126231,1,2,0:0:0:0:
428,204,126412,1,8,0:0:0:0:
280,308,126594,1,0,0:0:0:0:
108,340,126776,5,2,0:0:0:0:
104,329,126867,1,0,0:0:0:0:
100,318,126958,1,0,0:0:0:0:
97,307,127049,1,0,0:0:0:0:
93,297,127140,1,8,0:0:0:0:
90,286,127231,1,0,0:0:0:0:
86,275,127321,1,0,0:0:0:0:
83,265,127412,1,0,0:0:0:0:
79,254,127503,5,0,0:0:0:0:
75,243,127594,1,0,0:0:0:0:
72,233,127685,1,2,0:0:0:0:
68,222,127776,1,0,0:0:0:0:
65,211,127867,1,8,0:0:0:0:
61,201,127958,1,0,0:0:0:0:
58,190,128049,1,0,0:0:0:0:
54,179,128140,1,0,0:0:0:0:
51,169,128231,6,0,L|40:124|40:124,3,45,2|0|0|0,0:0|0:0|0:0|0:0,0:0:0:0:
84,140,128594,2,0,L|72:94|72:94,3,45,8|0|0|0,0:0|0:0|0:0|0:0,0:0:0:0:
116,112,128958,2,0,L|104:66|104:66,3,45,0|0|2|0,0:0|0:0|0:0|0:0,0:0:0:0:
148,80,129321,2,0,L|136:34|136:34,3,45,8|0|0|0,0:0|0:0|0:0|0:0,0:0:0:0:
180,52,129685,1,6,0:0:0:0:
136,64,152958,5,6,0:0:0:0:
188,136,153140,1,0,0:0:0:0:
156,220,153321,1,8,0:0:0:0:
100,148,153503,1,0,0:0:0:0:
188,136,153685,1,0,0:0:0:0:
240,212,153867,1,2,0:0:0:0:
208,296,154049,1,8,0:0:0:0:
136,64,154231,1,0,0:0:0:0:
368,136,154412,6,0,L|464:172,1,90,2|0,0:0|0:0,0:0:0:0:
452,176,154685,1,0,0:0:0:0:
452,185,154776,2,0,L|404:260,1,90,8|0,0:0|0:0,0:0:0:0:
332,316,155140,2,0,L|300:264,1,45,0|0,0:0|0:0,0:0:0:0:
204,256,155321,2,0,L|232:308,1,45,2|0,0:0|0:0,0:0:0:0:
272,220,155503,2,0,L|216:128,1,90,8|0,0:0|0:0,0:0:0:0:
188,60,155867,5,2,0:0:0:0:
276,68,156049,1,0,0:0:0:0:
224,144,156231,1,8,0:0:0:0:
168,36,156412,1,0,0:0:0:0:
312,44,156594,1,0,0:0:0:0:
216,176,156776,1,2,0:0:0:0:
144,8,156958,1,8,0:0:0:0:
344,16,157140,1,0,0:0:0:0:
208,216,157321,6,0,L|184:312,1,90,2|0,0:0|0:0,0:0:0:0:
288,192,157685,2,0,L|312:88,1,90,8|0,0:0|0:0,0:0:0:0:
316,272,158049,2,0,L|300:324,1,45,0|0,0:0|0:0,0:0:0:0:
360,244,158231,2,0,L|376:180,1,45,2|0,0:0|0:0,0:0:0:0:
408,264,158412,2,0,L|384:372,1,90,8|0,0:0|0:0,0:0:0:0:
208,216,158776,5,2,0:0:0:0:
132,164,158958,1,0,0:0:0:0:
148,76,159140,1,8,0:0:0:0:
220,128,159321,1,0,0:0:0:0:
50,192,159503,2,0,P|44:148|64:108,1,90,0|2,0:0|0:0,0:0:0:0:
232,40,159867,2,0,P|280:60|296:104,1,90,8|0,0:0|0:0,0:0:0:0:
284,272,160231,6,0,P|248:308|200:312,1,90,2|0,0:0|0:0,0:0:0:0:
300,240,160594,2,0,P|336:204|384:200,1,90,8|0,0:0|0:0,0:0:0:0:
212,236,160958,2,0,L|172:216,1,45,0|0,0:0|0:0,0:0:0:0:
372,276,161140,2,0,L|416:300,1,45,2|0,0:0|0:0,0:0:0:0:
260,168,161321,2,0,L|172:128,1,90,8|0,0:0|0:0,0:0:0:0:
400,200,161685,6,0,L|492:248,1,90,2|0,0:0|0:0,0:0:0:0:
340,136,162049,1,8,0:0:0:0:
503,161,162231,2,0,L|424:120,1,90,0|0,0:0|0:0,0:0:0:0:
364,56,162594,1,2,0:0:0:0:
512,84,162776,2,0,L|432:42,1,90,8|0,0:0|0:0,0:0:0:0:
220,32,163140,6,0,L|299:73,1,90,2|0,0:0|0:0,0:0:0:0:
368,200,163503,2,0,L|288:158,1,90,8|0,0:0|0:0,0:0:0:0:
164,196,163867,2,0,L|212:220,1,45,0|0,0:0|0:0,0:0:0:0:
320,312,164049,2,0,L|268:288,1,45,2|0,0:0|0:0,0:0:0:0:
132,296,164231,1,8,0:0:0:0:
140,300,164321,1,0,0:0:0:0:
148,304,164412,1,0,0:0:0:0:
156,308,164503,1,0,0:0:0:0:
164,312,164594,5,4,0:0:0:0:
184,224,164776,1,0,0:0:0:0:
152,140,164958,1,8,0:0:0:0:
96,212,165140,1,0,0:0:0:0:
184,224,165321,1,0,0:0:0:0:
236,148,165503,1,2,0:0:0:0:
204,64,165685,1,8,0:0:0:0:
132,296,165867,1,0,0:0:0:0:
364,224,166049,6,0,L|460:188,1,90,2|0,0:0|0:0,0:0:0:0:
448,184,166321,1,0,0:0:0:0:
448,175,166412,2,0,L|400:100,1,90,8|0,0:0|0:0,0:0:0:0:
328,44,166776,2,0,L|296:96,1,45,0|0,0:0|0:0,0:0:0:0:
200,104,166958,2,0,L|228:52,1,45,2|0,0:0|0:0,0:0:0:0:
268,140,167140,2,0,L|212:232,1,90,8|0,0:0|0:0,0:0:0:0:
184,300,167503,5,2,0:0:0:0:
272,292,167685,1,0,0:0:0:0:
220,216,167867,1,8,0:0:0:0:
164,324,168049,1,0,0:0:0:0:
308,316,168231,1,0,0:0:0:0:
212,184,168412,1,2,0:0:0:0:
140,352,168594,1,8,0:0:0:0:
340,344,168776,1,0,0:0:0:0:
204,144,168958,6,0,L|180:48,1,90,2|0,0:0|0:0,0:0:0:0:
284,168,169321,2,0,L|308:272,1,90,8|0,0:0|0:0,0:0:0:0:
312,88,169685,2,0,L|296:36,1,45,0|0,0:0|0:0,0:0:0:0:
356,116,169867,2,0,L|372:180,1,45,2|0,0:0|0:0,0:0:0:0:
404,96,170049,2,0,L|380:-12,1,90,8|0,0:0|0:0,0:0:0:0:
204,144,170412,5,2,0:0:0:0:
128,196,170594,1,0,0:0:0:0:
144,284,170776,1,8,0:0:0:0:
216,232,170958,1,0,0:0:0:0:
46,168,171140,2,0,P|40:212|60:252,1,90,0|2,0:0|0:0,0:0:0:0:
228,320,171503,2,0,P|276:300|292:256,1,90,8|0,0:0|0:0,0:0:0:0:
280,88,171867,6,0,P|244:52|196:48,1,90,2|0,0:0|0:0,0:0:0:0:
296,120,172231,2,0,P|332:156|380:160,1,90,8|0,0:0|0:0,0:0:0:0:
208,124,172594,2,0,L|168:144,1,45,0|0,0:0|0:0,0:0:0:0:
368,84,172776,2,0,L|412:60,1,45,2|0,0:0|0:0,0:0:0:0:
256,192,172958,2,0,L|168:232,1,90,8|0,0:0|0:0,0:0:0:0:
396,160,173321,6,0,L|488:112,1,90,2|0,0:0|0:0,0:0:0:0:
336,224,173685,1,8,0:0:0:0:
499,198,173867,2,0,L|419:239,2,90
508,276,174412,2,0,L|428:317,1,90,8|0,0:0|0:0,0:0:0:0:
216,328,174776,6,0,L|295:286,1,90,2|0,0:0|0:0,0:0:0:0:
364,160,175140,2,0,L|284:201,1,90,8|0,0:0|0:0,0:0:0:0:
160,148,175503,1,0,0:0:0:0:
316,40,175776,1,0,0:0:0:0:
312,244,176049,1,0,0:0:0:0:
312,244,176231,1,4,0:0:0:0:
136,140,179140,5,6,0:0:0:0:
216,96,179321,1,0,0:0:0:0:
216,188,179503,1,8,0:0:0:0:
292,144,179685,1,0,0:0:0:0:
292,236,179867,2,0,L|292:336,2,90,0|2|8,0:0|0:0|0:0,0:0:0:0:
136,236,180412,6,0,B|32:236|32:236|36:244,1,90,0|2,0:0|0:0,0:0:0:0:
292,144,180776,2,0,B|396:144|396:144|392:136,1,90,0|8,0:0|0:0,0:0:0:0:
136,64,181140,1,0,0:0:0:0:
292,143,181321,1,0,0:0:0:0:
136,236,181503,1,2,0:0:0:0:
292,143,181685,1,8,0:0:0:0:
136,64,181867,1,0,0:0:0:0:
292,144,182049,6,0,B|396:144|396:144|392:136,1,90,2|0,0:0|0:0,0:0:0:0:
292,224,182412,2,0,P|228:192|216:144,1,90,8|0,0:0|0:0,0:0:0:0:
384,68,182776,2,0,P|448:100|460:148,2,90,0|2|8,0:0|0:0|0:0,0:0:0:0:
292,224,183321,6,0,L|240:304,1,90,0|2,0:0|0:0,0:0:0:0:
164,252,183685,2,0,L|72:280,1,90,0|8,0:0|0:0,0:0:0:0:
292,224,184049,1,0,0:0:0:0:
416,188,184231,2,0,L|508:160,1,90,0|2,0:0|0:0,0:0:0:0:
292,224,184594,2,0,L|200:148,1,90,8|0,0:0|0:0,0:0:0:0:
376,264,184958,6,0,L|468:340,1,90,2|0,0:0|0:0,0:0:0:0:
292,224,185321,2,0,L|200:148,1,90,8|0,0:0|0:0,0:0:0:0:
124,28,185685,2,0,L|216:104,2,90,0|2|8,0:0|0:0|0:0,0:0:0:0:
100,116,186231,5,0,0:0:0:0:
40,184,186412,1,2,0:0:0:0:
272,120,186594,1,0,0:0:0:0:
332,52,186776,1,8,0:0:0:0:
116,192,186958,5,0,0:0:0:0:
288,196,187140,1,0,0:0:0:0:
136,264,187321,1,2,0:0:0:0:
308,268,187503,1,8,0:0:0:0:
160,332,187685,1,0,0:0:0:0:
332,340,187867,6,0,L|440:348|440:348,1,90,2|0,0:0|0:0,0:0:0:0:
308,268,188231,2,0,P|268:296|252:344,1,90,8|0,0:0|0:0,0:0:0:0:
384,228,188594,2,0,P|424:200|440:152,1,90,0|2,0:0|0:0,0:0:0:0:
352,50,188958,2,0,L|352:140,1,90,8|0,0:0|0:0,0:0:0:0:
264,164,189321,5,2,0:0:0:0:
264,164,189503,1,0,0:0:0:0:
176,172,189685,1,8,0:0:0:0:
176,172,189867,1,0,0:0:0:0:
88,184,190049,5,0,0:0:0:0:
264,164,190231,1,2,0:0:0:0:
180,192,190412,1,8,0:0:0:0:
184,200,190503,1,0,0:0:0:0:
187,208,190594,1,0,0:0:0:0:
191,216,190685,1,0,0:0:0:0:
195,223,190776,6,0,P|223:263|271:287,1,90,6|0,0:0|0:0,0:0:0:0:
264,164,191140,2,0,P|236:124|188:100,1,90,8|0,0:0|0:0,0:0:0:0:
336,196,191503,2,0,L|444:196|444:196,2,90,0|2|8,0:0|0:0|0:0,0:0:0:0:
156,176,192049,5,0,0:0:0:0:
72,140,192231,1,2,0:0:0:0:
168,260,192412,1,0,0:0:0:0:
252,296,192594,1,8,0:0:0:0:
92,312,192776,1,0,0:0:0:0:
232,136,192958,2,0,L|296:56,2,90,0|2|8,0:0|0:0|0:0,0:0:0:0:
232,136,193503,1,0,0:0:0:0:
236,228,193685,6,0,P|292:208|312:160,1,90,2|0,0:0|0:0,0:0:0:0:
156,176,194049,2,0,P|144:236|176:288,1,90,8|0,0:0|0:0,0:0:0:0:
372,248,194412,2,0,P|396:192|388:148,1,90,0|2,0:0|0:0,0:0:0:0:
393,164,194776,1,8,0:0:0:0:
156,176,194958,5,0,0:0:0:0:
156,176,195140,1,2,0:0:0:0:
372,248,195321,1,0,0:0:0:0:
372,248,195503,1,8,0:0:0:0:
268,212,195685,1,0,0:0:0:0:
152,248,195867,5,0,0:0:0:0:
368,176,196049,1,2,0:0:0:0:
200,312,196231,1,8,0:0:0:0:
332,108,196412,1,0,0:0:0:0:
272,336,196594,6,0,P|328:336|356:304,1,90,2|0,0:0|0:0,0:0:0:0:
164,228,196958,2,0,L|208:328,1,90,8|0,0:0|0:0,0:0:0:0:
236,184,197321,2,0,P|196:152|152:148,2,90,0|2|8,0:0|0:0|0:0,0:0:0:0:
304,240,197867,6,0,P|356:240|392:204,1,90,0|2,0:0|0:0,0:0:0:0:
404,128,198231,2,0,P|352:128|316:164,1,90,0|8,0:0|0:0,0:0:0:0:
304,240,198594,2,0,P|304:292|340:328,1,90,0|0,0:0|0:0,0:0:0:0:
404,128,198958,2,0,P|404:76|368:40,2,90,2|8|0,0:0|0:0|0:0,0:0:0:0:
392,216,199503,5,2,0:0:0:0:
392,216,199685,1,0,0:0:0:0:
304,240,199867,1,8,0:0:0:0:
304,240,200049,1,0,0:0:0:0:
220,212,200231,2,0,P|172:208|136:232,2,90,0|2|8,0:0|0:0|0:0,0:0:0:0:
240,300,200776,6,0,P|280:324|332:320,1,90,0|2,0:0|0:0,0:0:0:0:
408,296,201140,1,0,0:0:0:0:
476,236,201321,2,0,L|428:152,1,90,8|0,0:0|0:0,0:0:0:0:
299,53,201685,2,0,L|344:132,1,90,0|2,0:0|0:0,0:0:0:0:
304,240,202049,2,0,L|256:156,1,90,8|0,0:0|0:0,0:0:0:0:
156,76,202412,1,6,0:0:0:0:
256,192,212594,12,0,213685,0:0:0:0:
100,200,214049,22,0,P|108:256|144:276,1,90,6|0,0:0|0:0,0:0:0:0:
220,292,214412,1,8,0:0:0:0:
288,232,214594,1,0,0:0:0:0:
332,232,214685,1,0,0:0:0:0:
368,256,214776,1,0,0:0:0:0:
380,300,214867,1,0,0:0:0:0:
360,340,214958,1,2,0:0:0:0:
288,232,215140,2,0,L|256:136|256:136,1,90,8|0,0:0|0:0,0:0:0:0:
180,100,215503,6,0,L|156:4,1,90,2|0,0:0|0:0,0:0:0:0:
120,36,215776,1,0,0:0:0:0:
80,16,215867,2,0,L|58:103,1,90,8|0,0:0|0:0,0:0:0:0:
28,208,216231,2,0,L|10:249,1,45,2|0,0:0|0:0,0:0:0:0:
221,249,216412,2,0,L|203:207,1,45,0|0,0:0|0:0,0:0:0:0:
120,212,216594,2,0,B|120:320|120:320|120:316,1,90,8|0,0:0|0:0,0:0:0:0:
380,304,216958,6,0,B|380:196|380:196|380:200,1,90,2|0,0:0|0:0,0:0:0:0:
380,124,217321,1,8,0:0:0:0:
328,52,217503,1,0,0:0:0:0:
284,64,217594,1,0,0:0:0:0:
244,48,217685,1,0,0:0:0:0:
204,68,217776,1,0,0:0:0:0:
164,48,217867,1,2,0:0:0:0:
80,84,218049,2,0,L|80:188,1,90,8|0,0:0|0:0,0:0:0:0:
144,326,218412,6,0,B|144:236,1,90,2|0,0:0|0:0,0:0:0:0:
212,80,218776,2,0,L|212:184,1,90,8|0,0:0|0:0,0:0:0:0:
288,320,219140,2,0,L|288:268,1,45,0|0,0:0|0:0,0:0:0:0:
348,144,219321,2,0,L|348:196,1,45,2|0,0:0|0:0,0:0:0:0:
432,320,219503,2,0,L|432:216,1,90,8|0,0:0|0:0,0:0:0:0:
212,80,219867,5,2,0:0:0:0:
124,104,220049,1,0,0:0:0:0:
72,180,220231,1,8,0:0:0:0:
124,104,220412,1,0,0:0:0:0:
148,140,220503,1,0,0:0:0:0:
176,176,220594,1,0,0:0:0:0:
204,212,220685,1,0,0:0:0:0:
232,248,220776,1,2,0:0:0:0:
304,196,220958,1,8,0:0:0:0:
156,296,221140,1,0,0:0:0:0:
304,196,221321,6,0,L|384:120,1,90,2|0,0:0|0:0,0:0:0:0:
456,160,221685,2,0,L|376:236,1,90,8|0,0:0|0:0,0:0:0:0:
276,164,222049,2,0,L|324:124,1,45,0|0,0:0|0:0,0:0:0:0:
512,180,222231,2,0,L|464:220,1,45,2|0,0:0|0:0,0:0:0:0:
252,148,222412,2,0,L|332:72,1,90,8|0,0:0|0:0,0:0:0:0:
216,224,222776,6,0,P|160:272|132:256,1,90,2|0,0:0|0:0,0:0:0:0:
116,248,223049,1,0,0:0:0:0:
76,268,223140,2,0,P|33:260|14:221,1,90,8|0,0:0|0:0,0:0:0:0:
116,248,223503,1,0,0:0:0:0:
116,224,223594,1,0,0:0:0:0:
116,200,223685,1,2,0:0:0:0:
116,176,223776,1,0,0:0:0:0:
116,152,223867,2,0,L|116:48,1,90,8|0,0:0|0:0,0:0:0:0:
252,60,224231,5,2,0:0:0:0:
293,44,224321,1,0,0:0:0:0:
338,47,224412,1,0,0:0:0:0:
376,69,224503,1,0,0:0:0:0:
402,106,224594,1,8,0:0:0:0:
410,149,224685,1,0,0:0:0:0:
398,193,224776,1,0,0:0:0:0:
369,226,224867,1,0,0:0:0:0:
332,252,224958,6,0,L|284:284,3,45,0|0|2|0,0:0|0:0|0:0|0:0,0:0:0:0:
248,284,225321,2,0,L|200:316,3,45,8|0|0|0,0:0|0:0|0:0|0:0,0:0:0:0:
176,280,225685,5,6,0:0:0:0:
108,220,225867,1,0,0:0:0:0:
108,128,226049,1,8,0:0:0:0:
168,60,226231,2,0,L|136:28|136:28,2,45,0|0|0,0:0|0:0|0:0,0:0:0:0:
204,88,226503,1,0,0:0:0:0:
240,116,226594,2,0,P|292:136|328:112,1,90,2|8,0:0|0:0,0:0:0:0:
288,36,226958,1,0,0:0:0:0:
276,220,227140,6,0,P|332:212|364:188,1,90,2|0,0:0|0:0,0:0:0:0:
288,36,227503,2,0,P|232:44|200:68,1,90,8|0,0:0|0:0,0:0:0:0:
380,124,227867,2,0,L|364:72,1,45,0|0,0:0|0:0,0:0:0:0:
176,136,228049,2,0,L|200:196,1,45,2|0,0:0|0:0,0:0:0:0:
420,112,228231,2,0,L|392:20,1,90,8|0,0:0|0:0,0:0:0:0:
136,148,228594,6,0,L|164:240,1,90,2|0,0:0|0:0,0:0:0:0:
228,296,228958,1,8,0:0:0:0:
296,236,229140,1,0,0:0:0:0:
336,212,229231,1,0,0:0:0:0:
380,208,229321,1,0,0:0:0:0:
424,216,229412,1,0,0:0:0:0:
460,244,229503,1,2,0:0:0:0:
296,236,229685,2,0,L|269:149,1,90,8|0,0:0|0:0,0:0:0:0:
312,24,230049,6,0,L|338:110,1,90,2|0,0:0|0:0,0:0:0:0:
268,264,230412,2,0,L|241:177,1,90,8|0,0:0|0:0,0:0:0:0:
400,48,230776,1,0,0:0:0:0:
416,92,230867,1,0,0:0:0:0:
432,132,230958,1,2,0:0:0:0:
176,240,231140,1,8,0:0:0:0:
160,196,231231,1,0,0:0:0:0:
144,156,231321,1,0,0:0:0:0:
208,320,231503,6,0,P|256:344|308:328,1,90,2|0,0:0|0:0,0:0:0:0:
356,276,231867,1,8,0:0:0:0:
424,216,232049,2,0,L|480:216|480:216,2,45,0|0|0,0:0|0:0|0:0,0:0:0:0:
384,196,232321,1,0,0:0:0:0:
348,168,232412,2,0,L|232:168,2,90,2|8|0,0:0|0:0|0:0,0:0:0:0:
388,88,232958,6,0,P|356:24|304:20,1,90,2|0,0:0|0:0,0:0:0:0:
264,64,233321,2,0,P|212:80|176:64,1,90,8|0,0:0|0:0,0:0:0:0:
100,28,233685,1,0,0:0:0:0:
68,60,233776,1,0,0:0:0:0:
52,104,233867,1,2,0:0:0:0:
64,148,233958,1,0,0:0:0:0:
96,180,234049,2,0,P|116:232|96:272,1,90,8|0,0:0|0:0,0:0:0:0:
96,180,234412,5,2,0:0:0:0:
114,165,234503,1,0,0:0:0:0:
136,154,234594,1,0,0:0:0:0:
159,148,234685,1,0,0:0:0:0:
183,147,234776,1,8,0:0:0:0:
207,151,234867,1,0,0:0:0:0:
229,159,234958,1,0,0:0:0:0:
250,172,235049,1,0,0:0:0:0:
267,188,235140,5,0,0:0:0:0:
281,208,235231,1,0,0:0:0:0:
290,230,235321,1,2,0:0:0:0:
295,253,235412,1,0,0:0:0:0:
295,277,235503,1,8,0:0:0:0:
291,301,235594,1,0,0:0:0:0:
281,323,235685,1,0,0:0:0:0:
268,343,235776,1,0,0:0:0:0:
256,192,235867,12,0,236958,0:0:0:0:
376,244,237321,5,6,0:0:0:0:
296,288,237503,1,0,0:0:0:0:
296,196,237685,1,8,0:0:0:0:
220,240,237867,1,0,0:0:0:0:
220,148,238049,2,0,L|220:48,2,90,0|2|8,0:0|0:0|0:0,0:0:0:0:
376,148,238594,6,0,B|480:148|480:148|476:140,1,90,0|2,0:0|0:0,0:0:0:0:
220,240,238958,2,0,B|116:240|116:240|120:248,1,90,0|8,0:0|0:0,0:0:0:0:
376,320,239321,1,0,0:0:0:0:
220,241,239503,1,0,0:0:0:0:
376,148,239685,1,2,0:0:0:0:
220,241,239867,1,8,0:0:0:0:
376,320,240049,1,0,0:0:0:0:
220,240,240231,6,0,B|116:240|116:240|120:248,1,90,2|0,0:0|0:0,0:0:0:0:
220,160,240594,2,0,P|284:192|296:240,1,90,8|0,0:0|0:0,0:0:0:0:
128,316,240958,2,0,P|64:284|52:236,2,90,0|2|8,0:0|0:0|0:0,0:0:0:0:
220,160,241503,6,0,L|272:80,1,90,0|2,0:0|0:0,0:0:0:0:
348,132,241867,2,0,L|440:104,1,90,0|8,0:0|0:0,0:0:0:0:
220,160,242231,1,0,0:0:0:0:
96,196,242412,2,0,L|4:224,1,90,0|2,0:0|0:0,0:0:0:0:
220,160,242776,2,0,L|312:236,1,90,8|0,0:0|0:0,0:0:0:0:
136,120,243140,6,0,L|44:44,1,90,2|0,0:0|0:0,0:0:0:0:
220,160,243503,2,0,L|312:236,1,90,8|0,0:0|0:0,0:0:0:0:
388,356,243867,2,0,L|296:280,2,90,0|2|8,0:0|0:0|0:0,0:0:0:0:
412,268,244412,5,0,0:0:0:0:
472,200,244594,1,2,0:0:0:0:
240,264,244776,1,0,0:0:0:0:
180,332,244958,1,8,0:0:0:0:
396,192,245140,5,0,0:0:0:0:
224,188,245321,1,0,0:0:0:0:
376,120,245503,1,2,0:0:0:0:
204,116,245685,1,8,0:0:0:0:
352,52,245867,1,0,0:0:0:0:
180,44,246049,6,0,L|72:36|72:36,1,90,2|0,0:0|0:0,0:0:0:0:
204,116,246412,2,0,P|244:88|260:40,1,90,8|0,0:0|0:0,0:0:0:0:
128,156,246776,2,0,P|88:184|72:232,1,90,0|2,0:0|0:0,0:0:0:0:
160,334,247140,2,0,L|160:244,1,90,8|0,0:0|0:0,0:0:0:0:
248,220,247503,5,2,0:0:0:0:
248,220,247685,1,0,0:0:0:0:
336,212,247867,1,8,0:0:0:0:
336,212,248049,1,0,0:0:0:0:
424,200,248231,5,0,0:0:0:0:
248,220,248412,1,2,0:0:0:0:
332,192,248594,1,8,0:0:0:0:
329,183,248685,1,0,0:0:0:0:
325,174,248776,1,0,0:0:0:0:
322,165,248867,1,0,0:0:0:0:
318,156,248958,6,0,P|290:116|242:92,1,90,6|0,0:0|0:0,0:0:0:0:
248,220,249321,2,0,P|276:260|324:284,1,90,8|0,0:0|0:0,0:0:0:0:
176,188,249685,2,0,L|68:188|68:188,2,90,0|2|8,0:0|0:0|0:0,0:0:0:0:
356,208,250231,5,0,0:0:0:0:
440,244,250412,1,2,0:0:0:0:
344,124,250594,1,0,0:0:0:0:
260,88,250776,1,8,0:0:0:0:
420,72,250958,1,0,0:0:0:0:
280,248,251140,2,0,L|216:328,2,90,0|2|8,0:0|0:0|0:0,0:0:0:0:
280,248,251685,1,0,0:0:0:0:
276,156,251867,6,0,P|220:176|200:224,1,90,2|0,0:0|0:0,0:0:0:0:
356,208,252231,2,0,P|368:148|336:96,1,90,8|0,0:0|0:0,0:0:0:0:
140,136,252594,2,0,P|116:192|124:236,1,90,0|2,0:0|0:0,0:0:0:0:
119,220,252958,1,8,0:0:0:0:
356,208,253140,5,0,0:0:0:0:
356,208,253321,1,2,0:0:0:0:
140,136,253503,1,0,0:0:0:0:
140,136,253685,1,8,0:0:0:0:
244,172,253867,1,0,0:0:0:0:
360,136,254049,5,0,0:0:0:0:
144,208,254231,1,2,0:0:0:0:
312,72,254412,1,8,0:0:0:0:
180,276,254594,1,0,0:0:0:0:
240,48,254776,6,0,P|184:48|156:80,1,90,2|0,0:0|0:0,0:0:0:0:
348,156,255140,2,0,L|304:56,1,90,8|0,0:0|0:0,0:0:0:0:
276,200,255503,2,0,P|316:232|360:236,2,90,0|2|8,0:0|0:0|0:0,0:0:0:0:
208,144,256049,6,0,P|156:144|120:180,1,90,0|2,0:0|0:0,0:0:0:0:
108,256,256412,2,0,P|160:256|196:220,1,90,0|8,0:0|0:0,0:0:0:0:
208,144,256776,2,0,P|208:92|172:56,1,90,0|0,0:0|0:0,0:0:0:0:
108,256,257140,2,0,P|108:308|144:344,2,90,2|8|0,0:0|0:0|0:0,0:0:0:0:
120,168,257685,5,2,0:0:0:0:
120,168,257867,1,0,0:0:0:0:
208,144,258049,1,8,0:0:0:0:
208,144,258231,1,0,0:0:0:0:
292,172,258412,2,0,P|340:176|376:152,2,90,0|2|8,0:0|0:0|0:0,0:0:0:0:
272,84,258958,6,0,P|232:60|180:64,1,90,0|2,0:0|0:0,0:0:0:0:
104,88,259321,1,0,0:0:0:0:
36,148,259503,2,0,L|84:232,1,90,8|0,0:0|0:0,0:0:0:0:
213,331,259867,2,0,L|168:252,1,90,0|2,0:0|0:0,0:0:0:0:
208,144,260231,2,0,L|256:228,1,90,8|0,0:0|0:0,0:0:0:0:
356,308,260594,1,6,0:0:0:0:
