osu file format v14

[General]
AudioFilename: Defiance.mp3
AudioLeadIn: 0
PreviewTime: 214049
Countdown: 0
SampleSet: Normal
StackLeniency: 0.7
Mode: 0
LetterboxInBreaks: 0
EpilepsyWarning: 1
WidescreenStoryboard: 1

[Editor]
Bookmarks: 36566,59839,80203,106384,129657,152930,176203,179112,202384,214021,237293,260566
DistanceSpacing: 1
BeatDivisor: 4
GridSize: 4
TimelineZoom: 1.6

[Metadata]
Title:Defiance
TitleUnicode:Defiance
Artist:maritumix
ArtistUnicode:maritumix
Creator:Leorda
Version:Hard
Source:東方Project
Tags:touhou shinmyoumaru sukuna th13 double dealing character little princess
BeatmapID:658960
BeatmapSetID:292857

[Difficulty]
HPDrainRate:4
CircleSize:4
OverallDifficulty:5
ApproachRate:7.5
SliderMultiplier:1.5
SliderTickRate:2

[Events]
//Background and Video events
0,0,"a.jpg",0,0
//Break Periods
2,83140,93923
2,129885,152105
2,176431,178287
2,202612,211741
//Storyboard Layer 0 (Background)
//Storyboard Layer 1 (Fail)
//Storyboard Layer 2 (Pass)
//Storyboard Layer 3 (Foreground)
//Storyboard Sound Samples

[TimingPoints]
231,363.636363636364,4,1,1,90,1,0
94776,-200,4,1,1,90,0,0
106412,-100,4,1,1,90,0,0
179140,-100,4,1,1,90,0,1
202412,-100,4,1,1,90,0,0
237321,-100,4,1,1,90,0,1
260594,-100,4,1,1,90,0,0

[Colours]
Combo1 : 255,128,255
Combo2 : 128,128,255

[HitObjects]
140,80,36231,6,0,L|108:124,4,37.5,8|0|0|0|6,0:0|0:0|0:0|0:0|0:0,0:0:0:0:
308,68,36958,6,0,P|352:132|324:208,1,150,8|0,0:0|0:0,0:0:0:0:
260,144,37503,1,0,0:0:0:0:
308,68,37685,2,0,P|356:32|384:32,1,75,8|0,0:0|0:0,0:0:0:0:
456,68,38049,5,2,0:0:0:0:
456,228,38412,1,8,0:0:0:0:
456,228,38776,1,0,0:0:0:0:
372,252,38958,1,2,0:0:0:0:
324,176,39140,1,8,0:0:0:0:
152,180,39503,6,0,P|112:136|148:36,1,150,2|8,0:0|0:0,0:0:0:0:
304,84,40231,2,0,P|344:128|308:228,1,150,0|8,0:0|0:0,0:0:0:0:
240,216,40776,1,0,0:0:0:0:
292,288,40958,6,0,P|344:296|392:276,2,75,2|0|8,0:0|0:0|0:0,0:0:0:0:
340,212,41503,2,0,P|392:208|432:176,2,75,0|0|2,0:0|0:0|0:0,0:0:0:0:
364,128,42049,2,0,L|364:76,4,37.5,8|0|0|0|2,0:0|0:0|0:0|0:0|0:0,0:0:0:0:
320,300,42776,6,0,P|388:300|472:264,1,150,8|0,0:0|0:0,0:0:0:0:
492,180,43321,1,2,0:0:0:0:
476,92,43503,2,0,P|448:48|416:36,1,75,8|0,0:0|0:0,0:0:0:0:
348,80,43867,5,2,0:0:0:0:
348,80,44231,1,8,0:0:0:0:
312,256,44594,1,0,0:0:0:0:
368,328,44776,1,2,0:0:0:0:
440,276,44958,1,8,0:0:0:0:
456,364,45140,1,0,0:0:0:0:
440,276,45321,6,0,P|440:212|364:160,1,150,2|8,0:0|0:0,0:0:0:0:
288,184,45867,1,0,0:0:0:0:
200,212,46049,2,0,P|133:172|127:96,1,150,0|8,0:0|0:0,0:0:0:0:
208,128,46594,1,0,0:0:0:0:
200,212,46776,6,0,L|180:308,2,75,2|0|8,0:0|0:0|0:0,0:0:0:0:
288,184,47321,2,0,L|304:272|304:272,2,75,0|0|2,0:0|0:0|0:0,0:0:0:0:
364,128,47867,2,0,L|404:208,1,75,8|0,0:0|0:0,0:0:0:0:
396,292,48231,5,6,0:0:0:0:
436,116,48594,2,0,P|376:56|304:88,1,150,8|0,0:0|0:0,0:0:0:0:
236,100,49140,1,2,0:0:0:0:
204,184,49321,1,8,0:0:0:0:
236,100,49503,1,0,0:0:0:0:
292,168,49685,6,0,P|288:220|252:252,2,75,2|0|8,0:0|0:0|0:0,0:0:0:0:
204,188,50231,1,0,0:0:0:0:
188,276,50412,1,0,0:0:0:0:
252,336,50594,1,2,0:0:0:0:
332,300,50776,1,8,0:0:0:0:
252,336,50958,1,0,0:0:0:0:
188,276,51140,6,0,P|124:224|136:136,1,150,2|8,0:0|0:0,0:0:0:0:
248,28,51867,2,0,P|312:80|304:160,1,150,0|8,0:0|0:0,0:0:0:0:
268,228,52412,1,0,0:0:0:0:
316,300,52594,6,0,P|360:328|396:324,1,75,2|0,0:0|0:0,0:0:0:0:
376,240,52958,2,0,P|432:240|460:216,1,75,8|0,0:0|0:0,0:0:0:0:
392,156,53321,2,0,P|444:132|456:96,1,75,0|2,0:0|0:0,0:0:0:0:
376,72,53685,2,0,P|408:24|404:4,1,75,8|0,0:0|0:0,0:0:0:0:
364,76,54049,6,0,P|280:120|220:80,1,150,2|8,0:0|0:0,0:0:0:0:
160,40,54594,1,0,0:0:0:0:
148,128,54776,2,0,P|184:172|288:200,1,150,0|8,0:0|0:0,0:0:0:0:
360,188,55321,1,0,0:0:0:0:
408,260,55503,6,0,P|424:312|416:352,1,75,2|0,0:0|0:0,0:0:0:0:
336,308,55867,2,0,P|316:348|280:364,1,75,8|0,0:0|0:0,0:0:0:0:
256,280,56231,2,0,P|216:312|180:308,1,75,0|2,0:0|0:0,0:0:0:0:
200,224,56594,2,0,P|140:232|112:216,1,75,8|0,0:0|0:0,0:0:0:0:
256,192,56958,12,0,58412,0:0:0:0:
120,284,59867,5,6,0:0:0:0:
72,116,60231,1,8,0:0:0:0:
140,168,60412,2,0,P|188:184|276:120,1,150,0|2,0:0|0:0,0:0:0:0:
240,44,60958,2,0,P|204:72|192:116,1,75,8|0,0:0|0:0,0:0:0:0:
193,98,61321,5,2,0:0:0:0:
160,260,61685,1,8,0:0:0:0:
300,164,62049,1,0,0:0:0:0:
344,240,62231,1,2,0:0:0:0:
388,316,62412,1,8,0:0:0:0:
300,164,62776,6,0,P|264:116|160:136,1,150,2|8,0:0|0:0,0:0:0:0:
224,188,63321,2,0,P|256:96|224:36,1,150,0|2,0:0|0:0,0:0:0:0:
144,60,63867,2,0,P|96:76|64:60,1,75,8|0,0:0|0:0,0:0:0:0:
8,128,64231,5,2,0:0:0:0:
0,308,64594,1,8,0:0:0:0:
92,144,64958,1,0,0:0:0:0:
84,232,65140,1,0,0:0:0:0:
76,324,65321,1,8,0:0:0:0:
252,280,65685,6,0,P|308:272|356:180,2,150,2|8|0,0:0|0:0|0:0,0:0:0:0:
196,212,66594,1,2,0:0:0:0:
136,148,66776,2,0,P|64:148|40:172,1,75,8|0,0:0|0:0,0:0:0:0:
100,228,67140,6,0,P|172:228|220:144,1,150,2|8,0:0|0:0,0:0:0:0:
236,76,67685,2,0,P|320:20|376:48,1,150,0|2,0:0|0:0,0:0:0:0:
432,96,68231,1,8,0:0:0:0:
432,272,68594,5,2,0:0:0:0:
284,248,68958,1,8,0:0:0:0:
224,184,69140,2,0,P|180:160|84:208,1,150,0|2,0:0|0:0,0:0:0:0:
68,280,69685,1,8,0:0:0:0:
232,316,70049,6,0,P|304:332|320:324,1,75,2|0,0:0|0:0,0:0:0:0:
284,248,70412,2,0,P|352:240|368:220,1,75,8|0,0:0|0:0,0:0:0:0:
304,164,70776,2,0,L|304:112,2,37.5,0|0|2,0:0|0:0|0:0,0:0:0:0:
220,188,71140,2,0,L|128:188,2,75,8|0|6,0:0|0:0|0:0,0:0:0:0:
392,144,71867,6,0,P|388:88|296:28,1,150,8|0,0:0|0:0,0:0:0:0:
228,28,72412,1,2,0:0:0:0:
136,28,72594,2,0,L|136:124,1,75,8|0,0:0|0:0,0:0:0:0:
136,196,72958,5,2,0:0:0:0:
140,376,73321,1,8,0:0:0:0:
212,240,73685,1,0,0:0:0:0:
212,328,73867,1,2,0:0:0:0:
288,284,74049,2,0,L|288:184,1,75,8|0,0:0|0:0,0:0:0:0:
288,116,74412,6,0,P|340:136|364:248,1,150,2|8,0:0|0:0,0:0:0:0:
288,204,74958,2,0,L|440:112,1,150,0|2,0:0|0:0,0:0:0:0:
492,80,75503,1,8,0:0:0:0:
492,252,75867,6,0,L|472:336,1,75,2|0,0:0|0:0,0:0:0:0:
408,272,76231,2,0,L|336:336,1,75,8|0,0:0|0:0,0:0:0:0:
336,232,76594,2,0,L|236:252,2,75,0|2|8,0:0|0:0|0:0,0:0:0:0:
236,84,77321,6,0,L|80:44,1,150,2|8,0:0|0:0,0:0:0:0:
20,108,77867,2,0,L|176:148,1,150,0|2,0:0|0:0,0:0:0:0:
196,232,78412,2,0,L|120:216,1,75,8|0,0:0|0:0,0:0:0:0:
256,192,78776,12,4,80231,0:0:0:0:
56,56,94776,6,0,L|56:220,1,150
132,56,96231,2,0,L|132:220,1,150
204,56,97685,6,0,L|204:220,1,150
280,56,99140,2,0,L|280:220,1,150
456,328,100594,6,0,L|456:164,1,150
380,328,102049,2,0,L|380:164,1,150
308,328,103503,6,0,L|308:164,1,150
232,328,104958,2,0,L|232:164,1,150
232,168,106049,1,8,0:0:0:0:
232,80,106412,6,0,P|280:96|312:200,1,150,6|8,0:0|0:0,0:0:0:0:
256,248,106958,2,0,P|308:276|392:224,1,150,0|2,0:0|0:0,0:0:0:0:
400,152,107503,1,8,0:0:0:0:
268,24,107867,6,0,B|188:16|188:48|104:36,1,150,2|8,0:0|0:0,0:0:0:0:
60,104,108412,2,0,P|108:116|240:100,1,150,0|2,0:0|0:0,0:0:0:0:
296,96,108958,1,8,0:0:0:0:
216,256,109321,6,0,P|168:301|80:272,1,150,2|8,0:0|0:0,0:0:0:0:
144,216,109867,2,0,P|184:176|284:208,1,150,0|2,0:0|0:0,0:0:0:0:
336,248,110412,1,8,0:0:0:0:
400,80,110776,6,0,L|432:164,2,75,2|0|8,0:0|0:0|0:0,0:0:0:0:
312,72,111321,2,0,L|344:156,2,75,0|0|2,0:0|0:0|0:0,0:0:0:0:
224,68,111867,2,0,L|256:152,1,75,8|0,0:0|0:0,0:0:0:0:
288,220,112231,6,0,P|236:228|168:136,1,150,2|8,0:0|0:0,0:0:0:0:
140,76,112776,1,0,0:0:0:0:
48,76,112958,2,0,P|12:104|12:144,1,75
96,152,113321,1,8,0:0:0:0:
96,240,113503,2,0,L|96:344,2,75,0|2|0,0:0|0:0|0:0,0:0:0:0:
96,152,114049,5,8,0:0:0:0:
172,200,114231,1,0,0:0:0:0:
228,136,114412,1,0,0:0:0:0:
304,184,114594,1,2,0:0:0:0:
360,116,114776,1,8,0:0:0:0:
436,160,114958,1,0,0:0:0:0:
304,184,115140,6,0,L|280:272,2,75,2|0|8,0:0|0:0|0:0,0:0:0:0:
436,160,115867,2,0,L|488:240,2,75,0|2|8,0:0|0:0|0:0,0:0:0:0:
304,184,116594,2,0,L|248:124,1,75,2|0,0:0|0:0,0:0:0:0:
436,160,116958,2,0,L|452:72,1,75,8|0,0:0|0:0,0:0:0:0:
380,220,117321,1,0,0:0:0:0:
380,220,117503,1,2,0:0:0:0:
412,300,117685,2,0,L|432:352,2,37.5,8|0|0,0:0|0:0|0:0,0:0:0:0:
412,300,118049,6,0,L|304:300,1,75,6|0,0:0|0:0,0:0:0:0:
244,300,118412,1,8,0:0:0:0:
156,300,118594,2,0,P|112:284|96:244,1,75
96,168,118958,1,2,0:0:0:0:
176,212,119140,1,8,0:0:0:0:
100,260,119321,1,0,0:0:0:0:
96,168,119503,6,0,L|96:64,1,75,2|0,0:0|0:0,0:0:0:0:
152,16,119867,1,8,0:0:0:0:
232,52,120049,2,0,L|232:136,1,75,0|0,0:0|0:0,0:0:0:0:
304,180,120412,1,2,0:0:0:0:
352,108,120594,2,0,L|352:28,1,75,8|0,0:0|0:0,0:0:0:0:
304,180,120958,6,0,L|304:280,1,75,2|0,0:0|0:0,0:0:0:0:
244,324,121321,1,8,0:0:0:0:
156,324,121503,2,0,P|104:316|64:216,1,150,0|2,0:0|0:0,0:0:0:0:
116,164,122049,1,8,0:0:0:0:
148,244,122231,1,0,0:0:0:0:
60,236,122412,6,0,P|28:176|68:92,1,150,2|8,0:0|0:0,0:0:0:0:
232,36,123140,1,0,0:0:0:0:
272,116,123321,1,2,0:0:0:0:
360,116,123503,1,8,0:0:0:0:
400,40,123685,1,0,0:0:0:0:
316,16,123867,6,0,L|316:184,1,150,2|8,0:0|0:0,0:0:0:0:
316,264,124412,1,0,0:0:0:0:
380,324,124594,2,0,L|428:360,2,37.5,0|0|2,0:0|0:0|0:0,0:0:0:0:
316,264,124958,1,8,0:0:0:0:
244,212,125140,6,0,L|72:212,1,150,0|0,0:0|0:0,0:0:0:0:
124,132,125685,2,0,L|216:132,1,75,8|0,0:0|0:0,0:0:0:0:
204,44,126049,2,0,L|120:44,2,75,0|2|8,0:0|0:0|0:0,0:0:0:0:
256,192,126776,12,4,129685,0:0:0:0:
256,192,152958,5,6,0:0:0:0:
168,180,153140,1,0,0:0:0:0:
128,100,153321,1,8,0:0:0:0:
216,112,153503,1,0,0:0:0:0:
256,192,153685,2,0,P|256:252|232:276,1,75,0|2,0:0|0:0,0:0:0:0:
256,192,154049,2,0,P|296:160|336:164,1,75,8|0,0:0|0:0,0:0:0:0:
384,220,154412,6,0,P|436:212|468:176,1,75,2|0,0:0|0:0,0:0:0:0:
468,108,154776,2,0,L|380:128|380:128,1,75,8|0,0:0|0:0,0:0:0:0:
348,48,155140,2,0,P|388:20|432:24,2,75,0|2|8,0:0|0:0|0:0,0:0:0:0:
336,136,155685,1,0,0:0:0:0:
284,208,155867,5,2,0:0:0:0:
204,244,156049,1,0,0:0:0:0:
124,208,156231,1,8,0:0:0:0:
44,244,156412,1,0,0:0:0:0:
124,208,156594,1,0,0:0:0:0:
124,120,156776,1,2,0:0:0:0:
124,208,156958,1,8,0:0:0:0:
124,296,157140,1,0,0:0:0:0:
204,244,157321,5,0,0:0:0:0:
348,352,157685,1,8,0:0:0:0:
280,184,158049,1,0,0:0:0:0:
348,240,158231,1,0,0:0:0:0:
416,300,158412,1,8,0:0:0:0:
348,240,158594,1,0,0:0:0:0:
352,148,158776,6,0,P|340:80|312:64,2,75,2|0|8,0:0|0:0|0:0,0:0:0:0:
268,112,159321,2,0,P|232:80|188:80,2,75,0|0|2,0:0|0:0|0:0,0:0:0:0:
188,156,159867,2,0,P|148:176|132:212,1,75,8|0,0:0|0:0,0:0:0:0:
216,236,160231,5,2,0:0:0:0:
216,236,160594,1,8,0:0:0:0:
392,280,160958,2,0,P|428:252|456:212,1,75
364,188,161321,2,0,L|364:80,1,75,8|0,0:0|0:0,0:0:0:0:
312,36,161685,5,2,0:0:0:0:
248,96,161867,1,0,0:0:0:0:
180,40,162049,1,8,0:0:0:0:
124,108,162231,1,0,0:0:0:0:
76,180,162412,2,0,L|20:248,1,75,0|2,0:0|0:0,0:0:0:0:
76,312,162776,2,0,L|132:240,1,75,8|0,0:0|0:0,0:0:0:0:
188,188,163140,5,2,0:0:0:0:
264,352,163503,1,8,0:0:0:0:
356,192,163867,2,0,L|408:192,2,37.5,0|0|2,0:0|0:0|0:0,0:0:0:0:
412,120,164231,2,0,L|412:20,1,75,8|0,0:0|0:0,0:0:0:0:
320,36,164594,5,6,0:0:0:0:
252,92,164776,1,0,0:0:0:0:
320,36,164958,1,8,0:0:0:0:
324,124,165140,1,0,0:0:0:0:
320,212,165321,2,0,L|280:292,1,75,0|2,0:0|0:0,0:0:0:0:
200,308,165685,2,0,P|148:304|124:280,1,75,8|0,0:0|0:0,0:0:0:0:
84,212,166049,6,0,P|68:156|84:128,1,75,2|0,0:0|0:0,0:0:0:0:
148,84,166412,2,0,P|164:140|148:168,1,75,8|0,0:0|0:0,0:0:0:0:
84,212,166776,2,0,L|48:288,2,75,0|2|8,0:0|0:0|0:0,0:0:0:0:
84,212,167321,1,0,0:0:0:0:
156,168,167503,5,2,0:0:0:0:
240,192,167685,1,0,0:0:0:0:
308,136,167867,1,8,0:0:0:0:
240,192,168049,1,0,0:0:0:0:
256,280,168231,2,0,L|272:368,2,75,0|2|8,0:0|0:0|0:0,0:0:0:0:
240,192,168776,1,0,0:0:0:0:
224,104,168958,5,0,0:0:0:0:
224,104,169140,1,0,0:0:0:0:
296,48,169321,1,8,0:0:0:0:
296,48,169503,1,0,0:0:0:0:
376,92,169685,2,0,L|400:188,1,75,0|2,0:0|0:0,0:0:0:0:
484,188,170049,2,0,L|456:92,1,75,8|0,0:0|0:0,0:0:0:0:
300,132,170412,6,0,L|324:224,1,75,2|0,0:0|0:0,0:0:0:0:
284,292,170776,1,8,0:0:0:0:
208,248,170958,2,0,L|176:152,1,75
104,132,171321,1,2,0:0:0:0:
44,196,171503,2,0,L|72:284,1,75,8|0,0:0|0:0,0:0:0:0:
104,132,171867,6,0,P|88:80|56:60,1,75,2|0,0:0|0:0,0:0:0:0:
104,132,172231,2,0,P|112:192|144:216,1,75,8|0,0:0|0:0,0:0:0:0:
192,148,172594,2,0,L|284:148|284:148,1,75
204,60,172958,2,0,L|304:60,1,75,8|0,0:0|0:0,0:0:0:0:
356,112,173321,5,2,0:0:0:0:
448,260,173685,1,8,0:0:0:0:
400,188,173867,1,0,0:0:0:0:
352,260,174049,1,0,0:0:0:0:
404,332,174231,1,2,0:0:0:0:
308,184,174594,1,0,0:0:0:0:
264,260,174776,6,0,L|172:260,1,75,2|0,0:0|0:0,0:0:0:0:
144,180,175140,2,0,L|240:180,1,75,8|0,0:0|0:0,0:0:0:0:
188,100,175503,2,0,L|64:100,2,112.5,0|0|0,0:0|0:0|0:0,0:0:0:0:
188,100,176231,1,6,0:0:0:0:
416,80,179140,5,6,0:0:0:0:
456,160,179321,1,0,0:0:0:0:
400,228,179503,1,8,0:0:0:0:
436,308,179685,1,0,0:0:0:0:
400,228,179867,2,0,P|340:184|252:216,1,150,0|8,0:0|0:0,0:0:0:0:
197,252,180412,6,0,P|226:279|268:288,1,75,0|2,0:0|0:0,0:0:0:0:
197,252,180776,2,0,P|180:204|144:184,1,75,0|8,0:0|0:0,0:0:0:0:
108,260,181140,1,0,0:0:0:0:
64,184,181321,2,0,L|24:108,1,75,0|2,0:0|0:0,0:0:0:0:
116,116,181685,2,0,L|104:28,1,75,8|0,0:0|0:0,0:0:0:0:
192,60,182049,5,2,0:0:0:0:
352,60,182412,1,8,0:0:0:0:
272,92,182594,1,0,0:0:0:0:
272,180,182776,2,0,B|252:264|292:248|276:348,1,150,0|8,0:0|0:0,0:0:0:0:
196,304,183321,5,0,0:0:0:0:
96,152,183685,1,0,0:0:0:0:
196,304,184049,1,0,0:0:0:0:
171,218,184231,2,0,L|241:189,2,75,0|2|8,0:0|0:0|0:0,0:0:0:0:
320,148,184776,1,0,0:0:0:0:
400,180,184958,5,2,0:0:0:0:
400,180,185140,1,0,0:0:0:0:
320,148,185321,1,8,0:0:0:0:
320,148,185503,1,0,0:0:0:0:
260,84,185685,1,0,0:0:0:0:
336,232,186049,1,8,0:0:0:0:
360,316,186231,6,0,P|395:298|418:266,1,75,0|2,0:0|0:0,0:0:0:0:
336,232,186594,2,0,P|292:256|276:292,1,75,0|8,0:0|0:0,0:0:0:0:
360,316,186958,1,0,0:0:0:0:
336,232,187140,1,0,0:0:0:0:
352,148,187321,1,2,0:0:0:0:
268,176,187503,1,8,0:0:0:0:
184,148,187685,1,0,0:0:0:0:
252,260,187867,5,2,0:0:0:0:
248,84,188231,1,8,0:0:0:0:
164,60,188412,1,0,0:0:0:0:
100,120,188594,2,0,P|100:180|128:216,2,75,0|2|8,0:0|0:0|0:0,0:0:0:0:
248,84,189140,5,0,0:0:0:0:
248,84,189321,1,2,0:0:0:0:
428,96,189685,1,8,0:0:0:0:
296,160,190049,1,0,0:0:0:0:
336,240,190231,1,2,0:0:0:0:
384,164,190412,2,0,L|416:200,4,37.5,8|0|0|0|6,0:0|0:0|0:0|0:0|0:0,0:0:0:0:
204,160,191140,5,8,0:0:0:0:
264,328,191503,1,0,0:0:0:0:
232,244,191685,1,2,0:0:0:0:
204,160,191867,2,0,P|168:128|124:136,1,75,8|0,0:0|0:0,0:0:0:0:
140,220,192231,6,0,L|104:296,1,75,2|0,0:0|0:0,0:0:0:0:
232,244,192594,2,0,L|260:332,1,75,8|0,0:0|0:0,0:0:0:0:
304,176,192958,2,0,L|376:220,2,75,0|2|8,0:0|0:0|0:0,0:0:0:0:
120,132,193685,5,2,0:0:0:0:
120,132,194049,1,8,0:0:0:0:
276,100,194412,2,0,P|328:104|364:84,2,75,0|2|8,0:0|0:0|0:0,0:0:0:0:
308,16,194958,6,0,L|316:180,2,150,0|0|0,0:0|0:0|0:0,0:0:0:0:
392,52,195867,1,0,0:0:0:0:
392,52,196049,1,2,0:0:0:0:
400,140,196231,1,8,0:0:0:0:
400,140,196412,1,0,0:0:0:0:
320,180,196594,5,2,0:0:0:0:
236,208,196776,1,0,0:0:0:0:
308,260,196958,1,8,0:0:0:0:
260,332,197140,1,0,0:0:0:0:
348,348,197321,2,0,P|408:332|436:248,1,150,0|8,0:0|0:0,0:0:0:0:
424,164,197867,6,0,L|400:84,1,75,0|2,0:0|0:0,0:0:0:0:
332,148,198231,2,0,L|264:88,1,75,0|8,0:0|0:0,0:0:0:0:
236,180,198594,1,0,0:0:0:0:
200,256,198776,2,0,P|128:288|76:232,1,150,0|8,0:0|0:0,0:0:0:0:
168,92,199503,5,2,0:0:0:0:
316,144,199867,1,8,0:0:0:0:
256,76,200049,1,0,0:0:0:0:
220,160,200231,2,0,L|176:248,2,75,0|2|8,0:0|0:0|0:0,0:0:0:0:
316,144,200776,5,0,0:0:0:0:
316,144,200958,1,2,0:0:0:0:
340,232,201140,2,0,L|300:304|300:304,2,75,0|8|0,0:0|0:0|0:0,0:0:0:0:
428,240,201685,2,0,L|388:312|388:312,2,75,0|2|8,0:0|0:0|0:0,0:0:0:0:
488,308,202231,2,0,L|448:380|448:380,1,75,0|4,0:0|0:0,0:0:0:0:
256,192,212594,12,4,214049,0:0:0:0:
212,292,214412,5,8,0:0:0:0:
252,208,214594,2,0,P|236:108|200:100,1,150,0|2,0:0|0:0,0:0:0:0:
112,108,215140,1,8,0:0:0:0:
64,184,215321,1,0,0:0:0:0:
152,192,215503,6,0,P|144:256|60:296,1,150,2|8,0:0|0:0,0:0:0:0:
152,192,216049,1,0,0:0:0:0:
232,212,216231,2,0,P|264:248|272:284,1,75,0|2,0:0|0:0,0:0:0:0:
256,140,216594,2,0,P|308:152|332:184,1,75,8|0,0:0|0:0,0:0:0:0:
248,64,216958,6,0,P|304:64|396:136,1,150,2|8,0:0|0:0,0:0:0:0:
404,204,217503,1,0,0:0:0:0:
416,292,217685,2,0,P|424:336|456:356,2,75,0|2|8,0:0|0:0|0:0,0:0:0:0:
404,204,218231,1,0,0:0:0:0:
332,256,218412,6,0,P|288:288|248:284,1,75,2|0,0:0|0:0,0:0:0:0:
212,216,218776,2,0,P|248:188|284:188,1,75,8|0,0:0|0:0,0:0:0:0:
332,256,219140,1,0,0:0:0:0:
320,344,219321,1,2,0:0:0:0:
236,376,219503,2,0,P|188:368|120:272,1,150,8|2,0:0|0:0,0:0:0:0:
100,208,220049,5,0,0:0:0:0:
112,120,220231,1,8,0:0:0:0:
200,128,220412,1,0,0:0:0:0:
224,40,220594,2,0,L|316:52,1,75,0|2,0:0|0:0,0:0:0:0:
200,128,220958,2,0,L|180:200,1,75,8|0,0:0|0:0,0:0:0:0:
264,192,221321,6,0,P|248:248|168:280,1,150,2|8,0:0|0:0,0:0:0:0:
264,192,221867,2,0,P|340:164|408:224,1,150,0|2,0:0|0:0,0:0:0:0:
334,325,222412,2,0,P|319:291|328:256,1,75,8|0,0:0|0:0,0:0:0:0:
412,292,222776,5,2,0:0:0:0:
412,292,223140,1,8,0:0:0:0:
448,132,223503,2,0,L|464:48|464:48,2,75,0|2|8,0:0|0:0|0:0,0:0:0:0:
392,204,224049,1,0,0:0:0:0:
332,272,224231,5,2,0:0:0:0:
256,228,224412,1,0,0:0:0:0:
164,228,224594,1,8,0:0:0:0:
88,276,224776,1,0,0:0:0:0:
164,228,224958,1,2,0:0:0:0:
208,152,225140,1,0,0:0:0:0:
208,60,225321,2,0,B|292:60,2,75,8|0|4,0:0|0:0|0:0,0:0:0:0:
208,240,226049,5,8,0:0:0:0:
232,328,226231,2,0,P|296:344|368:304,1,150,0|2,0:0|0:0,0:0:0:0:
388,220,226776,2,0,P|448:200|472:216,1,75,8|0,0:0|0:0,0:0:0:0:
364,216,227140,6,0,L|208:160,1,150,2|8,0:0|0:0,0:0:0:0:
397,83,227867,2,0,L|328:56,2,75,0|2|8,0:0|0:0|0:0,0:0:0:0:
384,172,228412,1,0,0:0:0:0:
368,260,228594,6,0,L|220:216,1,150,2|8,0:0|0:0,0:0:0:0:
136,208,229140,1,0,0:0:0:0:
156,296,229321,2,0,P|144:344|108:364,2,75,0|2|8,0:0|0:0|0:0,0:0:0:0:
136,208,229867,1,0,0:0:0:0:
116,120,230049,6,0,P|116:64|136:44,1,75,2|0,0:0|0:0,0:0:0:0:
200,104,230412,2,0,P|236:76|288:88,1,75,8|0,0:0|0:0,0:0:0:0:
268,168,230776,2,0,P|320:148|428:180,1,150,0|8,0:0|0:0,0:0:0:0:
320,324,231503,6,0,P|268:344|160:312,1,150,0|8,0:0|0:0,0:0:0:0:
108,264,232049,1,0,0:0:0:0:
108,172,232231,2,0,P|140:132|184:124,1,75
292,200,232594,2,0,P|255:205|224:187,1,75,8|0,0:0|0:0,0:0:0:0:
248,104,232958,6,0,P|320:52|392:88,1,150,2|8,0:0|0:0,0:0:0:0:
328,144,233503,2,0,P|312:208|380:268,1,150,0|2,0:0|0:0,0:0:0:0:
444,224,234049,2,0,P|412:192|376:196,1,75,8|0,0:0|0:0,0:0:0:0:
300,228,234412,6,0,P|152:312|88:80,1,450,2|8,0:0|0:0,0:0:0:0:
256,192,235867,12,0,236958,0:0:0:0:
96,304,237321,5,6,0:0:0:0:
56,224,237503,1,0,0:0:0:0:
112,156,237685,1,8,0:0:0:0:
76,76,237867,1,0,0:0:0:0:
112,156,238049,2,0,P|172:200|260:168,1,150,0|8,0:0|0:0,0:0:0:0:
315,132,238594,6,0,P|286:105|244:96,1,75,0|2,0:0|0:0,0:0:0:0:
315,132,238958,2,0,P|332:180|368:200,1,75,0|8,0:0|0:0,0:0:0:0:
404,124,239321,1,0,0:0:0:0:
448,200,239503,2,0,L|488:276,1,75,0|2,0:0|0:0,0:0:0:0:
396,268,239867,2,0,L|408:356,1,75,8|0,0:0|0:0,0:0:0:0:
320,324,240231,5,2,0:0:0:0:
160,324,240594,1,8,0:0:0:0:
240,292,240776,1,0,0:0:0:0:
240,204,240958,2,0,B|260:120|220:136|236:36,1,150,0|8,0:0|0:0,0:0:0:0:
316,80,241503,5,0,0:0:0:0:
428,224,241867,1,0,0:0:0:0:
316,80,242231,1,0,0:0:0:0:
341,166,242412,2,0,L|271:195,2,75,0|2|8,0:0|0:0|0:0,0:0:0:0:
192,236,242958,1,0,0:0:0:0:
112,204,243140,5,2,0:0:0:0:
112,204,243321,1,0,0:0:0:0:
192,236,243503,1,8,0:0:0:0:
192,236,243685,1,0,0:0:0:0:
252,300,243867,1,0,0:0:0:0:
176,152,244231,1,8,0:0:0:0:
152,68,244412,6,0,P|117:86|94:118,1,75,0|2,0:0|0:0,0:0:0:0:
176,152,244776,2,0,P|220:128|236:92,1,75,0|8,0:0|0:0,0:0:0:0:
152,68,245140,1,0,0:0:0:0:
176,152,245321,1,0,0:0:0:0:
328,236,245503,1,2,0:0:0:0:
244,208,245685,1,8,0:0:0:0:
160,236,245867,1,0,0:0:0:0:
260,124,246049,5,2,0:0:0:0:
264,300,246412,1,8,0:0:0:0:
348,324,246594,1,0,0:0:0:0:
412,264,246776,2,0,P|412:204|384:168,2,75,0|2|8,0:0|0:0|0:0,0:0:0:0:
264,300,247321,5,0,0:0:0:0:
264,300,247503,1,2,0:0:0:0:
84,288,247867,1,8,0:0:0:0:
216,224,248231,1,0,0:0:0:0:
176,144,248412,1,2,0:0:0:0:
128,220,248594,2,0,L|96:184,4,37.5,8|0|0|0|6,0:0|0:0|0:0|0:0|0:0,0:0:0:0:
308,224,249321,5,8,0:0:0:0:
248,56,249685,1,0,0:0:0:0:
280,140,249867,1,2,0:0:0:0:
308,224,250049,2,0,P|344:256|388:248,1,75,8|0,0:0|0:0,0:0:0:0:
372,164,250412,6,0,L|408:88,1,75,2|0,0:0|0:0,0:0:0:0:
280,140,250776,2,0,L|252:52,1,75,8|0,0:0|0:0,0:0:0:0:
216,208,251140,2,0,L|144:164,2,75,0|2|8,0:0|0:0|0:0,0:0:0:0:
392,252,251867,5,2,0:0:0:0:
392,252,252231,1,8,0:0:0:0:
236,284,252594,2,0,P|184:280|148:300,2,75,0|2|8,0:0|0:0|0:0,0:0:0:0:
204,368,253140,6,0,L|196:204,2,150,0|0|0,0:0|0:0|0:0,0:0:0:0:
120,332,254049,1,0,0:0:0:0:
120,332,254231,1,2,0:0:0:0:
112,244,254412,1,8,0:0:0:0:
112,244,254594,1,0,0:0:0:0:
196,218,254776,5,2,0:0:0:0:
284,196,254958,1,0,0:0:0:0:
220,136,255140,1,8,0:0:0:0:
252,52,255321,1,0,0:0:0:0:
164,36,255503,2,0,P|104:52|76:136,1,150,0|8,0:0|0:0,0:0:0:0:
88,220,256049,6,0,L|112:300,1,75,0|2,0:0|0:0,0:0:0:0:
180,236,256412,2,0,L|248:296,1,75,0|8,0:0|0:0,0:0:0:0:
256,200,256776,1,0,0:0:0:0:
312,128,256958,2,0,P|384:96|436:152,1,150,0|8,0:0|0:0,0:0:0:0:
344,292,257685,5,2,0:0:0:0:
196,240,258049,1,8,0:0:0:0:
256,308,258231,1,0,0:0:0:0:
292,224,258412,2,0,L|336:136,2,75,0|2|8,0:0|0:0|0:0,0:0:0:0:
196,240,258958,5,0,0:0:0:0:
196,240,259140,1,2,0:0:0:0:
172,152,259321,2,0,L|212:80|212:80,2,75,0|8|0,0:0|0:0|0:0,0:0:0:0:
84,144,259867,2,0,L|124:72|124:72,2,75,0|2|8,0:0|0:0|0:0,0:0:0:0:
24,76,260412,2,0,L|64:4|64:4,1,75,0|4,0:0|0:0,0:0:0:0:
