osu file format v14

[General]
AudioFilename: Defiance.mp3
AudioLeadIn: 0
PreviewTime: 214049
Countdown: 0
SampleSet: Normal
StackLeniency: 0.7
Mode: 0
LetterboxInBreaks: 0
EpilepsyWarning: 1
WidescreenStoryboard: 1

[Editor]
Bookmarks: 36566,59839,80203,106384,129657,152930,176203,179112,202384,214021,237293,260566
DistanceSpacing: 1
BeatDivisor: 4
GridSize: 4
TimelineZoom: 0.8999999

[Metadata]
Title:Defiance
TitleUnicode:Defiance
Artist:maritumix
ArtistUnicode:maritumix
Creator:Leorda
Version:Easy
Source:東方Project
Tags:touhou shinmyoumaru sukuna th13 double dealing character little princess
BeatmapID:693612
BeatmapSetID:292857

[Difficulty]
HPDrainRate:2
CircleSize:3
OverallDifficulty:2
ApproachRate:3
SliderMultiplier:0.9
SliderTickRate:1

[Events]
//Background and Video events
0,0,"a.jpg",0,0
//Break Periods
2,83140,93308
2,129885,151490
2,202612,211126
//Storyboard Layer 0 (Background)
//Storyboard Layer 1 (Fail)
//Storyboard Layer 2 (Pass)
//Storyboard Layer 3 (Foreground)
//Storyboard Sound Samples

[TimingPoints]
231,363.636363636364,4,1,1,90,1,0
94776,-200,4,1,1,90,0,0
106412,-100,4,1,1,90,0,0
179140,-100,4,1,1,90,0,1
202412,-100,4,1,1,90,0,0
237321,-100,4,1,1,90,0,1
260594,-100,4,1,1,90,0,0

[Colours]
Combo1 : 255,128,255
Combo2 : 128,128,255

[HitObjects]
416,192,36594,6,0,P|368:112|208:152,1,270,6|8,0:0|0:0,0:0:0:0:
216,232,38049,2,0,P|216:296|128:368,2,180,2|0|2,0:0|0:0|0:0,0:0:0:0:
84,108,40231,5,0,0:0:0:0:
252,48,40958,1,2,0:0:0:0:
340,56,41321,1,8,0:0:0:0:
384,136,41685,1,0,0:0:0:0:
408,224,42049,2,0,P|400:296|408:304,1,90,8|2,0:0|0:0,0:0:0:0:
304,152,43140,5,0,0:0:0:0:
128,124,43867,2,0,L|40:152,2,90,2|8|0,0:0|0:0|0:0,0:0:0:0:
216,112,44958,1,8,0:0:0:0:
264,32,45321,1,2,0:0:0:0:
432,104,46049,5,0,0:0:0:0:
400,188,46412,1,8,0:0:0:0:
352,264,46776,2,0,P|312:328|80:256,1,360,2|6,0:0|0:0,0:0:0:0:
88,88,48958,5,0,0:0:0:0:
256,32,49685,2,0,P|312:72|320:188,2,180,2|0|2,0:0|0:0|0:0,0:0:0:0:
152,184,51867,5,0,0:0:0:0:
328,216,52594,2,0,P|368:232|376:280,2,90,2|8|0,0:0|0:0|0:0,0:0:0:0:
240,240,53685,1,8,0:0:0:0:
160,288,54049,5,2,0:0:0:0:
160,112,54776,1,0,0:0:0:0:
312,208,55503,1,2,0:0:0:0:
368,272,55867,1,8,0:0:0:0:
280,288,56231,1,0,0:0:0:0:
256,192,56958,12,0,58412,0:0:0:0:
256,48,59867,5,6,0:0:0:0:
376,112,60412,2,0,P|408:212|304:272,1,225,0|2,0:0|0:0,0:0:0:0:
144,288,62049,1,0,0:0:0:0:
64,248,62412,1,8,0:0:0:0:
64,156,62776,6,0,L|64:16,2,135,2|0|8,0:0|0:0|0:0,0:0:0:0:
144,208,64231,1,2,0:0:0:0:
220,256,64594,1,8,0:0:0:0:
256,172,64958,1,0,0:0:0:0:
180,124,65321,1,8,0:0:0:0:
232,48,65685,6,0,P|344:56|344:200,1,270,2|8,0:0|0:0,0:0:0:0:
272,232,67140,2,0,P|264:344|400:344,1,270,2|8,0:0|0:0,0:0:0:0:
464,296,68594,6,0,P|472:184|336:184,1,270,2|8,0:0|0:0,0:0:0:0:
272,232,70049,2,0,P|208:256|128:192,2,180,2|0|6,0:0|0:0|0:0,0:0:0:0:
352,120,72049,6,0,P|416:112|480:252,1,225,0|2,0:0|0:0,0:0:0:0:
404,268,73321,1,8,0:0:0:0:
312,272,73685,1,0,0:0:0:0:
224,256,74049,1,8,0:0:0:0:
136,280,74412,6,0,P|80:240|80:128,1,180,2|0,0:0|0:0,0:0:0:0:
224,32,75867,1,2,0:0:0:0:
296,88,76231,2,0,P|368:112|376:104,2,90,8|0|8,0:0|0:0|0:0,0:0:0:0:
224,32,77321,6,0,P|160:64|140:136,2,135,2|0|8,0:0|0:0|0:0,0:0:0:0:
224,120,78776,2,0,P|224:208|460:268,1,360,2|6,0:0|0:0,0:0:0:0:
152,344,94776,6,0,P|40:224|168:112,1,360
264,256,99140,1,0,0:0:0:0:
376,112,100594,6,0,P|488:232|360:344,1,360
256,208,104958,1,0,0:0:0:0:
344,108,106049,1,8,0:0:0:0:
256,120,106412,6,0,P|168:192|256:296,1,270,6|8,0:0|0:0,0:0:0:0:
256,208,107867,2,0,P|344:136|256:32,1,270,2|8,0:0|0:0,0:0:0:0:
200,96,109321,6,0,P|136:144|24:128,1,180,2|0,0:0|0:0,0:0:0:0:
8,52,110412,1,8,0:0:0:0:
96,64,110776,2,0,B|136:160|112:248,1,180,2|0,0:0|0:0,0:0:0:0:
40,292,111867,1,8,0:0:0:0:
120,336,112231,6,0,P|224:320|336:168,1,270,2|8,0:0|0:0,0:0:0:0:
312,112,113685,1,2,0:0:0:0:
248,176,114049,2,0,P|176:248|96:248,1,180,8|8,0:0|0:0,0:0:0:0:
32,192,115140,6,0,P|96:72|304:112,2,360,2|2|6,0:0|0:0|0:0,0:0:0:0:
176,296,118776,5,0,0:0:0:0:
264,296,119140,1,8,0:0:0:0:
352,296,119503,2,0,P|408:248|328:88,1,270,2|8,0:0|0:0,0:0:0:0:
272,144,120958,6,0,P|160:184|92:152,1,180,2|0,0:0|0:0,0:0:0:0:
64,84,122049,1,8,0:0:0:0:
152,92,122412,2,0,P|192:172|136:256,1,180,2|0,0:0|0:0,0:0:0:0:
68,280,123503,1,8,0:0:0:0:
48,192,123867,5,2,0:0:0:0:
180,316,124594,1,0,0:0:0:0:
348,256,125321,1,2,0:0:0:0:
264,292,125685,1,8,0:0:0:0:
180,316,126049,1,0,0:0:0:0:
100,276,126412,1,8,0:0:0:0:
256,192,126776,12,4,129685,0:0:0:0:
256,296,152958,5,6,0:0:0:0:
180,248,153321,1,8,0:0:0:0:
112,192,153685,1,0,0:0:0:0:
256,88,154412,1,2,0:0:0:0:
336,128,154776,1,8,0:0:0:0:
400,192,155140,2,0,L|504:192,2,90,0|8|2,0:0|0:0|0:0,0:0:0:0:
344,260,156231,5,8,0:0:0:0:
284,328,156594,1,0,0:0:0:0:
144,216,157321,2,0,L|144:112,2,90,2|8|0,0:0|0:0|0:0,0:0:0:0:
144,304,158412,1,8,0:0:0:0:
72,360,158776,1,2,0:0:0:0:
72,184,159503,5,0,0:0:0:0:
168,32,160231,1,2,0:0:0:0:
248,80,160594,1,8,0:0:0:0:
328,32,160958,1,0,0:0:0:0:
400,80,161321,1,8,0:0:0:0:
472,32,161685,5,2,0:0:0:0:
472,208,162412,1,0,0:0:0:0:
396,256,162776,1,8,0:0:0:0:
320,304,163140,1,2,0:0:0:0:
144,304,163867,2,0,P|80:264|112:168,1,180,0|6,0:0|0:0,0:0:0:0:
248,64,165321,5,0,0:0:0:0:
328,96,165685,1,8,0:0:0:0:
408,56,166049,2,0,P|448:104|400:216,2,180,2|0|2,0:0|0:0|0:0,0:0:0:0:
232,100,168231,5,0,0:0:0:0:
252,188,168594,1,8,0:0:0:0:
248,280,168958,2,0,P|168:256|112:152,2,180,2|0|2,0:0|0:0|0:0,0:0:0:0:
420,224,171140,5,0,0:0:0:0:
356,164,171503,1,8,0:0:0:0:
296,96,171867,2,0,L|296:0,2,90,2|8|0,0:0|0:0|0:0,0:0:0:0:
280,184,172958,1,8,0:0:0:0:
264,272,173321,1,2,0:0:0:0:
104,192,174049,5,0,0:0:0:0:
256,96,174776,1,2,0:0:0:0:
332,140,175140,1,8,0:0:0:0:
408,192,175503,1,0,0:0:0:0:
328,236,175867,1,8,0:0:0:0:
256,288,176231,1,6,0:0:0:0:
100,228,179140,5,6,0:0:0:0:
256,320,179867,2,0,P|376:288|400:216,1,180,0|2,0:0|0:0,0:0:0:0:
400,64,181321,2,0,L|400:176,2,90,0|8|2,0:0|0:0|0:0,0:0:0:0:
224,96,182776,5,0,0:0:0:0:
52,152,183503,1,2,0:0:0:0:
100,228,183867,1,8,0:0:0:0:
188,256,184231,1,0,0:0:0:0:
348,176,184958,6,0,P|348:120|244:40,1,180,2|0,0:0|0:0,0:0:0:0:
240,220,186412,2,0,P|240:276|344:356,2,180,2|0|2,0:0|0:0|0:0,0:0:0:0:
272,40,188594,5,0,0:0:0:0:
176,192,189321,2,0,L|64:192,2,90,2|8|0,0:0|0:0|0:0,0:0:0:0:
264,216,190412,1,8,0:0:0:0:
328,280,190776,1,6,0:0:0:0:
456,152,191503,6,0,P|440:80|320:32,1,180,0|2,0:0|0:0,0:0:0:0:
272,72,192594,1,8,0:0:0:0:
192,112,192958,1,0,0:0:0:0:
200,288,193685,6,0,L|320:288,2,90,2|8|0,0:0|0:0|0:0,0:0:0:0:
40,200,195140,1,2,0:0:0:0:
40,112,195503,1,8,0:0:0:0:
104,48,195867,2,0,P|56:24|0:32,2,90,0|8|2,0:0|0:0|0:0,0:0:0:0:
240,168,197321,5,0,0:0:0:0:
400,252,198049,1,2,0:0:0:0:
444,172,198412,1,8,0:0:0:0:
400,92,198776,1,0,0:0:0:0:
240,168,199503,5,2,0:0:0:0:
80,248,200231,1,0,0:0:0:0:
240,168,200958,2,0,L|336:96,2,90,2|8|0,0:0|0:0|0:0,0:0:0:0:
164,216,202049,1,8,0:0:0:0:
244,256,202412,1,6,0:0:0:0:
256,192,212594,12,4,214049,0:0:0:0:
296,120,215867,5,8,0:0:0:0:
292,208,216231,1,8,0:0:0:0:
296,296,216595,1,8,0:0:0:0:
376,336,216958,6,0,P|440:280|440:208,2,135,2|0|8,0:0|0:0|0:0,0:0:0:0:
296,296,218412,1,2,0:0:0:0:
120,336,219140,1,0,0:0:0:0:
200,296,219503,1,8,0:0:0:0:
248,224,219867,6,0,L|248:32,2,180,2|0|2,0:0|0:0|0:0,0:0:0:0:
316,284,221685,1,8,0:0:0:0:
392,328,222049,1,0,0:0:0:0:
504,192,222776,6,0,P|504:96|344:48,1,270,2|8,0:0|0:0,0:0:0:0:
256,192,224231,12,4,225685,0:0:0:0:
256,64,227140,5,2,0:0:0:0:
180,112,227503,1,8,0:0:0:0:
184,204,227867,1,0,0:0:0:0:
256,152,228231,1,8,0:0:0:0:
336,200,228594,6,0,P|344:256|232:328,2,180,2|0|2,0:0|0:0|0:0,0:0:0:0:
208,72,230776,1,0,0:0:0:0:
288,120,231140,1,8,0:0:0:0:
344,192,231503,6,0,P|320:288|160:280,1,270,2|8,0:0|0:0,0:0:0:0:
128,216,232958,2,0,P|152:120|312:128,1,270,2|8,0:0|0:0,0:0:0:0:
256,192,234412,12,4,237321,0:0:0:0:
112,320,239503,6,0,L|112:208,2,90,0|8|2,0:0|0:0|0:0,0:0:0:0:
288,288,240958,5,0,0:0:0:0:
460,232,241685,1,2,0:0:0:0:
412,156,242049,1,8,0:0:0:0:
328,128,242412,1,0,0:0:0:0:
168,208,243140,6,0,P|168:264|272:344,1,180,2|0,0:0|0:0,0:0:0:0:
232,164,244594,2,0,P|232:108|128:28,2,180,2|0|2,0:0|0:0|0:0,0:0:0:0:
156,328,246776,5,0,0:0:0:0:
312,232,247503,2,0,L|424:232,2,90,2|8|0,0:0|0:0|0:0,0:0:0:0:
248,168,248594,1,8,0:0:0:0:
184,104,248958,1,6,0:0:0:0:
56,232,249685,6,0,P|72:304|192:352,1,180,0|2,0:0|0:0,0:0:0:0:
240,312,250776,1,8,0:0:0:0:
320,272,251140,1,0,0:0:0:0:
312,96,251867,6,0,L|192:96,2,90,2|8|0,0:0|0:0|0:0,0:0:0:0:
472,184,253321,1,2,0:0:0:0:
472,272,253685,1,8,0:0:0:0:
408,336,254049,2,0,P|456:360|512:352,2,90,0|8|2,0:0|0:0|0:0,0:0:0:0:
272,216,255503,5,0,0:0:0:0:
112,136,256231,1,2,0:0:0:0:
64,212,256594,1,8,0:0:0:0:
108,288,256958,1,0,0:0:0:0:
272,216,257685,5,2,0:0:0:0:
432,136,258412,1,0,0:0:0:0:
272,216,259140,2,0,L|176:288,2,90,2|8|0,0:0|0:0|0:0,0:0:0:0:
352,168,260231,1,8,0:0:0:0:
272,128,260594,1,6,0:0:0:0:
