osu file format v13

[General]
AudioFilename: ekyuyorieienni.mp3
AudioLeadIn: 500
PreviewTime: 97478
Countdown: 2
SampleSet: Soft
StackLeniency: 0.2
Mode: 0
LetterboxInBreaks: 1
EpilepsyWarning: 1
WidescreenStoryboard: 0

[Editor]
DistanceSpacing: 1
BeatDivisor: 4
GridSize: 8
TimelineZoom: 4.299999

[Metadata]
Title:Towa yori towa ni
TitleUnicode:永久より永遠に
Artist:marina
ArtistUnicode:marina
Creator:Tada
Version:Forever
Source:Shoujo Shiniki ∽ Shoujo Tengoku - The Garden of Fifth Zoa -
Tags:
BeatmapID:273667
BeatmapSetID:103972

[Difficulty]
HPDrainRate:6
CircleSize:4
OverallDifficulty:7
ApproachRate:9
SliderMultiplier:1.79999990463257
SliderTickRate:1

[Events]
//Background and Video events
0,0,"6.jpg",0,0
//Break Periods
2,33027,37327
//Storyboard Layer 0 (Background)
//Storyboard Layer 1 (Fail)
//Storyboard Layer 2 (Pass)
//Storyboard Layer 3 (Foreground)
//Storyboard Sound Samples

[TimingPoints]
1627,300.004500067501,4,2,2,50,1,0
2227,-133.333333333333,4,2,2,35,0,0
10927,-100,4,2,2,50,0,0
13627,-100,4,2,2,70,0,0
28027,-200,4,2,2,70,0,0
28327,-100,4,3,6,70,0,0
37927,-133.333333333333,4,2,2,40,0,0
41827,-133.333333333333,4,2,2,40,0,0
42727,-133.333333333333,4,2,2,40,0,0
44527,-133.333333333333,4,2,2,40,0,0
50527,-200,4,2,2,50,0,0
51427,-133.333333333333,4,2,2,50,0,0
52046,-100,4,2,2,50,0,0
52327,-133.333333333333,4,2,2,70,0,0
54427,-133.333333333333,4,2,2,70,0,0
54727,-100,4,2,2,70,0,0
66427,-100,4,2,2,70,0,0
73628,-100,4,2,2,70,0,0
74678,-100,4,1,20,70,0,0
75128,-100,4,1,2,70,0,0
80678,-100,4,2,2,70,0,0
80978,-100,4,1,2,70,0,0
81128,-100,4,1,60,70,0,0
83098,-100,4,1,0,70,0,0
84278,-133.333333333333,4,1,0,70,0,0
84578,-100,4,1,0,70,0,0
85028,-100,4,1,0,70,0,0
85628,-100,4,2,0,50,0,0
91028,-100,4,2,2,70,0,0
95828,-100,4,1,20,70,0,0
97328,-100,4,1,2,70,0,0
98228,-100,4,1,0,70,0,1
103778,-100,4,1,1,70,0,1
106478,-100,4,1,30,70,0,1
107828,-100,4,2,2,70,0,1
109328,-100,4,1,20,70,0,1
109628,-100,4,1,2,70,0,1
122828,-100,4,1,1,70,0,1
124628,-100,4,1,0,70,0,1
126878,-100,4,1,1,70,0,1
127778,-100,4,1,1,70,0,1
134528,-100,4,1,60,70,0,1
136629,-100,4,2,2,70,0,1
136704,-100,4,2,2,70,0,0
137829,-66.6666666666667,4,2,2,100,0,0
138729,-100,4,2,2,70,0,0
140079,-100,4,1,20,70,0,0
140829,-100,4,2,2,70,0,0
148329,-133.333333333333,4,2,2,50,0,0
148629,-100,4,3,6,50,0,0
153429,-100,4,2,2,50,0,0
170229,-100,4,2,2,60,0,0
170679,-200,4,1,0,70,0,0
172929,-100,4,1,0,70,0,0
180129,-100,4,1,60,70,0,0
181629,-66.6666666666667,4,1,30,70,0,0
182079,-100,4,3,6,50,0,0
182829,-100,4,2,2,50,0,0
191079,-100,4,1,30,70,0,0
191829,-100,4,2,2,70,0,0
191979,-100,4,1,2,70,0,0
196029,-100,4,1,2,70,0,0
198429,-100,4,1,60,70,0,0
198729,-66.6666666666667,4,1,60,70,0,0
199629,-100,4,1,60,70,0,0
200154,-200,4,1,60,70,0,0
201130,-100,4,2,0,70,0,0
202330,-100,4,2,0,30,0,0
206830,-100,4,1,0,70,0,1
212980,-100,4,1,0,70,0,0
229180,-100,4,2,2,50,0,0
232780,-133.333333333333,4,2,2,70,0,0
233380,-100,4,2,2,50,0,0
235030,-100,4,3,6,50,0,0
235105,-100,4,1,2,50,0,0
236080,-100,4,1,2,70,0,0
240580,-100,4,1,20,70,0,0
252880,-100,4,1,0,70,0,1
258430,-100,4,1,20,70,0,1
259030,-100,4,1,0,70,0,1
263813,-100,4,1,0,70,0,1
264430,-83.3333333333333,4,2,2,70,0,1
264805,-100,4,2,2,70,0,1
274331,-100,4,3,6,70,0,1
274481,-100,4,2,2,70,0,1
283331,-133.333333333333,4,2,2,70,0,1
284231,-100,4,2,2,70,0,1
286781,-66.6666666666667,4,1,1,35,0,0
287531,-100,4,1,20,35,0,0
288431,-100,4,2,2,50,0,0
291281,-100,4,2,60,45,0,0
294731,-100,4,2,2,45,0,0
295331,-100,4,2,2,70,0,0
298331,-66.6666666666667,4,2,2,70,0,0
299081,-100,4,2,2,70,0,0
299831,-100,4,1,63,70,0,0
300281,-100,4,1,2,70,0,0
310031,-100,4,2,2,10,0,0
316331,-100,4,2,2,5,0,0

[Colours]
Combo1 : 125,0,0
Combo2 : 0,153,227
Combo3 : 26,221,65
Combo4 : 184,156,73
Combo5 : 251,0,251

[HitObjects]
96,64,1627,5,2,0:0:0:0:
8,152,2227,2,0,B|52:144|84:176|112:160|164:160,1,134.999997997284,4|0,0:0|0:0,0:0:0:0:
141,160,2827,1,2,0:0:0:0:
416,320,3727,5,2,0:0:0:0:
504,232,4027,2,0,B|476:216|456:256|408:192|352:240,1,134.999997997284,4|0,0:0|0:0,0:0:0:0:
164,156,4627,2,0,B|201:120|249:184|269:144|297:160,1,134.999997997284,2|0,0:0|0:0,0:0:0:0:
412,120,5227,2,0,B|388:80|380:60|324:52|292:44,1,134.999997997284,2|0,0:0|0:0,0:0:0:0:
28,52,5827,6,0,B|40:112|76:124|124:140,1,134.999997997284,2|0,0:0|0:0,0:0:0:0:
240,88,6427,2,0,B|196:148|236:160|224:184|184:224,1,134.999997997284,2|0,0:0|0:0,0:0:0:0:
116,292,7027,2,0,B|152:264|184:328|224:280|264:288,1,134.999997997284,2|0,0:0|0:0,0:0:0:0:
247,287,7627,1,4,0:0:0:0:
488,128,8827,5,2,0:0:0:0:
368,256,9127,1,0,0:0:0:0:
24,256,9427,1,0,0:0:0:0:
144,128,9727,1,0,0:0:0:0:
328,72,10027,5,2,0:0:0:0:
256,184,10327,1,0,0:0:0:0:
184,296,10627,1,2,0:0:0:0:
256,184,10927,1,4,0:0:0:0:
256,192,11227,12,0,13327,0:0:0:0:
16,40,13627,6,0,P|64:60|96:96,1,89.9999952316285,2|0,0:0|0:0,0:0:0:0:
24,132,13927,2,0,P|72:168|124:168,1,89.9999952316285,2|0,0:0|0:0,0:0:0:0:
344,108,14227,2,0,P|300:72|248:60,1,89.9999952316285,2|0,0:0|0:0,0:0:0:0:
100,172,14527,1,2,0:0:0:0:
268,64,14677,5,0,0:0:0:0:
268,64,14752,1,0,0:0:0:0:
268,64,14827,1,2,0:0:0:0:
220,268,14977,2,0,P|272:292|328:280,1,89.9999952316285,0|8,0:0|0:0,0:0:0:0:
496,224,15277,2,0,P|436:200|392:200,1,89.9999952316285,0|8,0:0|0:0,0:0:0:0:
412,200,15577,5,0,0:0:0:0:
292,280,15727,1,0,0:0:0:0:
184,112,15877,1,0,0:0:0:0:
184,112,15952,1,0,0:0:0:0:
184,112,16027,1,0,0:0:0:0:
268,64,16177,2,0,L|372:52,1,89.9999952316285
184,112,16477,2,0,L|76:132,1,89.9999952316285
268,64,16777,1,0,0:0:0:0:
40,192,16927,1,0,0:0:0:0:
40,192,17077,6,0,P|64:256|104:272,1,89.9999952316285
240,200,17377,1,0,0:0:0:0:
344,316,17527,2,0,P|256:348|232:344,1,89.9999952316285
240,200,17827,1,2,0:0:0:0:
240,200,17902,1,0,0:0:0:0:
240,200,17977,1,0,0:0:0:0:
240,200,18052,1,0,0:0:0:0:
240,200,18127,1,0,0:0:0:0:
240,200,18202,1,0,0:0:0:0:
240,200,18277,1,0,0:0:0:0:
240,200,18352,1,0,0:0:0:0:
240,200,18427,6,0,B|332:176|360:224|420:144|428:172,1,179.999990463257
512,72,18877,2,0,P|448:64|392:76,1,89.9999952316285,0|2,0:0|0:0,0:0:0:0:
304,256,19177,2,0,P|376:264|416:256,1,89.9999952316285,0|2,0:0|0:0,0:0:0:0:
420,92,19477,5,0,0:0:0:0:
396,244,19627,1,2,0:0:0:0:
416,68,19777,1,0,0:0:0:0:
392,272,19927,1,0,0:0:0:0:
12,96,20227,6,0,L|120:76,1,89.9999952316285
200,60,20527,1,2,0:0:0:0:
92,200,20677,2,0,L|204:168,1,89.9999952316285,0|2,0:0|0:0,0:0:0:0:
280,164,20977,1,0,0:0:0:0:
380,184,21127,2,0,L|348:304,1,89.9999952316285
332,360,21427,5,2,0:0:0:0:
208,284,21577,2,0,L|240:184,1,89.9999952316285
268,112,21877,1,0,0:0:0:0:
268,112,21952,1,0,0:0:0:0:
268,112,22027,1,2,0:0:0:0:
268,112,22177,5,2,0:0:0:0:
32,72,22327,1,14,0:0:0:0:
192,32,22627,2,0,P|136:72|96:80,1,89.9999952316285,2|0,0:0|0:0,0:0:0:0:
72,144,22927,2,0,P|32:80|40:48,2,89.9999952316285,0|8|0,0:0|0:0|0:0,0:0:0:0:
96,232,23377,1,0,0:0:0:0:
184,248,23527,2,0,P|240:240|288:256,1,89.9999952316285
352,288,23827,1,2,0:0:0:0:
440,312,23977,1,0,0:0:0:0:
504,248,24127,6,0,P|488:200|456:160,1,89.9999952316285
304,96,24427,2,0,P|328:160|352:184,1,89.9999952316285,2|0,0:0|0:0,0:0:0:0:
456,40,24727,6,0,P|408:32|340:40,1,89.9999952316285,2|0,0:0|0:0,0:0:0:0:
212,28,25027,1,2,0:0:0:0:
212,28,25177,1,0,0:0:0:0:
88,168,25327,1,0,0:0:0:0:
88,168,25402,1,0,0:0:0:0:
88,168,25477,2,0,P|160:176|200:168,1,89.9999952316285
296,152,25777,1,0,0:0:0:0:
192,272,25927,1,0,0:0:0:0:
144,96,26077,5,0,0:0:0:0:
144,96,26152,1,0,0:0:0:0:
144,96,26227,1,2,0:0:0:0:
276,64,26377,2,0,P|344:48|384:56,1,89.9999952316285
296,152,26677,2,0,P|224:168|192:160,1,89.9999952316285
96,168,26977,1,0,0:0:0:0:
96,168,27052,1,0,0:0:0:0:
96,168,27127,1,0,0:0:0:0:
108,264,27277,5,0,0:0:0:0:
136,288,27352,1,0,0:0:0:0:
173,300,27427,1,2,0:0:0:0:
209,308,27502,1,0,0:0:0:0:
246,313,27577,1,0,0:0:0:0:
283,312,27652,1,0,0:0:0:0:
320,307,27727,1,0,0:0:0:0:
356,298,27802,1,0,0:0:0:0:
391,284,27877,1,0,0:0:0:0:
426,270,27952,1,0,0:0:0:0:
406,251,28027,6,0,P|342:287|307:287,1,89.9999952316285,8|2,0:0|0:0,0:0:0:0:
256,192,28477,12,0,32827,0:0:0:0:
8,64,37927,5,0,0:0:0:0:
8,64,38227,1,0,0:0:0:0:
112,88,38527,1,0,0:0:0:0:
112,88,38677,2,0,B|176:128|208:64|224:112|256:80,1,134.999997997284
392,60,39127,1,2,0:0:0:0:
368,248,39427,2,0,P|312:212|304:184,1,67.499998998642
400,176,39727,2,0,P|444:208|452:240,1,67.499998998642
368,248,40027,6,0,B|304:288|264:248|264:248|264:248|216:264,1,134.999997997284,4|0,0:0|0:0,0:0:0:0:
72,168,40477,2,0,B|152:200|184:160|184:160|216:176|216:176,1,134.999997997284
196,166,40927,1,2,0:0:0:0:
324,104,41077,1,0,0:0:0:0:
324,104,41227,2,0,B|368:80|392:72|416:72,2,67.499998998642,2|0|0,0:0|0:0|0:0,0:0:0:0:
264,168,41677,1,0,0:0:0:0:
264,168,41827,6,0,L|264:303,1,134.999997997284,4|0,0:0|0:0,0:0:0:0:
264,304,42427,1,0,0:0:0:0:
480,60,42727,5,0,0:0:0:0:
480,60,43027,1,0,0:0:0:0:
480,60,43327,2,0,P|416:64|400:80,1,67.499998998642
424,160,43627,2,0,P|368:160|336:136,1,67.499998998642
160,48,43927,2,0,P|200:40|248:56,1,67.499998998642
200,136,44227,2,0,P|200:192|176:224,1,67.499998998642
88,192,44527,2,0,P|88:248|112:272,1,67.499998998642
184,352,44827,5,4,0:0:0:0:
336,304,45277,1,0,0:0:0:0:
440,184,45727,1,4,0:0:0:0:
464,288,46327,1,4,0:0:0:0:
392,368,46927,5,4,0:0:0:0:
212,328,47227,5,2,0:0:0:0:
212,328,47527,2,0,P|160:336|128:328,1,67.499998998642
24,176,47827,2,0,P|72:168|112:184,1,67.499998998642
196,228,48127,2,0,P|248:232|280:216,1,67.499998998642,0|0,0:0|0:0,0:0:0:0:
412,88,48427,1,2,0:0:0:0:
360,296,48727,1,0,0:0:0:0:
124,288,49027,1,2,0:0:0:0:
184,88,49327,1,0,0:0:0:0:
356,296,49627,5,2,0:0:0:0:
184,88,50077,1,0,0:0:0:0:
312,48,50527,2,0,B|368:64|400:80|408:104|416:152|384:176|464:208,1,224.999988079071,4|0,0:0|0:0,0:0:0:0:
392,264,51427,6,0,B|312:260|296:312|248:292|232:336|180:316|196:320,1,202.499996995926,4|0,0:0|0:0,0:0:0:0:
82,241,52027,1,2,0:0:0:0:
116,72,52327,5,2,0:0:0:0:
116,72,52477,1,0,0:0:0:0:
204,72,52627,1,2,0:0:0:0:
204,72,52777,1,0,0:0:0:0:
292,76,52927,1,2,0:0:0:0:
292,76,53077,1,0,0:0:0:0:
292,76,53227,2,0,P|336:72|384:88,1,67.499998998642,2|0,0:0|0:0,0:0:0:0:
464,232,53527,6,0,P|416:244|376:224,1,67.499998998642,2|0,0:0|0:0,0:0:0:0:
352,88,53827,1,2,0:0:0:0:
400,240,53977,1,0,0:0:0:0:
344,56,54127,1,2,0:0:0:0:
392,264,54277,1,0,0:0:0:0:
72,356,54427,2,0,L|160:324,1,67.499998998642,4|0,0:0|0:0,0:0:0:0:
328,332,54727,5,2,0:0:0:0:
328,332,54802,1,0,0:0:0:0:
328,332,54877,2,0,L|284:268,1,44.9999976158143
188,256,55027,2,0,L|220:320,1,44.9999976158143,8|0,0:0|0:0,0:0:0:0:
272,196,55177,2,0,P|220:164|172:148,1,89.9999952316285,0|8,0:0|0:0,0:0:0:0:
32,96,55477,1,0,0:0:0:0:
184,40,55627,1,2,0:0:0:0:
256,168,55777,1,0,0:0:0:0:
104,232,55927,1,8,0:0:0:0:
16,40,56077,5,0,0:0:0:0:
32,88,56227,1,2,0:0:0:0:
48,136,56377,1,0,0:0:0:0:
64,184,56527,1,0,0:0:0:0:
64,184,56677,2,0,L|192:184,1,89.9999952316285,0|10,0:0|0:0,0:0:0:0:
344,184,56977,1,0,0:0:0:0:
168,184,57127,5,8,0:0:0:0:
416,184,57277,1,0,0:0:0:0:
340,88,57427,1,8,0:0:0:0:
300,308,57577,1,0,0:0:0:0:
300,308,57727,2,0,P|352:308|408:264,1,89.9999952316285,8|0,0:0|0:0,0:0:0:0:
496,200,58027,1,8,0:0:0:0:
512,56,58177,1,0,0:0:0:0:
512,56,58252,1,0,0:0:0:0:
512,56,58327,2,0,P|428:60|404:76,1,89.9999952316285,4|0,0:0|0:0,0:0:0:0:
280,168,58627,5,2,0:0:0:0:
424,64,58777,1,0,0:0:0:0:
280,168,58927,1,0,0:0:0:0:
176,56,59077,2,0,P|232:48|296:48,1,89.9999952316285,0|4,0:0|0:0,0:0:0:0:
136,160,59377,2,0,P|80:152|24:184,1,89.9999952316285,0|2,0:0|0:0,0:0:0:0:
128,268,59677,2,0,P|176:280|224:256,1,89.9999952316285,0|8,0:0|0:0,0:0:0:0:
320,324,59977,5,0,0:0:0:0:
320,324,60127,2,0,B|360:288|400:344|520:320,1,179.999990463257,0|4,0:0|0:0,0:0:0:0:
456,224,60577,1,0,0:0:0:0:
456,224,60727,1,8,0:0:0:0:
408,48,60877,1,0,0:0:0:0:
408,48,61027,1,0,0:0:0:0:
292,188,61177,1,0,0:0:0:0:
292,188,61252,1,0,0:0:0:0:
292,188,61327,1,0,0:0:0:0:
168,320,61477,6,0,P|120:296|96:240,1,89.9999952316285,0|4,0:0|0:0,0:0:0:0:
184,232,61777,1,0,0:0:0:0:
184,232,61927,2,0,P|136:184|96:176,1,89.9999952316285
144,96,62227,2,0,B|104:88|80:88|82:112|26:96,2,89.9999952316285,0|0|8,0:0|0:0|0:0,0:0:0:0:
452,108,62677,1,0,0:0:0:0:
388,308,62827,1,8,0:0:0:0:
252,156,62977,1,0,0:0:0:0:
424,128,63127,5,8,0:0:0:0:
372,344,63277,1,0,0:0:0:0:
232,188,63427,1,4,0:0:0:0:
72,296,63577,2,0,B|28:220|88:176|72:128|40:108,1,179.999990463257,0|8,0:0|0:0,0:0:0:0:
212,68,64027,5,8,0:0:0:0:
212,68,64177,1,0,0:0:0:0:
212,68,64327,1,8,0:0:0:0:
352,48,64477,2,0,P|420:76|444:104,1,89.9999952316285,0|8,0:0|0:0,0:0:0:0:
448,176,64777,2,0,P|388:164|360:140,1,89.9999952316285,0|4,0:0|0:0,0:0:0:0:
367,148,65227,5,2,0:0:0:0:
367,148,65302,1,0,0:0:0:0:
367,148,65377,1,0,0:0:0:0:
367,148,65452,1,0,0:0:0:0:
367,148,65527,1,0,0:0:0:0:
367,148,65602,5,0,0:0:0:0:
340,184,65677,1,0,0:0:0:0:
320,208,65752,1,0,0:0:0:0:
296,224,65827,1,2,0:0:0:0:
260,240,65902,1,0,0:0:0:0:
228,248,65977,1,0,0:0:0:0:
188,252,66052,1,0,0:0:0:0:
152,248,66127,1,0,0:0:0:0:
116,240,66202,1,0,0:0:0:0:
84,224,66277,1,0,0:0:0:0:
76,60,66427,5,8,0:0:0:0:
76,60,66577,1,0,0:0:0:0:
132,188,66727,1,8,0:0:0:0:
204,60,66878,1,0,0:0:0:0:
204,60,67028,1,8,0:0:0:0:
268,184,67178,1,0,0:0:0:0:
328,60,67328,1,8,0:0:0:0:
328,60,67478,1,0,0:0:0:0:
396,184,67628,1,8,0:0:0:0:
396,184,67778,1,0,0:0:0:0:
448,312,67928,5,8,0:0:0:0:
448,312,68078,2,0,P|392:320|328:292,1,89.9999952316285,0|8,0:0|0:0,0:0:0:0:
264,228,68378,1,0,0:0:0:0:
264,228,68528,1,8,0:0:0:0:
240,344,68678,1,0,0:0:0:0:
240,344,68828,2,0,P|160:320|84:256,1,179.999990463257,8|0,0:0|0:0,0:0:0:0:
504,56,69278,2,0,B|440:60|400:108|320:68,1,179.999990463257,0|0,0:0|0:0,0:0:0:0:
208,84,69728,5,8,0:0:0:0:
196,112,69878,1,0,0:0:0:0:
188,136,70028,1,8,0:0:0:0:
180,160,70178,1,0,0:0:0:0:
172,184,70328,1,8,0:0:0:0:
168,208,70478,1,0,0:0:0:0:
160,232,70628,2,0,B|232:236|256:224|296:268|352:240,1,179.999990463257,4|8,0:0|0:0,0:0:0:0:
504,64,71078,5,0,0:0:0:0:
468,232,71228,1,8,0:0:0:0:
504,64,71378,2,0,P|432:64|384:72,1,89.9999952316285,0|8,0:0|0:0,0:0:0:0:
312,128,71678,2,0,P|248:128|200:120,2,89.9999952316285,0|8|0,0:0|0:0|0:0,0:0:0:0:
360,216,72128,2,0,P|320:272|284:296,1,89.9999952316285,0|0,0:0|0:0,0:0:0:0:
184,316,72428,5,8,0:0:0:0:
156,304,72578,1,0,0:0:0:0:
128,292,72728,1,8,0:0:0:0:
100,276,72878,1,0,0:0:0:0:
76,256,73028,1,8,0:0:0:0:
52,236,73178,1,0,0:0:0:0:
32,212,73328,2,0,P|12:152|24:112,1,89.9999952316285,8|0,0:0|0:0,0:0:0:0:
184,72,73628,6,0,B|232:52|268:96|292:96|340:76|384:76,1,179.999990463257,4|0,0:0|0:0,0:0:0:0:
464,128,74078,2,0,L|416:160,1,44.9999976158143,8|0,0:0|0:0,0:0:0:0:
304,192,74228,2,0,L|368:208,1,44.9999976158143,8|0,0:0|0:0,0:0:0:0:
440,288,74378,2,0,P|368:296|336:288,1,89.9999952316285,0|8,0:0|0:0,0:0:0:0:
136,248,74678,1,8,0:0:0:0:
144,288,74753,1,8,0:0:0:0:
168,328,74828,1,4,0:0:0:0:
168,328,75128,6,0,L|288:328,1,89.9999952316285,0|0,0:0|0:0,0:0:0:0:
258,328,75428,1,0,0:0:0:0:
276,212,75728,1,0,0:0:0:0:
180,168,75878,1,0,0:0:0:0:
232,72,76028,6,0,L|142:72,1,89.9999952316285,0|0,0:0|0:0,0:0:0:0:
328,132,76328,2,0,L|418:132,1,89.9999952316285,0|0,0:0|0:0,0:0:0:0:
200,40,76628,6,0,L|110:40,1,89.9999952316285,0|0,0:0|0:0,0:0:0:0:
352,168,76928,2,0,L|442:168,1,89.9999952316285,0|0,0:0|0:0,0:0:0:0:
232,72,77228,1,0,0:0:0:0:
328,128,77378,1,0,0:0:0:0:
200,40,77528,1,0,0:0:0:0:
352,168,77678,1,0,0:0:0:0:
168,32,77828,1,0,0:0:0:0:
88,56,77978,1,0,0:0:0:0:
24,112,78128,6,0,L|64:216|64:216,1,89.9999952316285,0|0,0:0|0:0,0:0:0:0:
168,192,78428,2,0,L|116:300,1,89.9999952316285,0|0,0:0|0:0,0:0:0:0:
128,272,78728,1,0,0:0:0:0:
272,316,78878,6,0,B|328:284|368:344|424:340|464:304|464:288,1,179.999990463257,0|0,0:0|0:0,0:0:0:0:
488,216,79328,2,0,P|448:156|416:120,1,89.9999952316285,0|0,0:0|0:0,0:0:0:0:
88,68,79628,2,0,L|148:156,1,89.9999952316285,0|0,0:0|0:0,0:0:0:0:
138,142,79928,1,0,0:0:0:0:
264,280,80078,1,0,0:0:0:0:
272,120,80228,5,2,0:0:0:0:
272,120,80303,1,0,0:0:0:0:
272,120,80378,1,0,0:0:0:0:
272,120,80453,1,0,0:0:0:0:
272,120,80528,1,0,0:0:0:0:
272,120,80603,1,0,0:0:0:0:
272,120,80678,6,8,P|352:112|392:112,1,89.9999952316285,0|4,0:0|0:0,0:0:0:0:
512,120,80978,1,0,0:0:0:0:
416,208,81128,1,2,0:0:0:0:
304,32,81278,1,0,0:0:0:0:
272,120,81428,1,2,0:0:0:0:
128,76,81728,5,0,0:0:0:0:
128,76,81878,1,0,0:0:0:0:
240,96,82028,2,0,P|288:136|304:184,1,89.9999952316285,0|0,0:0|0:0,0:0:0:0:
336,268,82328,1,0,0:0:0:0:
336,268,82478,1,0,0:0:0:0:
336,268,82628,2,0,P|288:280|236:272,1,89.9999952316285,0|0,0:0|0:0,0:0:0:0:
80,184,82928,1,0,0:0:0:0:
80,184,83003,1,0,0:0:0:0:
80,184,83078,1,0,0:0:0:0:
80,184,83153,1,0,0:0:0:0:
80,184,83228,2,0,P|136:176|192:200,1,89.9999952316285,8|0,0:0|0:0,0:0:0:0:
360,184,83528,6,0,P|328:224|280:248,1,89.9999952316285,8|0,0:0|0:0,0:0:0:0:
240,72,83828,2,0,P|272:32|320:16,1,89.9999952316285,8|0,0:0|0:0,0:0:0:0:
296,184,84128,2,0,P|264:224|216:248,1,89.9999952316285,8|0,0:0|0:0,0:0:0:0:
192,240,84353,1,0,0:0:0:0:
160,232,84428,1,8,0:0:0:0:
136,216,84503,1,0,0:0:0:0:
120,184,84578,1,0,0:0:0:0:
112,152,84653,1,0,0:0:0:0:
112,120,84728,1,0,0:0:0:0:
128,88,84803,1,0,0:0:0:0:
160,64,84878,1,0,0:0:0:0:
192,56,84953,1,0,0:0:0:0:
224,56,85028,6,0,P|280:56|336:80,1,89.9999952316285,2|0,0:0|0:0,0:0:0:0:
384,208,85328,2,0,P|324:200|284:176,1,89.9999952316285
100,64,85628,1,4,0:0:0:0:
100,64,86228,5,2,0:0:0:0:
40,216,86528,1,0,0:0:0:0:
144,344,86828,1,2,0:0:0:0:
304,368,87128,1,0,0:0:0:0:
448,296,87428,1,2,0:0:0:0:
352,168,87728,5,0,0:0:0:0:
336,180,88028,1,2,0:0:0:0:
320,192,88328,1,4,0:0:0:0:
8,56,88928,6,0,B|48:136|20:144|40:240,1,179.999990463257,0|2,0:0|0:0,0:0:0:0:
132,220,89378,1,0,0:0:0:0:
88,304,89528,1,0,0:0:0:0:
168,352,89678,1,0,0:0:0:0:
168,352,89828,2,0,P|224:352|272:336,1,89.9999952316285,2|0,0:0|0:0,0:0:0:0:
344,312,90128,5,0,0:0:0:0:
432,280,90278,1,0,0:0:0:0:
480,200,90428,2,0,P|440:168|368:152,1,89.9999952316285
208,176,90728,2,0,P|240:208|312:224,1,89.9999952316285
236,312,91028,5,4,0:0:0:0:
96,272,91178,1,0,0:0:0:0:
72,128,91328,1,8,0:0:0:0:
208,176,91478,1,0,0:0:0:0:
344,256,91628,1,8,0:0:0:0:
432,152,91778,2,0,B|464:112|488:136|520:112,2,89.9999952316285,0|8|0,0:0|0:0|0:0,0:0:0:0:
260,192,92228,5,8,0:0:0:0:
260,192,92378,1,0,0:0:0:0:
260,192,92528,1,8,0:0:0:0:
208,84,92678,6,0,L|132:156,1,89.9999952316285,0|8,0:0|0:0,0:0:0:0:
260,192,92978,1,0,0:0:0:0:
320,296,93128,2,0,L|408:196,1,89.9999952316285,8|0,0:0|0:0,0:0:0:0:
260,192,93428,1,8,0:0:0:0:
140,244,93578,2,0,L|224:320,1,89.9999952316285,0|8,0:0|0:0,0:0:0:0:
260,192,93878,1,0,0:0:0:0:
368,128,94028,2,0,L|284:52,1,89.9999952316285,8|0,0:0|0:0,0:0:0:0:
260,192,94328,5,8,0:0:0:0:
372,128,94478,1,2,0:0:0:0:
372,128,94553,1,4,0:0:0:0:
372,128,94628,1,8,0:0:0:0:
180,108,94778,1,0,0:0:0:0:
268,288,94928,1,8,0:0:0:0:
160,104,95078,5,0,0:0:0:0:
368,144,95228,1,8,0:0:0:0:
248,288,95378,1,0,0:0:0:0:
240,172,95528,2,0,L|328:184,2,44.9999976158143
164,72,95828,5,4,0:0:0:0:
356,268,95978,1,0,0:0:0:0:
376,84,96128,1,4,0:0:0:0:
140,256,96278,1,0,0:0:0:0:
356,268,96728,5,4,0:0:0:0:
160,72,96878,1,0,0:0:0:0:
136,256,97028,1,4,0:0:0:0:
384,80,97178,1,0,0:0:0:0:
220,336,97328,6,0,L|328:336,1,89.9999952316285,0|0,0:0|0:0,0:0:0:0:
308,336,97628,2,0,L|428:296,1,89.9999952316285,0|0,0:0|0:0,0:0:0:0:
393,307,97928,2,0,L|472:244,1,89.9999952316285,0|0,0:0|0:0,0:0:0:0:
416,72,98228,5,2,0:0:0:0:
328,208,98378,1,0,0:0:0:0:
192,112,98528,1,0,0:0:0:0:
296,80,98678,1,0,0:0:0:0:
328,208,98828,1,2,0:0:0:0:
152,48,98978,1,0,0:0:0:0:
152,48,99128,2,0,P|92:108|76:128,1,89.9999952316285
48,280,99428,5,2,0:0:0:0:
200,160,99578,1,0,0:0:0:0:
248,288,99728,1,0,0:0:0:0:
160,256,99878,1,0,0:0:0:0:
248,288,100028,2,0,P|312:264|344:240,1,89.9999952316285,2|0,0:0|0:0,0:0:0:0:
480,160,100328,5,0,0:0:0:0:
304,120,100478,1,0,0:0:0:0:
329,252,100628,1,2,0:0:0:0:
472,120,100778,1,0,0:0:0:0:
384,56,100928,1,0,0:0:0:0:
360,48,101003,1,0,0:0:0:0:
336,40,101078,1,0,0:0:0:0:
224,64,101228,1,2,0:0:0:0:
224,64,101378,2,0,P|164:80|140:128,1,89.9999952316285
120,280,101678,2,0,P|180:276|216:244,1,89.9999952316285,0|2,0:0|0:0,0:0:0:0:
304,248,101978,5,0,0:0:0:0:
392,160,102128,1,0,0:0:0:0:
328,48,102278,1,0,0:0:0:0:
224,64,102428,1,2,0:0:0:0:
128,128,102578,1,0,0:0:0:0:
120,144,102653,1,0,0:0:0:0:
112,160,102728,1,0,0:0:0:0:
104,176,102803,1,0,0:0:0:0:
96,192,102878,6,0,P|152:216|192:224,1,89.9999952316285,0|2,0:0|0:0,0:0:0:0:
144,304,103178,1,0,0:0:0:0:
224,344,103328,2,0,P|312:328|400:280,1,179.999990463257,2|0,0:0|0:0,0:0:0:0:
391,286,103778,1,0,0:0:0:0:
492,56,103928,5,0,0:0:0:0:
420,156,104078,1,0,0:0:0:0:
356,48,104228,1,2,0:0:0:0:
284,148,104378,1,0,0:0:0:0:
188,40,104528,2,0,B|164:100|132:116|172:152|188:184|116:224|116:224|116:224,1,179.999990463257,0|2,0:0|0:0,0:0:0:0:
212,324,104978,1,0,0:0:0:0:
280,144,105128,1,0,0:0:0:0:
356,316,105278,1,0,0:0:0:0:
480,244,105428,2,0,B|424:196|464:132|420:84|384:80,1,179.999990463257,0|0,0:0|0:0,0:0:0:0:
403,86,105878,5,0,0:0:0:0:
272,156,106028,1,2,0:0:0:0:
403,86,106178,1,0,0:0:0:0:
212,192,106328,1,0,0:0:0:0:
403,86,106478,6,0,L|368:144,1,44.9999976158143,8|0,0:0|0:0,0:0:0:0:
272,156,106628,2,0,L|304:112,1,44.9999976158143,8|0,0:0|0:0,0:0:0:0:
228,56,106778,2,0,P|160:68|120:104,1,89.9999952316285,0|0,0:0|0:0,0:0:0:0:
88,168,107078,5,0,0:0:0:0:
96,204,107153,1,0,0:0:0:0:
116,236,107228,1,2,0:0:0:0:
144,268,107303,1,0,0:0:0:0:
176,288,107378,1,0,0:0:0:0:
208,304,107453,1,0,0:0:0:0:
240,312,107528,1,0,0:0:0:0:
276,316,107603,1,0,0:0:0:0:
316,320,107678,1,0,0:0:0:0:
348,312,107753,1,0,0:0:0:0:
380,304,107828,6,0,P|448:280|472:256,1,89.9999952316285,0|0,0:0|0:0,0:0:0:0:
512,120,108128,2,0,P|456:160|412:168,1,89.9999952316285,0|0,0:0|0:0,0:0:0:0:
352,76,108428,6,0,P|296:100|268:140,1,89.9999952316285,0|0,0:0|0:0,0:0:0:0:
96,204,108728,1,0,0:0:0:0:
277,121,108878,1,0,0:0:0:0:
184,296,109028,1,2,0:0:0:0:
196,76,109178,1,0,0:0:0:0:
184,296,109328,5,0,0:0:0:0:
216,300,109403,1,0,0:0:0:0:
248,300,109478,1,0,0:0:0:0:
304,168,109628,5,2,0:0:0:0:
120,344,109778,1,0,0:0:0:0:
336,272,109928,1,0,0:0:0:0:
176,168,110078,1,0,0:0:0:0:
328,48,110228,2,0,P|388:76|404:108,1,89.9999952316285,0|0,0:0|0:0,0:0:0:0:
336,272,110528,6,0,P|280:248|264:216,1,89.9999952316285,0|0,0:0|0:0,0:0:0:0:
312,80,110828,1,2,0:0:0:0:
266,224,110978,1,0,0:0:0:0:
184,56,111128,1,0,0:0:0:0:
80,128,111278,1,0,0:0:0:0:
80,256,111428,2,0,P|123:281|189:307,1,89.9999952316285,0|0,0:0|0:0,0:0:0:0:
348,263,111728,5,0,0:0:0:0:
160,296,111878,1,0,0:0:0:0:
392,168,112028,1,0,0:0:0:0:
392,168,112178,1,0,0:0:0:0:
160,296,112328,1,0,0:0:0:0:
328,72,112478,1,0,0:0:0:0:
256,192,112628,12,0,115028,0:0:0:0:
48,64,115328,6,0,P|120:56|160:72,1,89.9999952316285
304,200,115628,2,0,P|232:208|192:192,1,89.9999952316285
304,56,115928,1,0,0:0:0:0:
304,56,116078,1,0,0:0:0:0:
304,200,116228,1,0,0:0:0:0:
295,215,116303,1,0,0:0:0:0:
286,231,116378,1,0,0:0:0:0:
278,247,116453,1,0,0:0:0:0:
264,264,116528,5,0,0:0:0:0:
245,304,116603,1,0,0:0:0:0:
213,335,116678,1,0,0:0:0:0:
171,351,116753,1,0,0:0:0:0:
126,350,116828,1,0,0:0:0:0:
86,332,116903,1,0,0:0:0:0:
55,299,116978,1,0,0:0:0:0:
39,257,117053,1,0,0:0:0:0:
34,221,117128,1,0,0:0:0:0:
34,221,117203,1,0,0:0:0:0:
34,221,117278,2,0,P|74:185|146:165,1,89.9999952316285,0|2,0:0|0:0,0:0:0:0:
384,96,117578,5,0,0:0:0:0:
388,288,117728,1,2,0:0:0:0:
220,284,117878,1,0,0:0:0:0:
220,96,118028,1,2,0:0:0:0:
412,133,118178,1,0,0:0:0:0:
336,313,118328,1,2,0:0:0:0:
193,224,118478,1,0,0:0:0:0:
289,82,118628,1,2,0:0:0:0:
72,272,118778,6,0,P|120:308|172:308,1,89.9999952316285,0|0,0:0|0:0,0:0:0:0:
168,212,119078,2,0,P|224:224|260:256,1,89.9999952316285,0|2,0:0|0:0,0:0:0:0:
248,244,119378,1,0,0:0:0:0:
440,192,119528,1,0,0:0:0:0:
248,244,119678,1,0,0:0:0:0:
384,72,119828,1,2,0:0:0:0:
252,244,119978,1,0,0:0:0:0:
240,32,120128,1,0,0:0:0:0:
240,32,120203,1,0,0:0:0:0:
240,32,120278,1,0,0:0:0:0:
40,72,120428,6,0,P|88:112|128:128,1,89.9999952316285,2|0,0:0|0:0,0:0:0:0:
152,192,120728,2,0,P|192:128|192:88,2,89.9999952316285
164,280,121178,2,0,P|220:300|268:300,1,89.9999952316285
400,280,121478,1,0,0:0:0:0:
400,280,121553,1,0,0:0:0:0:
400,280,121628,1,2,0:0:0:0:
400,280,121703,1,0,0:0:0:0:
400,280,121778,1,0,0:0:0:0:
412,240,121853,1,0,0:0:0:0:
412,200,121928,1,0,0:0:0:0:
408,168,122003,1,0,0:0:0:0:
404,136,122078,1,0,0:0:0:0:
396,104,122153,1,0,0:0:0:0:
376,80,122228,6,0,P|304:64|280:64,1,89.9999952316285
168,152,122528,2,0,P|224:176|264:168,1,89.9999952316285
448,200,122828,1,0,0:0:0:0:
100,272,122978,5,0,0:0:0:0:
100,272,123128,1,0,0:0:0:0:
448,200,123278,1,0,0:0:0:0:
172,176,123428,2,0,P|236:216|260:248,1,89.9999952316285,2|0,0:0|0:0,0:0:0:0:
232,328,123728,2,0,P|292:320|328:292,1,89.9999952316285
456,176,124028,1,2,0:0:0:0:
316,304,124178,1,0,0:0:0:0:
464,304,124328,1,0,0:0:0:0:
320,176,124478,1,0,0:0:0:0:
176,176,124628,6,0,P|128:148|96:96,1,89.9999952316285,2|0,0:0|0:0,0:0:0:0:
232,48,124928,1,2,0:0:0:0:
376,80,125078,1,0,0:0:0:0:
472,192,125228,1,2,0:0:0:0:
400,320,125378,1,0,0:0:0:0:
364,328,125528,6,0,P|308:320|264:296,1,89.9999952316285,2|0,0:0|0:0,0:0:0:0:
128,276,125828,1,2,0:0:0:0:
127,242,125903,1,0,0:0:0:0:
137,210,125978,1,0,0:0:0:0:
144,176,126053,1,0,0:0:0:0:
164,148,126128,1,0,0:0:0:0:
208,156,126203,5,0,0:0:0:0:
232,132,126278,1,0,0:0:0:0:
256,108,126353,1,0,0:0:0:0:
283,86,126428,1,2,0:0:0:0:
315,74,126503,1,0,0:0:0:0:
331,104,126578,5,0,0:0:0:0:
344,136,126653,1,0,0:0:0:0:
360,168,126728,1,0,0:0:0:0:
376,200,126803,1,0,0:0:0:0:
392,232,126878,1,0,0:0:0:0:
392,232,126953,1,0,0:0:0:0:
392,232,127028,2,0,P|440:192|480:192,1,89.9999952316285
464,272,127328,5,2,0:0:0:0:
328,320,127478,1,0,0:0:0:0:
184,304,127628,1,2,0:0:0:0:
56,240,127778,1,0,0:0:0:0:
56,240,127928,6,0,L|112:160|112:160,1,89.9999952316285,2|0,0:0|0:0,0:0:0:0:
152,64,128228,2,0,P|208:64|248:88,1,89.9999952316285,2|0,0:0|0:0,0:0:0:0:
228,192,128528,2,0,P|280:188|324:168,1,89.9999952316285,2|0,0:0|0:0,0:0:0:0:
496,96,128828,5,2,0:0:0:0:
314,173,128978,1,0,0:0:0:0:
472,224,129128,1,0,0:0:0:0:
392,312,129278,2,0,P|308:320|264:312,1,89.9999952316285,0|2,0:0|0:0,0:0:0:0:
184,304,129578,1,0,0:0:0:0:
184,304,129728,1,2,0:0:0:0:
224,192,129878,2,0,P|168:200|120:192,1,89.9999952316285,0|2,0:0|0:0,0:0:0:0:
40,128,130178,5,0,0:0:0:0:
144,72,130328,1,2,0:0:0:0:
256,40,130478,2,0,P|336:56|368:72,1,89.9999952316285,0|2,0:0|0:0,0:0:0:0:
400,160,130778,5,0,0:0:0:0:
405,204,130853,1,0,0:0:0:0:
393,247,130928,1,0,0:0:0:0:
366,282,131003,1,0,0:0:0:0:
327,305,131078,1,0,0:0:0:0:
283,311,131153,1,0,0:0:0:0:
239,299,131228,1,0,0:0:0:0:
204,272,131303,1,0,0:0:0:0:
181,234,131378,1,0,0:0:0:0:
175,189,131453,1,0,0:0:0:0:
186,146,131528,1,0,0:0:0:0:
212,110,131603,1,0,0:0:0:0:
251,87,131678,1,0,0:0:0:0:
295,80,131753,1,0,0:0:0:0:
338,91,131828,1,0,0:0:0:0:
256,192,131903,12,0,134228,0:0:0:0:
112,128,134378,5,0,0:0:0:0:
112,128,134453,1,0,0:0:0:0:
112,128,134528,2,0,P|184:136|208:152,1,89.9999952316285,2|0,0:0|0:0,0:0:0:0:
312,296,134829,1,2,0:0:0:0:
312,296,134903,1,0,0:0:0:0:
312,296,134979,2,0,P|264:288|224:264,1,89.9999952316285,0|2,0:0|0:0,0:0:0:0:
312,192,135279,1,0,0:0:0:0:
328,168,135354,1,2,0:0:0:0:
344,144,135429,1,2,0:0:0:0:
456,64,135579,5,0,0:0:0:0:
456,64,135654,1,0,0:0:0:0:
456,64,135729,1,2,0:0:0:0:
456,64,135804,1,0,0:0:0:0:
456,64,135879,5,0,0:0:0:0:
456,64,135954,1,0,0:0:0:0:
476,103,136029,1,0,0:0:0:0:
487,147,136104,1,0,0:0:0:0:
485,192,136179,1,0,0:0:0:0:
473,235,136254,1,0,0:0:0:0:
449,273,136329,1,0,0:0:0:0:
417,304,136404,1,0,0:0:0:0:
378,326,136479,1,0,0:0:0:0:
335,337,136554,1,0,0:0:0:0:
290,337,136629,1,0,0:0:0:0:
168,320,136779,5,0,0:0:0:0:
0,272,136929,1,8,0:0:0:0:
144,168,137079,1,0,0:0:0:0:
144,296,137229,1,8,0:0:0:0:
0,216,137379,1,0,0:0:0:0:
24,136,137529,1,8,0:0:0:0:
80,64,137679,1,0,0:0:0:0:
168,32,137829,1,8,0:0:0:0:
304,32,137979,1,0,0:0:0:0:
432,80,138129,1,8,0:0:0:0:
488,208,138279,1,0,0:0:0:0:
432,328,138429,1,8,0:0:0:0:
296,304,138579,5,0,0:0:0:0:
296,304,138654,1,0,0:0:0:0:
296,304,138729,2,0,P|224:256|216:240,1,89.9999952316285,2|0,0:0|0:0,0:0:0:0:
80,64,139029,2,0,P|128:96|160:144,1,89.9999952316285,2|0,0:0|0:0,0:0:0:0:
128,200,139329,2,0,P|200:184|232:152,1,89.9999952316285,2|0,0:0|0:0,0:0:0:0:
416,48,139629,2,0,P|368:48|320:80,1,89.9999952316285,2|0,0:0|0:0,0:0:0:0:
392,120,139929,5,0,0:0:0:0:
288,168,140079,1,0,0:0:0:0:
256,176,140154,1,0,0:0:0:0:
224,184,140229,1,4,0:0:0:0:
64,136,140379,1,0,0:0:0:0:
96,128,140454,1,0,0:0:0:0:
128,120,140529,1,4,0:0:0:0:
384,64,140679,1,0,0:0:0:0:
260,144,140829,5,0,0:0:0:0:
260,144,140979,2,0,L|260:256,1,89.9999952316285,0|2,0:0|0:0,0:0:0:0:
144,56,141429,2,0,B|204:68|264:8|352:44|352:44,1,179.999990463257,4|0,0:0|0:0,0:0:0:0:
420,136,141879,1,0,0:0:0:0:
420,136,141954,1,0,0:0:0:0:
420,136,142029,1,2,0:0:0:0:
384,248,142179,6,0,P|308:276|268:264,1,89.9999952316285,0|2,0:0|0:0,0:0:0:0:
136,216,142479,1,0,0:0:0:0:
301,275,142629,1,2,0:0:0:0:
96,120,142779,1,0,0:0:0:0:
301,275,142929,1,2,0:0:0:0:
224,72,143079,1,0,0:0:0:0:
224,72,143154,1,0,0:0:0:0:
224,72,143229,1,8,0:0:0:0:
224,72,143304,1,0,0:0:0:0:
224,72,143379,2,0,B|280:96|320:72|352:128|344:80|416:96,1,179.999990463257,0|0,0:0|0:0,0:0:0:0:
448,312,143829,5,4,0:0:0:0:
384,248,143979,1,0,0:0:0:0:
312,304,144129,1,2,0:0:0:0:
224,324,144279,2,0,P|172:284|152:240,1,89.9999952316285,0|2,0:0|0:0,0:0:0:0:
86,211,144579,1,0,0:0:0:0:
76,201,144729,1,0,0:0:0:0:
16,104,144879,6,0,P|92:76|132:92,1,89.9999952316285,0|4,0:0|0:0,0:0:0:0:
288,144,145179,2,0,P|216:168|176:160,1,89.9999952316285,0|2,0:0|0:0,0:0:0:0:
360,64,145479,1,0,0:0:0:0:
392,80,145554,1,0,0:0:0:0:
416,112,145629,1,2,0:0:0:0:
444,264,145779,2,2,P|372:284|340:288,1,89.9999952316285
232,296,146079,2,0,P|164:328|128:336,2,89.9999952316285,0|2|0,0:0|0:0|0:0,0:0:0:0:
228,188,146529,5,2,0:0:0:0:
228,188,146679,2,0,P|164:180|124:156,1,89.9999952316285,0|2,0:0|0:0,0:0:0:0:
92,56,146979,2,0,P|160:72|200:104,1,89.9999952316285,0|2,0:0|0:0,0:0:0:0:
312,80,147279,1,0,0:0:0:0:
228,188,147429,1,2,0:0:0:0:
468,80,147579,5,0,0:0:0:0:
468,80,147654,1,0,0:0:0:0:
468,80,147729,1,0,0:0:0:0:
468,80,147804,1,0,0:0:0:0:
468,80,147879,5,0,0:0:0:0:
440,112,147954,1,0,0:0:0:0:
420,152,148029,1,2,0:0:0:0:
412,188,148104,1,0,0:0:0:0:
396,228,148179,1,0,0:0:0:0:
368,260,148254,1,0,0:0:0:0:
336,284,148329,1,0,0:0:0:0:
300,280,148404,1,0,0:0:0:0:
268,268,148479,1,0,0:0:0:0:
240,252,148554,1,0,0:0:0:0:
216,228,148629,1,2,0:0:0:0:
256,192,148779,12,0,153129,0:0:0:0:
112,48,153429,5,2,0:0:0:0:
112,48,153579,1,0,0:0:0:0:
200,96,153729,2,0,P|264:96|304:104,1,89.9999952316285
289,100,154029,1,0,0:0:0:0:
504,312,154329,5,2,0:0:0:0:
504,312,154479,1,0,0:0:0:0:
416,264,154629,1,0,0:0:0:0:
416,264,154779,2,0,P|352:264|304:256,1,89.9999952316285
16,80,155229,5,2,0:0:0:0:
16,80,155829,1,2,0:0:0:0:
156,80,155979,1,0,0:0:0:0:
496,176,156279,1,0,0:0:0:0:
356,176,156429,1,2,0:0:0:0:
12,320,156729,1,0,0:0:0:0:
168,320,156879,1,0,0:0:0:0:
256,192,157179,5,0,0:0:0:0:
256,192,157329,1,8,0:0:0:0:
160,64,157629,2,0,B|224:80|256:48|296:32|432:56,1,269.999985694885,4|0,0:0|0:0,0:0:0:0:
424,56,158229,1,2,0:0:0:0:
256,192,158379,1,0,0:0:0:0:
88,328,158679,1,0,0:0:0:0:
256,192,158829,1,2,0:0:0:0:
424,328,159129,5,0,0:0:0:0:
256,192,159279,1,0,0:0:0:0:
88,56,159429,1,2,0:0:0:0:
256,192,159579,1,0,0:0:0:0:
256,192,159729,1,0,0:0:0:0:
256,192,160029,6,0,B|328:224|376:216|360:232,1,89.9999952316285,8|0,0:0|0:0,0:0:0:0:
304,304,160329,2,0,P|256:320|208:328,1,89.9999952316285,8|0,0:0|0:0,0:0:0:0:
96,316,160629,5,8,0:0:0:0:
256,192,160779,1,0,0:0:0:0:
416,316,161079,1,8,0:0:0:0:
256,192,161229,1,2,0:0:0:0:
104,76,161529,5,0,0:0:0:0:
104,208,161679,1,0,0:0:0:0:
424,208,161979,1,0,0:0:0:0:
424,340,162129,1,0,0:0:0:0:
256,188,162429,1,2,0:0:0:0:
256,188,162579,1,0,0:0:0:0:
256,188,162729,1,4,0:0:0:0:
432,300,162879,5,0,0:0:0:0:
432,300,162954,1,0,0:0:0:0:
432,300,163029,2,8,L|320:304,1,89.9999952316285,8|0,0:0|0:0,0:0:0:0:
96,76,163479,1,0,0:0:0:0:
96,76,163629,1,8,0:0:0:0:
96,76,163929,6,8,L|216:76,1,89.9999952316285,8|0,0:0|0:0,0:0:0:0:
256,200,164379,1,0,0:0:0:0:
256,200,164529,1,0,0:0:0:0:
280,72,164829,6,0,P|352:56|408:56,1,89.9999952316285,2|0,0:0|0:0,0:0:0:0:
496,144,165129,2,0,P|448:160|368:168,1,89.9999952316285
256,200,165429,1,8,0:0:0:0:
72,200,165579,1,2,0:0:0:0:
156,112,165879,1,2,0:0:0:0:
344,112,166029,1,8,0:0:0:0:
344,112,166329,2,0,P|392:140|416:172,1,89.9999952316285,0|0,0:0|0:0,0:0:0:0:
308,216,166779,2,0,P|256:184|232:140,1,89.9999952316285,0|0,0:0|0:0,0:0:0:0:
236,72,167229,5,2,0:0:0:0:
160,120,167379,1,0,0:0:0:0:
128,204,167529,1,0,0:0:0:0:
252,328,167829,6,0,P|208:296|176:248,1,89.9999952316285,8|0,0:0|0:0,0:0:0:0:
288,248,168279,2,0,P|332:280|356:328,1,89.9999952316285,0|2,0:0|0:0,0:0:0:0:
448,336,168729,1,0,0:0:0:0:
448,336,168879,1,0,0:0:0:0:
64,48,169179,5,0,0:0:0:0:
64,48,169329,1,0,0:0:0:0:
256,196,169629,1,2,0:0:0:0:
256,196,169779,1,0,0:0:0:0:
56,236,169929,2,0,L|88:196,1,44.9999976158143
188,160,170079,2,0,L|156:208,1,44.9999976158143
128,300,170229,2,0,B|180:336|208:288|228:324|296:260,1,179.999990463257,2|0,0:0|0:0,0:0:0:0:
292,264,170679,2,0,P|384:252|396:244,1,89.9999952316285,0|0,0:0|0:0,0:0:0:0:
452,176,171129,6,0,P|280:64|96:128,1,404.999978542328,2|0,0:0|0:0,0:0:0:0:
92,140,172554,1,0,0:0:0:0:
80,160,172629,1,2,0:0:0:0:
100,308,172779,6,0,L|136:320,3,22.4999988079071,0|0|2|0,0:0|0:0|0:0|0:0,0:0:0:0:
121,315,173079,2,0,B|200:304|252:304|248:252|308:264,1,179.999990463257
376,268,173529,1,2,0:0:0:0:
440,208,173679,1,0,0:0:0:0:
376,148,173829,2,0,L|416:108,1,44.9999976158143,2|0,0:0|0:0,0:0:0:0:
380,32,173979,2,0,L|332:76,1,44.9999976158143,0|0,0:0|0:0,0:0:0:0:
280,136,174129,2,0,P|200:132|160:144,1,89.9999952316285,2|0,0:0|0:0,0:0:0:0:
32,64,174429,5,2,0:0:0:0:
120,152,174579,1,0,0:0:0:0:
32,240,174729,2,0,B|92:256|112:292|152:324|188:340|212:316,1,179.999990463257,0|2,0:0|0:0,0:0:0:0:
416,312,175179,5,0,0:0:0:0:
424,88,175329,1,2,0:0:0:0:
264,172,175479,1,2,0:0:0:0:
424,272,175629,1,2,0:0:0:0:
424,56,175779,1,0,0:0:0:0:
272,140,175929,1,2,0:0:0:0:
312,40,176079,2,0,L|264:64,1,44.9999976158143
168,136,176229,2,0,L|216:96,1,44.9999976158143,2|0,0:0|0:0,0:0:0:0:
136,64,176379,6,0,P|88:144|144:216,1,179.999990463257,2|0,0:0|0:0,0:0:0:0:
288,288,176829,5,2,0:0:0:0:
184,304,176979,1,0,0:0:0:0:
184,304,177054,1,0,0:0:0:0:
184,304,177129,1,0,0:0:0:0:
244,216,177279,1,2,0:0:0:0:
364,272,177429,1,2,0:0:0:0:
296,144,177579,1,0,0:0:0:0:
12,48,177729,6,0,P|56:64|108:100,1,89.9999952316285
172,140,178029,1,2,0:0:0:0:
172,140,178179,1,0,0:0:0:0:
504,72,178329,2,0,P|464:92|420:144,1,89.9999952316285
356,180,178629,1,2,0:0:0:0:
356,180,178779,1,0,0:0:0:0:
8,196,178929,6,0,P|52:212|104:248,1,89.9999952316285
172,280,179229,1,2,0:0:0:0:
172,280,179379,1,0,0:0:0:0:
512,224,179529,2,0,P|472:244|428:296,1,89.9999952316285
360,328,179829,1,2,0:0:0:0:
360,328,179979,1,0,0:0:0:0:
392,56,180129,5,0,0:0:0:0:
268,88,180279,1,0,0:0:0:0:
260,216,180429,1,2,0:0:0:0:
384,184,180579,1,0,0:0:0:0:
360,328,180729,1,0,0:0:0:0:
232,336,180879,1,0,0:0:0:0:
120,276,181029,5,8,0:0:0:0:
120,276,181104,1,0,0:0:0:0:
120,276,181179,1,0,0:0:0:0:
99,236,181254,1,0,0:0:0:0:
94,191,181329,1,0,0:0:0:0:
104,148,181404,1,0,0:0:0:0:
130,111,181479,1,0,0:0:0:0:
167,86,181554,1,0,0:0:0:0:
224,56,181629,6,0,P|272:48|296:64,1,67.499998998642,8|0,0:0|0:0,0:0:0:0:
272,152,181779,2,0,P|216:160|184:152,1,67.499998998642,8|0,0:0|0:0,0:0:0:0:
352,112,181929,2,0,P|368:144|368:176,1,67.499998998642,8|0,0:0|0:0,0:0:0:0:
328,240,182079,5,2,0:0:0:0:
88,64,182829,5,2,0:0:0:0:
392,324,183129,1,0,0:0:0:0:
240,92,183429,1,2,0:0:0:0:
300,216,183729,1,0,0:0:0:0:
8,288,184029,1,2,0:0:0:0:
248,336,184329,1,0,0:0:0:0:
496,184,184629,5,2,0:0:0:0:
192,72,185079,1,0,0:0:0:0:
348,260,185529,1,0,0:0:0:0:
32,168,185829,1,2,0:0:0:0:
116,260,186129,1,0,0:0:0:0:
116,260,186429,1,2,0:0:0:0:
436,164,187029,5,2,0:0:0:0:
328,32,187179,2,0,P|280:20|228:44,1,89.9999952316285,0|2,0:0|0:0,0:0:0:0:
264,144,187479,1,0,0:0:0:0:
264,144,187629,2,0,P|212:148|172:132,1,89.9999952316285,2|0,0:0|0:0,0:0:0:0:
108,256,187929,1,2,0:0:0:0:
128,276,188079,1,0,0:0:0:0:
156,288,188229,1,2,0:0:0:0:
184,300,188379,1,0,0:0:0:0:
212,304,188529,1,2,0:0:0:0:
248,308,188679,1,0,0:0:0:0:
276,308,188829,2,0,P|348:260|396:180,1,179.999990463257,4|0,0:0|0:0,0:0:0:0:
500,60,189429,5,2,0:0:0:0:
472,76,189579,1,0,0:0:0:0:
444,92,189729,1,2,0:0:0:0:
420,100,189879,1,0,0:0:0:0:
396,100,190029,1,2,0:0:0:0:
376,92,190179,1,0,0:0:0:0:
344,100,190329,2,0,B|280:68|252:84|192:148|172:124|144:124|172:124,1,179.999990463257,4|2,0:0|0:0,0:0:0:0:
64,316,190779,5,0,0:0:0:0:
176,124,190929,1,0,0:0:0:0:
256,316,191079,1,8,0:0:0:0:
256,316,191154,1,8,0:0:0:0:
256,316,191229,1,8,0:0:0:0:
368,292,191379,1,0,0:0:0:0:
368,292,191529,2,0,B|432:292|424:240|456:192|512:192,1,179.999990463257,0|4,0:0|0:0,0:0:0:0:
444,52,191979,5,0,0:0:0:0:
408,128,192129,1,2,0:0:0:0:
360,60,192279,2,0,P|316:76|248:84,1,89.9999952316285,0|2,0:0|0:0,0:0:0:0:
176,60,192579,2,0,P|124:100|108:136,1,89.9999952316285,0|2,0:0|0:0,0:0:0:0:
204,176,192879,2,0,P|284:196|304:196,2,89.9999952316285,0|2|0,0:0|0:0|0:0,0:0:0:0:
80,232,193329,1,2,0:0:0:0:
160,308,193479,1,0,0:0:0:0:
160,308,193629,2,0,P|244:288|264:288,1,89.9999952316285,2|0,0:0|0:0,0:0:0:0:
452,280,193929,6,0,P|416:208|384:180,1,89.9999952316285,2|0,0:0|0:0,0:0:0:0:
408,100,194229,1,2,0:0:0:0:
304,64,194379,1,0,0:0:0:0:
192,76,194529,1,2,0:0:0:0:
112,144,194679,1,0,0:0:0:0:
72,252,194829,2,0,P|156:292|252:292,1,179.999990463257,2|0,0:0|0:0,0:0:0:0:
390,315,195279,1,0,0:0:0:0:
241,294,195429,1,2,0:0:0:0:
424,200,195579,1,0,0:0:0:0:
344,88,195729,5,0,0:0:0:0:
424,200,195879,1,0,0:0:0:0:
260,68,196029,1,2,0:0:0:0:
260,68,196104,1,0,0:0:0:0:
260,68,196179,1,0,0:0:0:0:
224,84,196254,1,0,0:0:0:0:
200,104,196329,1,0,0:0:0:0:
180,124,196404,1,0,0:0:0:0:
160,148,196479,1,0,0:0:0:0:
144,172,196554,1,0,0:0:0:0:
128,204,196629,2,0,B|156:252|224:220|296:264|300:268,1,179.999990463257,2|0,0:0|0:0,0:0:0:0:
464,312,197079,5,0,0:0:0:0:
292,264,197229,1,2,0:0:0:0:
416,212,197379,1,0,0:0:0:0:
264,164,197529,1,2,0:0:0:0:
368,120,197679,1,0,0:0:0:0:
224,72,197829,1,2,0:0:0:0:
80,88,197979,2,0,B|116:140|84:184|96:228|104:240|160:260,1,179.999990463257,0|0,0:0|0:0,0:0:0:0:
88,328,198429,2,0,P|168:344|208:336,1,89.9999952316285,2|0,0:0|0:0,0:0:0:0:
232,240,198729,6,0,P|260:280|268:328,1,67.499998998642,8|0,0:0|0:0,0:0:0:0:
344,336,198879,2,0,P|424:320|432:312,1,67.499998998642
488,296,199029,2,0,B|456:248|416:248|416:248|416:200,1,134.999997997284
456,64,199329,5,8,0:0:0:0:
456,64,199479,1,0,0:0:0:0:
368,48,199629,2,0,P|312:80|264:128,1,89.9999952316285,2|0,0:0|0:0,0:0:0:0:
344,168,199929,2,0,P|312:216|264:248,1,89.9999952316285,2|0,0:0|0:0,0:0:0:0:
272,248,200154,5,0,0:0:0:0:
264,256,200229,1,0,0:0:0:0:
256,264,200304,1,0,0:0:0:0:
248,272,200379,1,0,0:0:0:0:
240,280,200454,1,0,0:0:0:0:
232,288,200529,1,0,0:0:0:0:
200,304,200604,5,0,0:0:0:0:
160,304,200679,1,0,0:0:0:0:
120,296,200754,1,0,0:0:0:0:
88,280,200829,1,0,0:0:0:0:
64,248,200904,1,0,0:0:0:0:
48,216,200979,1,0,0:0:0:0:
144,96,201130,5,8,0:0:0:0:
352,280,201280,1,0,0:0:0:0:
252,188,201430,1,4,0:0:0:0:
384,72,202330,5,0,0:0:0:0:
136,292,202630,1,2,0:0:0:0:
248,72,202930,1,0,0:0:0:0:
248,288,203230,1,2,0:0:0:0:
152,84,203530,1,0,0:0:0:0:
416,200,203830,1,2,0:0:0:0:
108,168,204130,1,4,0:0:0:0:
368,84,204730,6,0,L|256:84,1,89.9999952316285,2|0,0:0|0:0,0:0:0:0:
160,200,205030,2,0,L|284:200,1,89.9999952316285,2|0,0:0|0:0,0:0:0:0:
278,84,205330,1,2,0:0:0:0:
160,200,205630,1,2,0:0:0:0:
96,316,205930,1,2,0:0:0:0:
228,316,206230,5,2,0:0:0:0:
384,304,206380,1,0,0:0:0:0:
384,304,206530,2,0,P|404:240|396:192,1,89.9999952316285,2|0,0:0|0:0,0:0:0:0:
464,144,206830,2,0,B|400:104|352:200|336:80|280:88,1,179.999990463257,8|0,0:0|0:0,0:0:0:0:
256,188,207280,5,0,0:0:0:0:
256,188,207430,1,0,0:0:0:0:
256,188,207580,1,0,0:0:0:0:
256,188,207730,1,0,0:0:0:0:
256,188,207880,1,0,0:0:0:0:
312,96,208030,2,0,L|372:164,1,89.9999952316285,0|0,0:0|0:0,0:0:0:0:
256,188,208330,1,0,0:0:0:0:
196,288,208480,2,0,L|128:216,1,89.9999952316285,0|0,0:0|0:0,0:0:0:0:
256,188,208780,1,0,0:0:0:0:
352,232,208930,2,0,L|272:316|272:316,1,89.9999952316285,0|0,0:0|0:0,0:0:0:0:
152,144,209230,2,0,L|244:68,1,89.9999952316285,0|0,0:0|0:0,0:0:0:0:
256,188,209530,5,0,0:0:0:0:
256,188,209680,1,0,0:0:0:0:
256,188,209830,1,0,0:0:0:0:
256,188,209980,1,0,0:0:0:0:
256,188,210130,1,0,0:0:0:0:
256,296,210280,5,0,0:0:0:0:
256,296,210355,1,0,0:0:0:0:
256,296,210430,1,10,0:0:0:0:
136,252,210580,1,0,0:0:0:0:
256,188,210730,1,0,0:0:0:0:
376,252,210880,1,0,0:0:0:0:
376,232,211030,5,0,0:0:0:0:
256,160,211180,1,0,0:0:0:0:
136,232,211330,1,2,0:0:0:0:
144,72,211630,5,8,0:0:0:0:
368,152,211780,1,0,0:0:0:0:
144,232,211930,1,0,0:0:0:0:
368,312,212080,1,0,0:0:0:0:
144,312,212530,5,8,0:0:0:0:
368,232,212680,1,0,0:0:0:0:
144,152,212830,1,0,0:0:0:0:
368,72,212980,1,0,0:0:0:0:
32,152,213430,5,2,0:0:0:0:
32,152,213505,1,0,0:0:0:0:
32,152,213580,1,0,0:0:0:0:
32,152,213655,2,0,B|72:192|144:128|152:112|224:120|208:144,1,179.999990463257
216,136,214030,5,2,0:0:0:0:
232,152,214105,1,0,0:0:0:0:
248,168,214180,1,0,0:0:0:0:
264,184,214255,1,0,0:0:0:0:
288,184,214330,5,2,0:0:0:0:
304,200,214405,1,0,0:0:0:0:
320,216,214480,1,0,0:0:0:0:
336,232,214555,1,0,0:0:0:0:
352,248,214630,2,0,P|296:304|264:304,1,89.9999952316285
232,344,214855,1,0,0:0:0:0:
232,344,214930,2,0,P|176:304|168:256,1,89.9999952316285
232,256,215155,1,0,0:0:0:0:
232,256,215230,2,0,P|200:216|152:208,1,89.9999952316285
136,224,215455,5,0,0:0:0:0:
104,216,215530,1,0,0:0:0:0:
88,184,215605,1,0,0:0:0:0:
88,152,215680,1,0,0:0:0:0:
104,120,215755,1,0,0:0:0:0:
128,96,215830,2,0,P|176:64|224:64,1,89.9999952316285
264,104,216055,1,0,0:0:0:0:
272,112,216130,1,0,0:0:0:0:
280,120,216205,1,0,0:0:0:0:
288,128,216280,6,0,L|336:184,1,44.9999976158143,0|0,0:0|0:0,0:0:0:0:
288,288,216430,2,0,L|328:216,1,44.9999976158143
440,192,216580,2,0,L|360:216,1,44.9999976158143
504,160,216730,2,0,P|448:120|408:112,1,89.9999952316285
256,200,217030,1,0,0:0:0:0:
184,120,217180,1,0,0:0:0:0:
120,32,217330,1,0,0:0:0:0:
184,120,217480,1,0,0:0:0:0:
288,144,217630,1,0,0:0:0:0:
392,160,217780,1,0,0:0:0:0:
472,232,217930,5,0,0:0:0:0:
456,248,218005,1,0,0:0:0:0:
440,264,218080,1,0,0:0:0:0:
424,280,218155,1,0,0:0:0:0:
400,280,218230,5,0,0:0:0:0:
384,288,218305,1,0,0:0:0:0:
368,296,218380,1,0,0:0:0:0:
352,304,218455,1,0,0:0:0:0:
328,312,218530,6,0,B|304:288|288:288|264:288,1,44.9999976158143
216,352,218680,2,0,P|168:320|160:304,1,44.9999976158143
152,248,218830,2,0,P|200:232|224:240,1,44.9999976158143
272,224,218980,2,0,P|264:192|240:176,1,44.9999976158143
192,144,219130,5,0,0:0:0:0:
168,136,219205,1,0,0:0:0:0:
152,128,219280,1,0,0:0:0:0:
128,120,219355,1,0,0:0:0:0:
112,48,219430,2,0,L|168:8,1,44.9999976158143
216,32,219580,5,0,0:0:0:0:
232,48,219655,1,0,0:0:0:0:
248,64,219730,1,0,0:0:0:0:
264,80,219805,1,0,0:0:0:0:
320,128,219880,2,0,L|392:112,1,44.9999976158143
432,152,220030,5,0,0:0:0:0:
408,176,220105,1,0,0:0:0:0:
384,200,220180,1,0,0:0:0:0:
360,224,220255,1,0,0:0:0:0:
336,248,220330,1,0,0:0:0:0:
128,256,220480,5,0,0:0:0:0:
152,280,220555,1,0,0:0:0:0:
176,304,220630,1,0,0:0:0:0:
72,176,220780,2,0,P|128:128|160:120,1,89.9999952316285
448,48,221080,1,0,0:0:0:0:
408,80,221155,1,0,0:0:0:0:
368,112,221230,1,0,0:0:0:0:
248,120,221380,5,0,0:0:0:0:
280,160,221455,1,0,0:0:0:0:
312,200,221530,1,0,0:0:0:0:
424,224,221680,1,0,0:0:0:0:
384,256,221755,1,0,0:0:0:0:
344,288,221830,1,0,0:0:0:0:
232,336,221980,1,0,0:0:0:0:
192,304,222055,1,0,0:0:0:0:
160,264,222130,1,0,0:0:0:0:
72,208,222280,5,0,0:0:0:0:
128,120,222430,1,0,0:0:0:0:
232,104,222580,1,0,0:0:0:0:
336,88,222730,1,0,0:0:0:0:
440,88,222880,1,0,0:0:0:0:
336,88,223030,5,0,0:0:0:0:
440,88,223180,1,0,0:0:0:0:
144,232,223330,1,0,0:0:0:0:
240,176,223480,1,0,0:0:0:0:
392,232,223780,1,0,0:0:0:0:
288,248,223930,1,0,0:0:0:0:
392,232,224080,5,0,0:0:0:0:
288,248,224230,1,0,0:0:0:0:
248,344,224380,1,0,0:0:0:0:
288,248,224530,1,0,0:0:0:0:
392,232,224680,1,0,0:0:0:0:
184,232,224830,5,0,0:0:0:0:
80,224,224980,1,0,0:0:0:0:
144,88,225280,1,0,0:0:0:0:
248,56,225430,1,0,0:0:0:0:
384,160,225730,1,0,0:0:0:0:
280,136,225880,1,0,0:0:0:0:
296,240,226180,5,0,0:0:0:0:
296,240,226255,1,0,0:0:0:0:
275,279,226330,1,0,0:0:0:0:
242,310,226405,1,0,0:0:0:0:
201,327,226480,1,0,0:0:0:0:
156,329,226555,1,0,0:0:0:0:
113,316,226630,1,0,0:0:0:0:
78,289,226705,1,0,0:0:0:0:
53,251,226780,1,0,0:0:0:0:
44,207,226855,1,0,0:0:0:0:
49,163,226930,1,0,0:0:0:0:
70,123,227005,1,0,0:0:0:0:
103,93,227080,1,0,0:0:0:0:
144,75,227155,1,0,0:0:0:0:
189,73,227230,1,0,0:0:0:0:
184,160,227380,5,0,0:0:0:0:
224,152,227455,1,0,0:0:0:0:
264,128,227530,1,2,0:0:0:0:
352,56,227680,1,0,0:0:0:0:
352,56,227830,6,8,P|400:80|424:112,1,89.9999952316285,0|0,0:0|0:0,0:0:0:0:
104,64,229180,6,0,L|228:64,1,89.9999952316285,8|4,0:0|0:0,0:0:0:0:
408,128,229480,2,0,L|288:132,1,89.9999952316285,0|0,0:0|0:0,0:0:0:0:
200,176,230080,1,0,0:0:0:0:
120,236,230380,1,0,0:0:0:0:
340,260,230680,2,0,P|280:244|232:256,1,89.9999952316285,0|0,0:0|0:0,0:0:0:0:
168,320,230980,2,0,P|240:336|288:320,1,89.9999952316285
340,260,231280,1,0,0:0:0:0:
408,192,231580,1,0,0:0:0:0:
408,88,231880,6,0,P|480:96|504:112,1,89.9999952316285
488,208,232180,2,0,B|432:192|432:160|368:176|352:192|336:128,1,179.999990463257
216,96,232780,6,0,L|216:192,1,67.499998998642,0|2,0:0|0:0,0:0:0:0:
312,272,233080,2,0,L|312:192,1,67.499998998642,0|8,0:0|0:0,0:0:0:0:
216,96,233380,2,0,L|216:204,1,89.9999952316285,0|2,0:0|0:0,0:0:0:0:
312,272,233680,2,0,L|312:168,1,89.9999952316285,0|8,0:0|0:0,0:0:0:0:
320,108,233980,6,0,L|428:108,1,89.9999952316285,0|2,0:0|0:0,0:0:0:0:
200,264,234280,2,0,L|76:264,1,89.9999952316285,0|8,0:0|0:0,0:0:0:0:
317,140,234580,6,0,L|433:140,1,89.9999952316285,0|2,0:0|0:0,0:0:0:0:
204,237,234880,2,0,L|100:237,1,89.9999952316285,0|2,0:0|0:0,0:0:0:0:
256,192,235105,12,0,235930,0:0:0:0:
28,48,236080,5,0,0:0:0:0:
152,60,236230,1,2,0:0:0:0:
272,88,236380,1,0,0:0:0:0:
388,136,236530,1,0,0:0:0:0:
280,196,236680,1,0,0:0:0:0:
164,240,236830,1,2,0:0:0:0:
72,324,236980,1,0,0:0:0:0:
192,352,237130,1,0,0:0:0:0:
316,336,237280,5,0,0:0:0:0:
416,240,237430,1,2,0:0:0:0:
384,104,237580,1,0,0:0:0:0:
256,52,237730,1,0,0:0:0:0:
144,132,237880,1,0,0:0:0:0:
188,264,238030,1,2,0:0:0:0:
328,256,238180,1,0,0:0:0:0:
368,124,238330,5,0,0:0:0:0:
344,88,238405,1,0,0:0:0:0:
304,64,238480,1,0,0:0:0:0:
256,168,238630,1,2,0:0:0:0:
256,168,238780,1,0,0:0:0:0:
256,168,238930,1,0,0:0:0:0:
256,168,239080,1,0,0:0:0:0:
256,168,239230,1,2,0:0:0:0:
256,168,239380,1,0,0:0:0:0:
140,292,239680,6,0,L|232:208,1,89.9999952316285,8|2,0:0|0:0,0:0:0:0:
384,64,239980,2,0,L|304:140,1,89.9999952316285,0|8,0:0|0:0,0:0:0:0:
120,88,240580,2,4,L|216:168,1,89.9999952316285,8|4,0:0|0:0,0:0:0:0:
384,296,240880,2,4,L|284:220,1,89.9999952316285,4|4,0:0|0:0,0:0:0:0:
124,88,245680,5,4,0:0:0:0:
256,188,245830,1,2,0:0:0:0:
374,278,245980,1,4,0:0:0:0:
388,88,247930,5,8,0:0:0:0:
256,192,248230,5,2,0:0:0:0:
176,280,248380,1,4,0:0:0:0:
256,108,249880,5,0,0:0:0:0:
256,276,250030,1,4,0:0:0:0:
180,136,250480,1,0,0:0:0:0:
252,192,250630,1,2,0:0:0:0:
320,248,250780,1,4,0:0:0:0:
256,80,251380,5,0,0:0:0:0:
260,308,251530,1,4,0:0:0:0:
408,260,251680,1,0,0:0:0:0:
392,140,251830,1,2,0:0:0:0:
368,96,251905,1,0,0:0:0:0:
332,76,251980,1,0,0:0:0:0:
176,80,252130,6,0,P|112:112|80:144,1,89.9999952316285,0|0,0:0|0:0,0:0:0:0:
216,320,252430,1,2,0:0:0:0:
98,123,252580,1,0,0:0:0:0:
52,280,252730,1,0,0:0:0:0:
224,204,252880,2,0,B|288:180|292:144|356:144|376:164|384:108|404:108|392:128,1,179.999990463257,0|0,0:0|0:0,0:0:0:0:
472,228,253330,5,2,0:0:0:0:
388,300,253480,1,0,0:0:0:0:
276,328,253630,1,2,0:0:0:0:
176,296,253780,2,0,L|136:208,1,89.9999952316285,0|2,0:0|0:0,0:0:0:0:
8,72,254080,1,0,0:0:0:0:
176,296,254230,1,2,0:0:0:0:
8,72,254380,2,0,L|56:156,1,89.9999952316285,0|2,0:0|0:0,0:0:0:0:
180,120,254680,1,0,0:0:0:0:
180,120,254830,2,0,P|256:84|292:80,1,89.9999952316285,2|0,0:0|0:0,0:0:0:0:
472,204,255130,5,0,0:0:0:0:
344,296,255280,1,0,0:0:0:0:
260,84,255430,1,2,0:0:0:0:
448,240,255580,1,0,0:0:0:0:
308,312,255730,1,2,0:0:0:0:
260,84,255880,1,0,0:0:0:0:
200,292,256030,2,0,P|136:264|104:236,1,89.9999952316285,2|0,0:0|0:0,0:0:0:0:
32,196,256330,2,0,P|92:144|128:124,1,89.9999952316285,2|0,0:0|0:0,0:0:0:0:
328,64,256630,5,2,0:0:0:0:
328,64,256780,2,0,L|288:160,1,89.9999952316285
168,96,257080,2,0,L|216:212,1,89.9999952316285,0|2,0:0|0:0,0:0:0:0:
260,296,257380,5,0,0:0:0:0:
202,179,257530,1,0,0:0:0:0:
344,304,257680,1,0,0:0:0:0:
202,179,257830,1,2,0:0:0:0:
432,288,257980,2,0,P|480:200|464:112,1,179.999990463257
384,72,258430,6,0,L|332:96,1,44.9999976158143,4|0,0:0|0:0,0:0:0:0:
228,64,258580,2,0,L|272:48,1,44.9999976158143,4|0,0:0|0:0,0:0:0:0:
280,152,258730,2,0,L|228:172,1,44.9999976158143,4|0,0:0|0:0,0:0:0:0:
128,148,258880,2,0,L|200:124,1,44.9999976158143,4|0,0:0|0:0,0:0:0:0:
112,244,259030,2,0,P|148:304|264:312,1,179.999990463257,2|0,0:0|0:0,0:0:0:0:
250,318,259480,1,0,0:0:0:0:
112,244,259630,1,2,0:0:0:0:
120,84,259780,1,0,0:0:0:0:
232,60,259930,6,0,P|288:64|332:80,1,89.9999952316285,2|0,0:0|0:0,0:0:0:0:
368,204,260230,2,0,P|304:196|268:168,1,89.9999952316285,2|0,0:0|0:0,0:0:0:0:
320,72,260530,1,0,0:0:0:0:
416,112,260680,1,0,0:0:0:0:
460,204,260830,1,2,0:0:0:0:
424,288,260980,2,0,B|384:340|304:280|224:332|216:336,1,179.999990463257
76,260,261430,5,2,0:0:0:0:
251,320,261580,1,0,0:0:0:0:
24,172,261730,1,0,0:0:0:0:
251,320,261880,1,0,0:0:0:0:
120,88,262030,2,0,B|188:72|220:96|280:40|296:68,1,179.999990463257,2|0,0:0|0:0,0:0:0:0:
295,66,262480,1,0,0:0:0:0:
480,284,262630,6,0,P|392:300|376:292,1,89.9999952316285,2|0,0:0|0:0,0:0:0:0:
320,260,262930,1,0,0:0:0:0:
408,200,263080,2,0,P|336:160|292:164,1,89.9999952316285,0|2,0:0|0:0,0:0:0:0:
56,112,263380,1,0,0:0:0:0:
184,184,263530,1,0,0:0:0:0:
64,272,263680,5,0,0:0:0:0:
96,296,263755,1,0,0:0:0:0:
136,320,263830,1,0,0:0:0:0:
176,328,263905,1,0,0:0:0:0:
224,336,263980,1,0,0:0:0:0:
272,336,264055,1,0,0:0:0:0:
288,328,264130,5,0,0:0:0:0:
304,320,264205,1,0,0:0:0:0:
320,312,264280,1,0,0:0:0:0:
336,304,264355,1,0,0:0:0:0:
352,296,264430,2,0,P|392:320|424:320,1,53.999995491028,2|0,0:0|0:0,0:0:0:0:
488,264,264580,2,0,P|464:248|408:248,1,53.999995491028
440,136,264730,2,0,P|416:120|360:120,1,53.999995491028,2|0,0:0|0:0,0:0:0:0:
300,92,264880,5,0,0:0:0:0:
224,304,265030,1,2,0:0:0:0:
368,152,265180,1,0,0:0:0:0:
168,228,265330,1,2,0:0:0:0:
423,88,265480,1,0,0:0:0:0:
109,306,265630,1,2,0:0:0:0:
301,44,265780,1,0,0:0:0:0:
272,328,265930,1,2,0:0:0:0:
116,62,266080,1,0,0:0:0:0:
408,326,266230,1,2,0:0:0:0:
336,96,266380,6,0,P|256:120|228:148,1,89.9999952316285
212,292,266680,2,0,P|292:276|324:244,1,89.9999952316285,0|2,0:0|0:0,0:0:0:0:
336,96,266980,1,0,0:0:0:0:
212,292,267130,1,0,0:0:0:0:
124,220,267280,1,0,0:0:0:0:
104,112,267430,1,2,0:0:0:0:
208,80,267580,2,0,P|248:60|304:60,1,89.9999952316285
432,152,267880,2,0,P|352:164|316:152,1,89.9999952316285,0|2,0:0|0:0,0:0:0:0:
188,200,268180,1,0,0:0:0:0:
344,162,268331,1,0,0:0:0:0:
128,260,268481,6,0,L|216:332,1,89.9999952316285,0|2,0:0|0:0,0:0:0:0:
368,264,268781,1,0,0:0:0:0:
197,316,268931,1,0,0:0:0:0:
444,94,269081,1,0,0:0:0:0:
408,67,269156,1,0,0:0:0:0:
368,46,269231,1,0,0:0:0:0:
326,32,269306,1,0,0:0:0:0:
282,25,269381,1,0,0:0:0:0:
237,25,269456,1,0,0:0:0:0:
192,32,269531,1,0,0:0:0:0:
150,46,269606,1,0,0:0:0:0:
134,88,269681,6,2,P|98:140|82:180,1,89.9999952316285,0|8,0:0|0:0,0:0:0:0:
84,312,269981,6,0,P|152:304|196:280,1,89.9999952316285,0|2,0:0|0:0,0:0:0:0:
180,208,270281,2,0,P|260:224|280:240,1,89.9999952316285,0|2,0:0|0:0,0:0:0:0:
348,328,270581,1,0,0:0:0:0:
472,272,270731,1,0,0:0:0:0:
376,200,270881,1,0,0:0:0:0:
512,112,271031,1,2,0:0:0:0:
392,88,271181,2,0,B|332:116|292:92|292:168|232:172|228:172,1,179.999990463257
120,216,271631,2,0,P|72:200|16:216,1,89.9999952316285,8|0,0:0|0:0,0:0:0:0:
84,312,271931,2,2,P|156:320|184:308,1,89.9999952316285,8|2,0:0|0:0,0:0:0:0:
296,312,272231,2,0,P|380:260|404:184,1,179.999990463257,2|0,0:0|0:0,0:0:0:0:
403,186,272681,1,0,0:0:0:0:
360,72,272831,1,2,0:0:0:0:
360,72,272981,2,0,P|296:76|248:88,1,89.9999952316285
128,112,273281,5,0,0:0:0:0:
128,112,273356,1,0,0:0:0:0:
128,112,273431,1,2,0:0:0:0:
128,112,273506,1,0,0:0:0:0:
128,112,273581,5,0,0:0:0:0:
132,140,273656,1,0,0:0:0:0:
140,168,273731,1,0,0:0:0:0:
150,195,273806,1,0,0:0:0:0:
161,222,273881,1,0,0:0:0:0:
180,244,273956,1,0,0:0:0:0:
212,268,274031,1,2,0:0:0:0:
250,281,274106,1,0,0:0:0:0:
290,285,274181,1,0,0:0:0:0:
330,286,274256,1,0,0:0:0:0:
370,286,274331,1,2,0:0:0:0:
427,201,274481,6,0,L|427:111,1,89.9999952316285,0|8,0:0|0:0,0:0:0:0:
276,59,274781,2,8,L|276:149,1,89.9999952316285
144,280,275081,2,0,L|144:172,1,89.9999952316285,0|8,0:0|0:0,0:0:0:0:
292,328,275381,2,0,L|292:212,1,89.9999952316285,0|8,0:0|0:0,0:0:0:0:
132,64,275681,2,0,L|232:64,1,89.9999952316285,0|2,0:0|0:0,0:0:0:0:
412,112,275981,2,0,L|288:112,1,89.9999952316285
204,164,276281,5,0,0:0:0:0:
324,112,276431,1,2,0:0:0:0:
324,112,276581,5,0,0:0:0:0:
136,192,276731,1,0,0:0:0:0:
324,112,276881,1,0,0:0:0:0:
68,232,277031,2,0,P|144:296|236:312,1,179.999990463257,2|0,0:0|0:0,0:0:0:0:
376,276,277481,5,0,0:0:0:0:
224,312,277631,1,2,0:0:0:0:
440,224,277781,1,0,0:0:0:0:
224,312,277931,1,0,0:0:0:0:
468,156,278081,2,0,B|424:124|424:72|336:84|320:32,1,179.999990463257,0|0,0:0|0:0,0:0:0:0:
212,68,278531,1,0,0:0:0:0:
188,100,278606,1,0,0:0:0:0:
156,124,278681,1,0,0:0:0:0:
123,147,278756,1,0,0:0:0:0:
90,170,278831,1,2,0:0:0:0:
65,201,278906,1,0,0:0:0:0:
56,240,278981,1,0,0:0:0:0:
70,278,279056,1,0,0:0:0:0:
102,302,279131,1,0,0:0:0:0:
140,316,279206,1,0,0:0:0:0:
179,325,279281,2,0,P|235:333|287:317,1,89.9999952316285,0|8,0:0|0:0,0:0:0:0:
464,264,279581,6,0,P|400:256|340:276,1,89.9999952316285
264,244,279881,2,0,P|280:176|312:148,1,89.9999952316285,0|8,0:0|0:0,0:0:0:0:
428,136,280181,1,0,0:0:0:0:
360,72,280331,1,0,0:0:0:0:
272,40,280481,1,0,0:0:0:0:
192,88,280631,2,0,P|140:124|116:180,1,89.9999952316285,2|0,0:0|0:0,0:0:0:0:
56,208,280931,2,0,B|84:260|120:236|172:240|220:320,1,179.999990463257,0|8,0:0|0:0,0:0:0:0:
296,300,281381,1,0,0:0:0:0:
352,208,281531,1,0,0:0:0:0:
456,184,281681,1,0,0:0:0:0:
472,320,281831,1,2,0:0:0:0:
352,208,281981,2,0,B|304:156|272:136|220:80,1,179.999990463257
128,136,282431,6,0,P|120:216|104:232,1,89.9999952316285
48,280,282731,2,0,P|128:304|168:304,1,89.9999952316285
240,280,283031,1,2,0:0:0:0:
344,312,283181,1,0,0:0:0:0:
408,224,283331,1,0,0:0:0:0:
408,192,283406,1,0,0:0:0:0:
400,160,283481,1,0,0:0:0:0:
384,128,283556,1,0,0:0:0:0:
368,96,283631,1,2,0:0:0:0:
344,72,283706,1,0,0:0:0:0:
312,56,283781,1,0,0:0:0:0:
280,48,283856,1,0,0:0:0:0:
248,48,283931,1,0,0:0:0:0:
216,48,284006,1,0,0:0:0:0:
184,48,284081,6,0,P|128:64|96:80,1,67.499998998642,8|8,0:0|0:0,0:0:0:0:
56,128,284381,1,0,0:0:0:0:
112,200,284531,1,8,0:0:0:0:
200,216,284681,1,0,0:0:0:0:
200,128,284831,1,8,0:0:0:0:
112,200,284981,2,0,P|80:264|56:320,1,89.9999952316285,0|8,0:0|0:0,0:0:0:0:
144,336,285281,5,0,0:0:0:0:
200,264,285431,1,8,0:0:0:0:
288,240,285581,1,0,0:0:0:0:
368,320,285731,1,8,0:0:0:0:
280,336,285881,1,0,0:0:0:0:
288,240,286031,1,8,0:0:0:0:
304,208,286106,1,0,0:0:0:0:
320,176,286181,1,0,0:0:0:0:
376,72,286331,6,0,P|448:88|480:104,1,89.9999952316285,8|0,0:0|0:0,0:0:0:0:
512,160,286631,1,2,0:0:0:0:
464,96,286781,6,0,P|368:72|320:72,1,134.999997997284,0|8,0:0|0:0,0:0:0:0:
200,80,287081,1,0,0:0:0:0:
64,80,287231,1,8,0:0:0:0:
120,200,287381,1,0,0:0:0:0:
248,168,287531,5,4,0:0:0:0:
280,160,287606,1,0,0:0:0:0:
312,152,287681,1,0,0:0:0:0:
456,72,287831,1,4,0:0:0:0:
424,80,287906,1,0,0:0:0:0:
392,88,287981,1,0,0:0:0:0:
248,176,288281,5,8,0:0:0:0:
248,176,288431,2,2,L|248:276,1,89.9999952316285,0|2,0:0|0:0,0:0:0:0:
80,72,288881,6,0,P|152:40|196:36,1,89.9999952316285,0|8,0:0|0:0,0:0:0:0:
256,168,289181,2,0,P|184:152|152:112,1,89.9999952316285,0|8,0:0|0:0,0:0:0:0:
320,80,289481,2,0,P|368:120|384:160,1,89.9999952316285,0|8,0:0|0:0,0:0:0:0:
456,256,289781,1,0,0:0:0:0:
352,344,289931,1,8,0:0:0:0:
160,304,290081,2,0,P|124:272|96:208,1,89.9999952316285,0|10,0:0|0:0,0:0:0:0:
48,80,290381,1,0,0:0:0:0:
216,88,290531,5,8,0:0:0:0:
216,88,290606,1,0,0:0:0:0:
216,88,290681,1,0,0:0:0:0:
216,88,290756,1,0,0:0:0:0:
216,88,290831,2,0,B|212:164|256:188|280:268,1,179.999990463257,2|4,0:0|0:0,0:0:0:0:
384,312,291281,5,0,0:0:0:0:
456,152,291581,1,0,0:0:0:0:
284,200,291881,1,0,0:0:0:0:
356,36,292181,1,0,0:0:0:0:
176,52,292481,1,0,0:0:0:0:
280,200,292781,5,0,0:0:0:0:
100,184,293081,1,0,0:0:0:0:
208,328,293381,1,0,0:0:0:0:
288,176,293681,1,0,0:0:0:0:
400,312,293981,1,0,0:0:0:0:
424,136,294281,1,0,0:0:0:0:
280,24,294581,1,0,0:0:0:0:
288,264,294731,2,0,L|288:168,1,89.9999952316285
108,272,295181,5,0,0:0:0:0:
108,132,295331,1,2,0:0:0:0:
136,112,295406,1,0,0:0:0:0:
167,98,295481,1,0,0:0:0:0:
198,84,295556,1,0,0:0:0:0:
232,80,295631,1,2,0:0:0:0:
266,76,295706,1,0,0:0:0:0:
300,76,295781,1,0,0:0:0:0:
334,77,295856,1,0,0:0:0:0:
367,86,295931,1,0,0:0:0:0:
399,98,296006,1,0,0:0:0:0:
429,115,296081,2,0,P|429:175|413:227,1,89.9999952316285,0|2,0:0|0:0,0:0:0:0:
264,308,296381,5,0,0:0:0:0:
260,208,296681,1,0,0:0:0:0:
256,112,296981,1,0,0:0:0:0:
408,16,297281,5,0,0:0:0:0:
440,168,297431,1,8,0:0:0:0:
296,192,297581,1,0,0:0:0:0:
256,40,297731,1,0,0:0:0:0:
360,72,297881,5,0,0:0:0:0:
432,128,298031,1,0,0:0:0:0:
480,200,298181,1,0,0:0:0:0:
504,288,298331,1,8,0:0:0:0:
392,368,298481,1,0,0:0:0:0:
256,368,298631,1,8,0:0:0:0:
128,320,298781,1,0,0:0:0:0:
8,216,298931,5,0,0:0:0:0:
152,112,299081,1,0,0:0:0:0:
256,232,299231,1,8,0:0:0:0:
120,176,299381,1,0,0:0:0:0:
256,72,299531,1,8,0:0:0:0:
288,72,299606,1,0,0:0:0:0:
320,80,299681,1,0,0:0:0:0:
368,168,299831,5,2,0:0:0:0:
368,168,299981,1,2,0:0:0:0:
472,68,300281,2,0,P|400:60|364:88,1,89.9999952316285,0|2,0:0|0:0,0:0:0:0:
264,96,300581,1,0,0:0:0:0:
96,192,300731,2,0,P|152:208|208:184,1,89.9999952316285,2|0,0:0|0:0,0:0:0:0:
336,160,301031,5,0,0:0:0:0:
488,288,301181,2,0,B|400:304|344:280|280:320,1,179.999990463257
184,208,301631,1,2,0:0:0:0:
280,288,301781,1,0,0:0:0:0:
152,168,301931,2,0,P|216:128|256:120,1,89.9999952316285
504,160,302231,6,0,P|444:176|400:180,1,89.9999952316285,0|0,0:0|0:0,0:0:0:0:
264,128,302531,1,2,0:0:0:0:
80,56,302681,2,0,P|128:40|184:48,1,89.9999952316285
92,228,302981,5,0,0:0:0:0:
184,300,303131,1,0,0:0:0:0:
300,300,303281,1,0,0:0:0:0:
392,228,303431,1,2,0:0:0:0:
376,112,303581,1,0,0:0:0:0:
268,68,303731,1,0,0:0:0:0:
160,116,303881,1,0,0:0:0:0:
272,240,304031,6,0,P|336:208|352:184,1,89.9999952316285
160,116,304331,2,0,P|112:136|80:192,1,89.9999952316285
272,160,304631,5,0,0:0:0:0:
272,160,304706,1,0,0:0:0:0:
272,160,304781,1,0,0:0:0:0:
404,76,304931,1,0,0:0:0:0:
404,76,305081,2,0,P|344:64|304:72,1,89.9999952316285,0|2,0:0|0:0,0:0:0:0:
132,84,305381,5,0,0:0:0:0:
132,84,305456,1,0,0:0:0:0:
132,84,305531,1,0,0:0:0:0:
112,168,305681,2,0,P|176:160|224:120,1,89.9999952316285,0|0,0:0|0:0,0:0:0:0:
216,24,305981,2,0,P|270:68|286:100,1,89.9999952316285
368,192,306281,2,0,P|320:192|264:168,1,89.9999952316285
108,164,306581,5,0,0:0:0:0:
144,288,306731,1,0,0:0:0:0:
264,336,306881,1,0,0:0:0:0:
384,288,307031,1,2,0:0:0:0:
400,160,307181,1,0,0:0:0:0:
256,120,307331,2,0,L|256:210,1,89.9999952316285,2|0,0:0|0:0,0:0:0:0:
256,232,307631,1,2,0:0:0:0:
256,234,307706,1,0,0:0:0:0:
256,232,307781,1,0,0:0:0:0:
92,64,307931,6,0,L|192:64,1,89.9999952316285
432,272,308231,2,0,L|342:272,1,89.9999952316285,2|0,0:0|0:0,0:0:0:0:
148,312,308531,5,0,0:0:0:0:
116,176,308681,1,0,0:0:0:0:
172,60,308831,1,2,0:0:0:0:
352,60,308981,1,0,0:0:0:0:
396,176,309131,1,0,0:0:0:0:
376,312,309281,1,0,0:0:0:0:
260,264,309431,6,0,L|260:184,1,44.9999976158143,2|0,0:0|0:0,0:0:0:0:
260,200,309581,2,0,B|264:96|288:84|288:56|264:40|240:56|240:84|240:84|264:96,1,179.999990463257,0|0,0:0|0:0,0:0:0:0:
244,72,310031,5,8,0:0:0:0:
244,72,310106,1,0,0:0:0:0:
244,72,310181,1,0,0:0:0:0:
256,192,310481,12,4,317831,0:0:0:0:
