osu file format v14

[General]
AudioFilename: towa yori towa ni.mp3
AudioLeadIn: 0
PreviewTime: 97351
Countdown: 0
SampleSet: Normal
StackLeniency: 0.7
Mode: 0
LetterboxInBreaks: 1
WidescreenStoryboard: 0

[Editor]
Bookmarks: 53851,139951
DistanceSpacing: 0.93
BeatDivisor: 4
GridSize: 4
TimelineZoom: 1

[Metadata]
Title:Towa yori Towa ni
TitleUnicode:永久より永遠に
Artist:marina
ArtistUnicode:marina
Creator:terametis
Version:Normal
Source:少女神域∽少女天獄 -The Garden of Fifth Zoa-
Tags:NewRulerNA wring Lass shoujo shiniki tengoku
BeatmapID:357101
BeatmapSetID:143507

[Difficulty]
HPDrainRate:3
CircleSize:3
OverallDifficulty:4
ApproachRate:5
SliderMultiplier:1.11999990463257
SliderTickRate:1

[Events]
//Background and Video events
0,0,"BG1.jpg",0,0
//Break Periods
//Storyboard Layer 0 (Background)
//Storyboard Layer 1 (Fail)
//Storyboard Layer 2 (Pass)
//Storyboard Layer 3 (Foreground)
//Storyboard Sound Samples

[TimingPoints]
13651,300,4,1,1,60,1,0
37651,-133.333333333333,4,2,1,60,0,0
53851,-133.333333333333,4,2,1,35,0,0
54451,-133.333333333333,4,1,1,60,0,0
55651,-133.333333333333,4,1,1,60,0,0
56851,-100,4,1,1,60,0,0
76051,-100,4,1,1,70,0,1
85651,300,3,2,1,70,1,0
85651,-133.333333333333,3,2,1,70,0,0
91051,300,4,1,1,70,1,0
95851,-100,4,1,1,75,0,0
98251,-100,4,1,1,80,0,1
115351,-100,4,1,1,80,0,0
117451,-100,4,1,1,80,0,1
141451,-100,4,1,1,80,0,0

[Colours]
Combo1 : 128,0,255
Combo2 : 232,232,23
Combo3 : 0,255,255

[HitObjects]
56,148,13651,6,0,L|188:148,1,111.999990463257
220,240,14251,2,0,P|260:202|272:148,1,111.999990463257
272,96,14701,6,0,P|309:55|363:43,1,111.999990463257
415,52,15151,2,0,P|455:89|467:143,1,111.999990463257
412,232,15751,6,0,L|348:232,1,55.9999952316285
252,232,16201,2,0,L|216:276,1,55.9999952316285
112,272,16651,2,0,P|71:234|59:180,1,111.999990463257
64,128,17101,6,0,P|101:87|155:75,1,111.999990463257
208,76,17551,2,0,L|268:172,1,111.999990463257
367,124,18151,1,0,0:0:0:0:
463,180,18451,6,0,P|451:233|414:275,1,111.999990463257
306,273,19051,2,0,P|269:231|256:177,1,111.999990463257
260,124,19501,6,0,P|222:83|168:71,1,111.999990463257
116,80,19951,2,0,L|56:176,1,111.999990463257
16,272,20551,6,0,L|76:272,1,55.9999952316285
132,360,21001,2,0,L|160:312,1,55.9999952316285
204,216,21451,2,0,P|256:196|308:216,1,111.999990463257
312,268,21901,6,0,P|323:321|365:357,1,111.999990463257
419,355,22351,1,0,0:0:0:0:
472,192,23101,6,0,B|472:136|472:136|452:80|392:64,1,167.999985694885,4|8,0:0|0:0,0:0:0:0:
288,64,23851,2,0,L|256:112,1,55.9999952316285
192,192,24301,6,0,B|136:192|136:192|80:164|76:104,1,167.999985694885,0|8,0:0|0:0,0:0:0:0:
137,21,25051,2,0,L|205:21,1,55.9999952316285
288,64,25501,6,0,B|288:120|288:120|308:176|368:192,1,167.999985694885,0|8,0:0|0:0,0:0:0:0:
472,192,26251,2,0,L|452:244,1,55.9999952316285
392,328,26701,6,0,P|316:292|236:308,1,167.999985694885,2|8,0:0|0:0,0:0:0:0:
156,372,27451,2,0,P|102:360|66:318,1,111.999990463257,0|8,0:0|0:0,0:0:0:0:
64,216,28051,6,0,L|132:128,1,111.999990463257,4|8,0:0|0:0,0:0:0:0:
184,220,28651,1,8,0:0:0:0:
232,128,28951,2,0,L|288:128,1,55.9999952316285,0|8,0:0|0:0,0:0:0:0:
392,128,29401,2,0,L|392:72,2,55.9999952316285,0|8|0,0:0|0:0|0:0,0:0:0:0:
392,180,29851,2,0,P|380:233|340:272,1,111.999990463257,8|0,0:0|0:0,0:0:0:0:
288,272,30301,6,0,L|176:272,1,111.999990463257,8|0,0:0|0:0,0:0:0:0:
124,272,30751,2,0,L|96:224,1,55.9999952316285,8|0,0:0|0:0,0:0:0:0:
96,120,31201,2,0,L|128:72,1,55.9999952316285,0|8,0:0|0:0,0:0:0:0:
172,72,31501,2,0,P|231:126|307:101,1,167.999985694885,0|8,0:0|0:0,0:0:0:0:
384,32,32251,2,0,L|412:140,1,111.999990463257,0|8,0:0|0:0,0:0:0:0:
256,192,32851,12,2,37651,0:0:0:0:
244,152,39451,5,0,0:0:0:0:
304,304,40051,2,0,P|243:320|184:302,2,125.999994077682
288,68,41851,6,0,P|203:62|157:128,1,167.999992103577,2|0,0:0|0:0,0:0:0:0:
176,208,42751,1,0,0:0:0:0:
176,208,43051,2,0,P|156:260|56:288,1,167.999992103577,0|2,0:0|0:0,0:0:0:0:
12,220,43951,2,0,L|12:132,1,83.9999960517883
64,76,44551,1,0,0:0:0:0:
116,136,44851,6,0,P|176:164|248:148,2,125.999994077682,2|0|2,0:0|0:0|0:0,0:0:0:0:
268,80,46351,2,0,P|313:144|274:224,1,167.999992103577
140,288,47551,5,0,0:0:0:0:
140,288,47851,2,0,B|168:344|168:344|276:344,1,167.999992103577,0|2,0:0|0:0,0:0:0:0:
326,281,48751,1,0,0:0:0:0:
276,216,49051,2,0,P|248:184|244:136,1,83.9999960517883
324,144,49651,6,0,P|364:88|364:32,2,125.999994077682,2|0|0,0:0|0:0|0:0,0:0:0:0:
184,144,51451,6,0,P|124:92|40:108,1,167.999992103577,2|0,0:0|0:0,0:0:0:0:
24,184,52351,5,0,3:0:0:0:
104,196,52651,2,0,L|88:280,1,83.9999960517883,0|0,3:0|3:0,0:0:0:0:
144,340,53251,2,0,L|228:340,1,83.9999960517883,0|0,3:0|3:0,0:0:0:0:
284,280,53851,2,0,L|268:197,1,83.9999960517883,0|0,1:0|1:0,0:0:0:0:
224,128,54451,6,0,B|140:128|140:128|108:100,2,125.999994077682
308,128,55651,2,0,L|308:76,2,41.9999980258942,8|0|0,0:0|0:0|0:0,0:0:0:0:
308,168,56101,2,0,B|332:200|332:200|424:200,1,125.999994077682,8|8,0:0|0:0,0:0:0:0:
512,156,56851,6,0,P|524:100|512:48,1,111.999990463257,4|8,0:0|0:0,0:0:0:0:
412,12,57451,2,0,L|276:12,1,111.999990463257,8|0,0:0|0:0,0:0:0:0:
248,12,57901,2,0,P|236:65|196:104,1,111.999990463257,8|0,0:0|0:0,0:0:0:0:
144,104,58351,2,0,P|104:142|91:196,1,111.999990463257,8|0,0:0|0:0,0:0:0:0:
72,244,58801,2,0,L|156:320,1,111.999990463257,8|8,0:0|0:0,0:0:0:0:
312,320,59551,6,0,L|312:256,1,55.9999952316285,0|8,0:0|0:0,0:0:0:0:
312,212,59851,2,0,P|350:171|404:159,1,111.999990463257,8|0,0:0|0:0,0:0:0:0:
456,168,60301,2,0,P|497:206|509:260,1,111.999990463257,8|0,0:0|0:0,0:0:0:0:
492,308,60751,2,0,L|396:364,1,111.999990463257,0|8,0:0|0:0,0:0:0:0:
344,364,61201,2,0,P|290:351|252:310,1,111.999990463257,8|8,0:0|0:0,0:0:0:0:
252,148,61951,6,0,L|320:148,2,55.9999952316285,8|0|0,0:0|0:0|0:0,0:0:0:0:
148,148,62551,2,0,L|120:196,1,55.9999952316285,8|0,0:0|0:0,0:0:0:0:
172,288,63001,2,0,L|228:288,1,55.9999952316285,0|8,0:0|0:0,0:0:0:0:
280,196,63451,2,0,L|252:148,1,55.9999952316285,8|8,0:0|0:0,0:0:0:0:
304,56,63901,6,0,L|360:56,1,55.9999952316285,0|12,0:0|0:0,0:0:0:0:
444,196,64501,1,8,0:0:0:0:
360,328,64951,1,12,0:0:0:0:
204,328,65401,1,0,0:3:0:0:
120,196,65851,2,0,L|120:84,1,111.999990463257,12|0,0:0|0:0,0:0:0:0:
216,40,66451,6,0,L|216:96,2,55.9999952316285
312,84,67051,2,0,P|320:188|236:264,1,223.999980926514,0|8,0:0|0:0,0:0:0:0:
99,343,68101,2,0,P|76:266|119:196,1,167.999985694885
216,232,68851,6,0,P|296:212|352:148,2,167.999985694885,8|0|0,0:0|0:0|0:0,0:0:0:0:
132,164,70051,2,0,P|107:231|202:334,1,223.999980926514,8|0,0:0|0:0,0:0:0:0:
336,180,71251,6,0,P|400:120|504:180,1,223.999980926514
504,284,72151,1,0,0:0:0:0:
424,348,72451,2,0,B|312:348|312:348|280:300,1,167.999985694885,8|0,0:0|0:0,0:0:0:0:
256,148,73351,1,0,0:0:0:0:
348,96,73651,6,0,B|368:180|320:224|320:224|344:252,2,167.999985694885,8|0|0,0:0|0:0|0:0,0:0:0:0:
256,48,74851,2,0,L|144:72,1,111.999990463257,8|2,0:0|2:0,0:0:0:0:
40,60,75451,5,0,2:0:0:0:
60,164,75751,1,0,2:0:0:0:
16,272,76051,6,0,P|64:288|144:288,1,111.999990463257,4|8,0:0|0:0,0:0:0:0:
208,356,76651,2,0,L|252:252,1,111.999990463257,0|8,0:0|0:0,0:0:0:0:
288,156,77251,2,0,L|408:156,1,111.999990463257,0|8,0:0|0:0,0:0:0:0:
452,156,77701,2,0,P|496:224|468:300,1,167.999985694885,0|8,0:0|0:0,0:0:0:0:
376,356,78451,6,0,B|264:356|264:356,1,111.999990463257,0|8,0:0|0:0,0:0:0:0:
212,352,78901,2,0,P|168:284|196:208,1,167.999985694885,0|8,0:0|0:0,0:0:0:0:
272,136,79651,2,0,L|384:136,1,111.999990463257,0|8,0:0|0:0,0:0:0:0:
488,140,80251,2,0,P|475:193|434:231,1,111.999990463257,0|8,0:0|0:0,0:0:0:0:
328,228,80851,6,0,P|287:190|272:136,1,111.999990463257,4|8,0:0|0:0,0:0:0:0:
208,44,81451,1,8,0:0:0:0:
148,136,81751,1,8,0:0:0:0:
88,44,82051,6,0,P|47:81|32:134,1,111.999990463257,0|8,0:0|0:0,0:0:0:0:
88,228,82651,1,8,0:0:0:0:
148,136,82951,1,8,0:0:0:0:
208,228,83251,6,0,B|200:264|208:296|208:296|220:340|272:368|272:368|324:340|336:296|336:296|344:264|336:228,1,335.999971389771,4|8,0:0|0:0,0:0:0:0:
272,140,84451,6,0,P|304:40|480:100,1,335.999971389771,0|8,0:0|0:0,0:0:0:0:
432,168,85651,6,0,P|412:236|476:304,1,167.999992103577,2|0,0:0|0:0,0:0:0:0:
496,224,86551,2,0,L|320:272,1,167.999992103577,2|0,0:0|0:0,0:0:0:0:
256,288,87451,2,0,L|241:370,2,83.9999960517883,2|0|0,0:0|0:0|0:0,0:0:0:0:
272,208,88351,2,0,P|220:144|140:140,1,167.999992103577,2|0,0:0|0:0,0:0:0:0:
76,188,89251,6,0,L|8:136,2,83.9999960517883,2|0|0,0:0|0:0|0:0,0:0:0:0:
140,244,90151,2,0,L|140:328,2,83.9999960517883,2|0|0,0:0|0:0|0:0,0:0:0:0:
204,188,91051,6,0,P|242:147|296:132,1,111.999990463257,4|8,0:0|0:0,0:0:0:0:
368,208,91651,2,0,L|368:284,2,55.9999952316285,0|0|8,0:0|0:0|0:0,0:0:0:0:
440,136,92251,2,0,B|492:68|492:68|440:4,2,167.999985694885,4|0|8,0:0|0:0|0:0,0:0:0:0:
368,208,93451,2,0,P|272:160|172:208,1,223.999980926514,4|8,0:0|0:0,0:0:0:0:
112,124,94351,6,0,L|72:64,2,55.9999952316285,8|8|4,0:0|0:0|0:0,0:0:0:0:
96,288,95101,1,8,0:0:0:0:
240,220,95551,1,8,0:0:0:0:
300,312,95851,6,0,L|356:292,1,55.9999952316285,8|8,0:0|0:0,0:0:0:0:
384,336,96151,2,0,L|440:316,1,55.9999952316285,8|8,0:0|0:0,0:0:0:0:
500,180,96751,6,0,L|447:198,1,55.9999952316285,8|8,0:0|0:0,0:0:0:0:
416,156,97051,2,0,L|363:174,1,55.9999952316285,8|8,0:0|0:0,0:0:0:0:
196,324,98251,6,0,P|142:309|105:268,1,111.999990463257,4|8,0:0|0:0,0:0:0:0:
104,164,98851,2,0,P|141:122|194:108,1,111.999990463257,0|8,0:0|0:0,0:0:0:0:
256,192,99451,2,0,P|270:245|311:282,1,111.999990463257,0|8,0:0|0:0,0:0:0:0:
416,284,100051,2,0,L|440:224,1,55.9999952316285,0|8,0:0|0:0,0:0:0:0:
476,136,100501,6,0,P|412:64|332:64,1,167.999985694885,0|8,0:0|0:0,0:0:0:0:
256,116,101251,2,0,P|241:169|200:206,1,111.999990463257,0|8,0:0|0:0,0:0:0:0:
96,212,101851,2,0,L|68:156,2,55.9999952316285,0|0|8,0:0|0:0|0:0,0:0:0:0:
148,304,102451,2,0,P|200:316|256:304,1,111.999990463257,0|8,0:0|0:0,0:0:0:0:
296,208,103051,6,0,P|320:144|460:120,1,223.999980926514,4|0,0:0|0:0,0:0:0:0:
512,208,103951,1,8,0:0:0:0:
460,296,104251,2,0,B|424:340|424:340|352:340,1,111.999990463257,0|8,0:0|0:0,0:0:0:0:
268,340,104851,2,0,P|226:303|211:249,1,111.999990463257,0|8,0:0|0:0,0:0:0:0:
248,156,105451,6,0,P|208:56|104:52,1,223.999980926514,4|0,0:0|0:0,0:0:0:0:
44,140,106351,1,8,0:0:0:0:
84,236,106651,2,0,L|196:236,1,111.999990463257,8|0,0:0|0:0,0:0:0:0:
248,236,107101,2,0,P|248:304|268:344,2,111.999990463257,8|0|0,0:0|0:0|0:0,0:0:0:0:
268,188,107851,6,0,P|368:164|392:56,1,223.999980926514,4|0,0:0|0:0,0:0:0:0:
308,0,108751,1,8,0:0:0:0:
256,88,109051,2,0,L|152:48,1,111.999990463257,0|8,0:0|0:0,0:0:0:0:
56,12,109651,1,0,0:0:0:0:
76,112,109951,1,8,0:0:0:0:
160,172,110251,6,0,B|120:240|120:240|32:272,2,167.999985694885,4|8|8,0:0|0:0|0:0,0:0:0:0:
196,72,111451,2,0,P|292:24|388:80,1,223.999980926514,2|0,0:0|0:0,0:0:0:0:
375,180,112351,1,8,0:0:0:0:
285,130,112651,6,4,P|231:307|417:269,2,447.999961853028,4|8|4,0:0|0:0|0:0,0:0:0:0:
106,24,115651,5,2,2:2:0:0:
101,233,116251,1,0,0:0:0:0:
244,88,116851,1,8,0:0:0:0:
244,88,117451,6,0,L|356:88,1,111.999990463257,4|8,0:0|0:0,0:0:0:0:
456,88,118051,2,0,P|498:125|513:179,1,111.999990463257,0|8,0:0|0:0,0:0:0:0:
456,260,118651,1,0,0:0:0:0:
400,176,118951,1,8,0:0:0:0:
348,260,119251,2,0,L|288:260,1,55.9999952316285,0|8,0:0|0:0,0:0:0:0:
248,168,119701,6,0,P|206:205|191:259,1,111.999990463257
192,308,120151,2,0,P|155:350|101:365,2,111.999990463257,8|0|8,0:0|0:0|0:0,0:0:0:0:
284,260,121051,2,0,L|352:260,2,55.9999952316285,0|0|8,0:0|0:0|0:0,0:0:0:0:
196,208,121651,2,0,P|168:156|168:104,1,111.999990463257,0|8,0:0|0:0,0:0:0:0:
240,28,122251,6,0,B|352:28|352:28|416:120,1,223.999980926514,4|0,0:0|0:0,0:0:0:0:
368,208,123151,1,8,0:0:0:0:
264,208,123451,2,0,P|279:154|321:118,1,111.999990463257,0|8,0:0|0:0,0:0:0:0:
420,120,124051,2,0,P|461:156|477:209,1,111.999990463257,0|8,0:0|0:0,0:0:0:0:
444,304,124651,6,0,B|368:340|368:340|292:304,2,167.999985694885,4|4|8,0:0|0:0|0:0,0:0:0:0:
504,220,125851,2,0,P|524:152|504:44,2,167.999985694885,4|4|8,0:0|0:0|0:0,0:0:0:0:
404,232,127051,6,0,B|360:164|360:164|300:220|228:180,1,223.999980926514,4|0,0:0|0:0,0:0:0:0:
284,92,127951,1,8,0:0:0:0:
180,92,128251,2,0,P|138:128|123:181,1,111.999990463257,0|8,0:0|0:0,0:0:0:0:
148,288,128851,2,0,B|188:324|188:324|246:324,1,111.999990463257,0|8,0:0|0:0,0:0:0:0:
300,324,129301,6,0,P|314:270|356:234,1,111.999990463257
408,232,129751,2,0,P|461:217|497:175,1,111.999990463257,8|0,0:0|0:0,0:0:0:0:
448,84,130351,1,8,0:0:0:0:
368,152,130651,2,0,B|316:124|311:62,1,111.999990463257,0|8,0:0|0:0,0:0:0:0:
276,24,131101,2,0,P|204:20|140:84,1,167.999985694885,0|8,0:0|0:0,0:0:0:0:
176,180,131851,6,0,P|168:276|116:316,2,167.999985694885,4|4|8,0:0|0:0|0:0,0:0:0:0:
84,220,133051,2,0,P|4:165|6:82,2,167.999985694885,4|4|8,0:0|0:0|0:0,0:0:0:0:
96,120,134251,2,0,P|183:78|243:103,2,167.999985694885,4|4|8,0:0|0:0|0:0,0:0:0:0:
84,220,135451,2,0,B|84:276|84:276|124:316,1,111.999990463257,0|8,0:0|0:0,0:0:0:0:
196,232,136051,1,8,0:0:0:0:
256,320,136351,1,8,0:0:0:0:
316,232,136651,6,0,P|340:168|376:144,1,111.999990463257,4|8,0:0|0:0,0:0:0:0:
424,236,137251,1,8,0:0:0:0:
364,320,137551,1,8,0:0:0:0:
255,319,137851,6,0,P|212:285|196:232,1,111.999990463257,4|8,0:0|0:0,0:0:0:0:
256,144,138451,1,8,0:0:0:0:
316,232,138751,1,8,0:0:0:0:
196,232,139051,6,0,L|144:208,1,55.9999952316285,8|8,0:0|0:0,0:0:0:0:
144,88,139501,2,0,L|194:111,1,55.9999952316285,8|8,0:0|0:0,0:0:0:0:
317,111,139951,2,0,L|368:88,1,55.9999952316285,8|8,0:0|0:0,0:0:0:0:
366,208,140401,2,0,L|316:232,1,55.9999952316285,8|8,0:0|0:0,0:0:0:0:
256,340,140851,6,0,L|256:284,1,55.9999952316285,2|2,2:2|2:0,0:0:0:0:
256,124,141451,1,4,0:0:0:0:
