osu file format v14

[General]
AudioFilename: towa yori towa ni.mp3
AudioLeadIn: 0
PreviewTime: 97351
Countdown: 0
SampleSet: Normal
StackLeniency: 0.7
Mode: 0
LetterboxInBreaks: 1
WidescreenStoryboard: 0

[Editor]
Bookmarks: 56101,86551,138151
DistanceSpacing: 0.5
BeatDivisor: 4
GridSize: 4
TimelineZoom: 2

[Metadata]
Title:Towa yori Towa ni
TitleUnicode:永久より永遠に
Artist:marina
ArtistUnicode:marina
Creator:terametis
Version:Insane
Source:少女神域∽少女天獄 -The Garden of Fifth Zoa-
Tags:NewRulerNA wring Lass shoujo shiniki tengoku
BeatmapID:571621
BeatmapSetID:143507

[Difficulty]
HPDrainRate:5
CircleSize:4
OverallDifficulty:7
ApproachRate:9
SliderMultiplier:1.49999990463257
SliderTickRate:2

[Events]
//Background and Video events
0,0,"BG1.jpg",0,0
//Break Periods
//Storyboard Layer 0 (Background)
//Storyboard Layer 1 (Fail)
//Storyboard Layer 2 (Pass)
//Storyboard Layer 3 (Foreground)
//Storyboard Sound Samples

[TimingPoints]
13651,300,4,1,1,60,1,0
37651,-133.333333333333,4,2,1,60,0,0
38026,-133.333333333333,4,2,1,5,0,0
38176,-133.333333333333,4,2,1,60,0,0
38776,-133.333333333333,4,2,1,5,0,0
38926,-133.333333333333,4,2,1,60,0,0
41851,-200,4,2,1,60,0,0
41926,-200,4,2,1,5,0,0
42076,-200,4,2,1,60,0,0
42226,-200,4,2,1,5,0,0
42451,-133.333333333333,4,2,1,60,0,0
42826,-133.333333333333,4,2,1,5,0,0
42976,-133.333333333333,4,2,1,60,0,0
43576,-133.333333333333,4,2,1,5,0,0
43726,-133.333333333333,4,2,1,60,0,0
44476,-133.333333333333,4,2,1,60,0,0
46201,-200,4,2,1,60,0,0
46426,-200,4,2,1,5,0,0
46576,-200,4,2,1,60,0,0
46726,-200,4,2,1,5,0,0
46876,-200,4,2,1,60,0,0
46951,-133.333333333333,4,2,1,60,0,0
47626,-133.333333333333,4,2,1,5,0,0
47776,-133.333333333333,4,2,1,60,0,0
48376,-133.333333333333,4,2,1,5,0,0
48526,-133.333333333333,4,2,1,60,0,0
51451,-200,4,2,1,60,0,0
51526,-200,4,2,1,5,0,0
51676,-200,4,2,1,60,0,0
51826,-200,4,2,1,5,0,0
51976,-200,4,2,1,60,0,0
52351,-133.333333333333,4,2,1,60,0,0
53851,-133.333333333333,4,2,1,35,0,0
54451,-133.333333333333,4,1,1,60,0,0
55651,-100,4,1,1,60,0,0
66451,-133.333333333333,4,1,1,60,0,0
76051,-83.3333333333333,4,1,1,70,0,1
85651,300,3,2,1,70,1,0
85651,-133.333333333333,3,2,1,70,0,0
91051,300,4,1,1,70,1,0
95851,-100,4,1,1,75,0,0
98251,-83.3333333333333,4,1,1,80,0,1
115351,-83.3333333333333,4,1,1,80,0,0
115501,-83.3333333333333,4,1,1,50,0,0
115651,-83.3333333333333,4,1,1,80,0,0
117451,-83.3333333333333,4,1,1,80,0,1
141451,-83.3333333333333,4,1,1,80,0,0

[Colours]
Combo1 : 128,0,255
Combo2 : 232,232,23
Combo3 : 0,255,255

[HitObjects]
156,156,13651,6,0,P|224:172|288:128,1,149.999990463257,0|2,0:0|0:0,0:0:0:0:
96,108,14101,1,0,2:0:0:0:
96,108,14251,2,0,P|80:179|132:232,1,149.999990463257,2|0,0:0|0:0,0:0:0:0:
288,308,14701,6,0,B|408:296|408:296|424:272,1,149.999990463257,0|0,0:0|0:0,0:0:0:0:
420,88,15151,2,0,B|300:100|300:100|284:124,1,149.999990463257,2|2,0:0|0:0,0:0:0:0:
236,252,15601,2,0,L|213:180,1,74.9999952316285,0|0,2:0|0:0,0:0:0:0:
28,96,15901,6,0,P|76:176|144:156,1,149.999990463257,0|0,0:0|0:0,0:0:0:0:
216,80,16351,2,0,B|264:56|264:56|316:76|332:120,1,149.999990463257,2|2,0:0|0:0,0:0:0:0:
236,252,16801,1,0,2:0:0:0:
376,200,16951,1,0,0:0:0:0:
180,200,17101,6,0,P|160:264|208:324,1,149.999990463257,0|0,0:0|0:0,0:0:0:0:
352,320,17551,2,0,L|366:246,1,74.9999952316285,2|0,0:0|2:0,0:0:0:0:
376,88,17851,2,0,L|336:108,3,37.4999976158143,0|0|0|0,0:0|2:0|2:0|2:0,0:0:0:0:
284,192,18151,2,0,L|286:147,3,37.4999976158143,0|0|0|0,0:0|2:0|2:0|2:0,0:0:0:0:
272,80,18451,6,0,P|205:47|135:67,1,149.999990463257,0|2,0:0|0:0,0:0:0:0:
72,176,18901,1,0,2:0:0:0:
164,260,19051,2,0,P|204:192|196:124,1,149.999990463257,2|0,0:0|0:0,0:0:0:0:
36,296,19501,6,0,L|184:340,1,149.999990463257
272,264,19951,2,0,P|312:192|380:172,1,149.999990463257,2|2,0:0|0:0,0:0:0:0:
488,252,20401,1,0,2:0:0:0:
368,324,20551,1,0,0:0:0:0:
280,188,20701,6,0,L|312:28,1,149.999990463257,0|0,0:0|0:0,0:0:0:0:
108,24,21151,2,0,L|124:97,1,74.9999952316285,2|0,0:0|2:0,0:0:0:0:
64,188,21451,2,0,P|140:192|212:236,1,149.999990463257,2|0,0:0|0:0,0:0:0:0:
376,244,21901,2,0,P|288:260|240:304,1,149.999990463257,4|0,0:0|0:0,0:0:0:0:
396,152,22351,1,2,0:0:0:0:
216,56,22651,6,0,L|232:100,5,37.4999976158143,0|0|0|0|0|0,0:0|2:0|2:0|2:0|2:0|2:0,0:0:0:0:
216,56,23101,2,0,P|180:120|112:148,1,149.999990463257,4|0,0:0|0:0,0:0:0:0:
0,52,23551,2,0,L|20:124,1,74.9999952316285,8|0,0:0|2:0,0:0:0:0:
140,296,23851,2,0,L|120:224,1,74.9999952316285,0|0,0:0|0:0,0:0:0:0:
112,40,24151,1,8,0:0:0:0:
184,172,24301,6,0,P|116:208|40:208,1,149.999990463257
216,248,24751,2,0,L|292:264,1,74.9999952316285,8|0,0:0|2:0,0:0:0:0:
416,352,25051,2,0,L|432:276,1,74.9999952316285,0|0,0:0|0:0,0:0:0:0:
380,76,25351,1,8,0:0:0:0:
343,191,25501,6,0,P|417:192|476:148,1,149.999990463257
272,32,25951,2,0,L|260:106,1,74.9999952316285,8|0,0:0|2:0,0:0:0:0:
151,245,26251,2,0,L|136:172,1,74.9999952316285
308,284,26551,1,8,0:0:0:0:
196,360,26701,6,0,P|128:372|40:340,1,149.999990463257,2|0,0:0|0:0,0:0:0:0:
32,304,27076,2,0,L|36:260,1,37.4999976158143,0|8,0:0|0:0,0:0:0:0:
136,172,27301,1,0,0:0:0:0:
136,172,27376,1,0,0:0:0:0:
136,172,27451,1,8,0:0:0:0:
56,48,27601,1,0,0:0:0:0:
56,48,27676,1,0,0:0:0:0:
56,48,27751,2,0,L|136:28,1,74.9999952316285,8|0,0:0|2:0,0:0:0:0:
240,164,28051,6,0,P|220:236|160:276,1,149.999990463257,0|8,0:0|0:0,2:0:0:0:
44,164,28501,1,0,0:0:0:0:
168,32,28651,2,0,L|180:108,1,74.9999952316285,8|0,0:0|0:0,0:0:0:0:
72,236,28951,1,0,0:0:0:0:
192,352,29101,6,0,L|340:324,1,149.999990463257,8|0,0:0|0:0,0:0:0:0:
452,204,29551,2,0,L|378:218,1,74.9999952316285,8|0,0:0|0:0,0:0:0:0:
240,164,29851,2,0,L|252:208,4,37.4999976158143,8|0|0|0|8,0:0|0:0|0:0|0:0|0:0,0:0:0:0:
88,91,30301,6,0,P|63:162|72:236,1,149.999990463257,0|0,0:0|0:0,0:0:0:0:
24,328,30751,2,0,L|104:344,1,74.9999952316285,8|0,0:0|0:0,0:0:0:0:
252,232,31051,2,0,L|178:217,1,74.9999952316285,8|0,0:0|0:0,0:0:0:0:
192,352,31351,1,8,0:0:0:0:
320,300,31501,6,0,P|344:216|304:148,1,149.999990463257,0|0,0:0|0:0,0:0:0:0:
100,137,31951,1,8,0:0:0:0:
105,307,32101,1,0,0:0:0:0:
105,307,32176,1,0,0:0:0:0:
105,307,32251,1,8,0:0:0:0:
252,232,32401,1,0,0:0:0:0:
252,232,32476,1,0,0:0:0:0:
252,232,32551,1,8,0:0:0:0:
145,25,32851,5,4,0:0:0:0:
256,192,32926,12,2,37651,0:0:0:0:
64,132,37951,6,0,P|118:143|175:123,1,112.499997138977
244,56,38551,1,0,0:0:0:0:
244,56,38701,2,0,P|272:136|232:212,1,168.749995708466
72,328,39451,1,0,0:0:0:0:
152,196,39751,1,0,0:0:0:0:
244,356,40051,5,2,0:0:0:0:
96,256,40501,1,0,0:0:0:0:
256,172,40951,1,0,0:0:0:0:
433,218,41851,6,0,P|444:290|404:352,1,149.999990463257,2|0,0:0|0:0,0:0:0:0:
340,160,42751,2,0,L|452:140,1,112.499997138977
280,76,43351,1,0,0:0:0:0:
280,76,43501,2,0,L|240:240,1,168.749995708466,0|0,0:0|0:0,0:0:0:0:
136,184,44251,1,0,0:0:0:0:
208,352,44551,1,0,0:0:0:0:
312,180,44851,5,2,0:0:0:0:
168,268,45301,1,0,0:0:0:0:
156,100,45751,1,2,0:0:0:0:
424,276,46351,2,0,P|356:304|284:272,1,149.999990463257
140,152,47251,5,2,0:0:0:0:
76,204,47551,2,0,P|124:236|196:212,1,112.499997138977
292,144,48151,1,0,0:0:0:0:
292,144,48301,2,0,P|292:224|244:296,1,168.749995708466
112,308,49051,1,2,0:0:0:0:
220,160,49351,1,0,0:0:0:0:
356,280,49651,5,2,0:0:0:0:
172,264,50101,1,0,0:0:0:0:
272,108,50551,1,2,0:0:0:0:
428,292,51451,2,0,P|384:344|304:328,1,149.999990463257
240,256,52351,6,0,L|228:311,1,56.2499985694885,0|0,3:0|0:0,0:0:0:0:
352,276,52651,2,0,L|340:220,1,56.2499985694885,0|0,3:0|0:0,0:0:0:0:
232,144,52951,2,0,L|176:144,1,56.2499985694885,0|0,3:0|0:0,0:0:0:0:
344,100,53251,6,0,L|384:48,1,56.2499985694885,0|0,3:0|3:0,0:0:0:0:
288,228,53551,2,0,L|253:272,1,56.2499985694885,0|0,3:0|3:0,0:0:0:0:
392,164,53851,6,0,L|448:156,1,56.2499985694885,0|0,1:0|1:0,0:0:0:0:
248,212,54151,2,0,L|192:220,1,56.2499985694885,0|0,1:0|1:0,0:0:0:0:
16,44,54451,6,0,L|24:104,1,56.2499985694885
80,272,54751,2,0,L|88:332,1,56.2499985694885,0|0,0:0|0:0,0:0:0:0:
192,96,55051,2,0,L|199:40,1,56.2499985694885,0|0,0:0|0:0,0:0:0:0:
72,156,55351,1,0,0:0:0:0:
176,232,55501,1,0,0:0:0:0:
284,144,55651,6,0,L|292:60,1,74.9999952316285,8|0,0:0|0:0,0:0:0:0:
176,232,55951,1,0,0:0:0:0:
264,364,56101,2,0,L|272:280,1,74.9999952316285,8|0,0:0|0:0,0:0:0:0:
352,64,56401,1,0,0:0:0:0:
176,232,56551,2,0,L|248:213,1,74.9999952316285,8|0,0:0|0:0,0:0:0:0:
440,332,56851,6,0,L|292:360,1,149.999990463257,0|8,0:0|0:0,0:0:0:0:
80,280,57301,1,0,0:0:0:0:
176,232,57451,2,0,P|192:284|144:368,1,149.999990463257,0|8,0:0|0:0,0:0:0:0:
40,180,57901,2,0,P|88:196|188:180,1,149.999990463257
204,32,58351,2,0,L|220:108,1,74.9999952316285,8|0,0:0|0:0,0:0:0:0:
108,64,58651,6,0,L|28:48,1,74.9999952316285
284,44,58951,2,0,L|364:60,1,74.9999952316285,8|0,0:0|0:0,0:0:0:0:
492,168,59251,6,0,L|418:182,1,74.9999952316285,0|0,0:0|0:0,0:0:0:0:
304,344,59551,2,0,L|336:196,1,149.999990463257,8|0,0:0|0:0,0:0:0:0:
472,316,60001,2,0,L|398:330,1,74.9999952316285,0|8,0:0|0:0,0:0:0:0:
256,188,60301,2,0,P|296:128|368:124,1,149.999990463257,0|0,0:0|0:0,0:0:0:0:
464,240,60751,2,0,L|472:316,1,74.9999952316285,8|0,0:0|0:0,0:0:0:0:
304,344,61051,6,0,L|297:270,1,74.9999952316285,0|0,0:0|0:0,0:0:0:0:
368,192,61351,1,8,0:0:0:0:
460,256,61501,1,0,0:0:0:0:
384,340,61651,6,0,P|312:360|240:344,1,149.999990463257,0|8,0:0|0:0,0:0:0:0:
120,212,62101,1,0,0:0:0:0:
60,292,62251,2,0,P|132:312|196:276,1,149.999990463257,0|8,0:0|0:0,0:0:0:0:
232,168,62701,2,0,P|209:98|241:32,1,149.999990463257,0|0,0:0|0:0,0:0:0:0:
432,56,63151,2,0,L|360:80,1,74.9999952316285,8|0,0:0|0:0,0:0:0:0:
304,256,63451,2,0,L|376:232,1,74.9999952316285,0|0,0:0|0:0,0:0:0:0:
452,164,63751,1,8,0:0:0:0:
384,340,63901,1,0,0:0:0:0:
216,296,64051,6,0,P|216:224|272:172,1,149.999990463257,8|0,0:0|0:0,0:0:0:0:
432,56,64501,2,0,L|276:16,1,149.999990463257,8|0,0:0|0:0,0:0:0:0:
76,128,64951,2,0,L|232:88,1,149.999990463257,8|0,0:0|0:0,0:0:0:0:
344,204,65401,2,0,L|324:131,1,74.9999952316285,8|0,0:0|0:0,0:0:0:0:
216,296,65701,1,0,0:0:0:0:
76,128,65851,1,8,0:0:0:0:
436,36,66151,6,0,L|444:92,3,37.4999976158143,0|0|0|0,0:0|0:0|0:0|0:0,0:0:0:0:
444,92,66451,2,0,L|376:116,1,56.2499985694885
288,48,66751,2,0,L|341:29,1,56.2499985694885,8|0,0:0|0:0,0:0:0:0:
308,136,67051,2,0,L|289:189,1,56.2499985694885,0|0,0:0|0:0,0:0:0:0:
228,112,67351,2,0,L|191:69,1,56.2499985694885,8|0,0:0|0:0,0:0:0:0:
113,49,67651,2,0,L|60:68,1,56.2499985694885
24,184,67951,2,0,L|77:166,1,56.2499985694885,8|0,0:0|0:0,0:0:0:0:
160,204,68251,2,0,L|176:258,1,56.2499985694885,0|0,0:0|0:0,0:0:0:0:
64,320,68551,2,0,L|48:266,1,56.2499985694885,8|0,0:0|0:0,0:0:0:0:
220,328,68851,6,0,L|273:346,1,56.2499985694885
296,200,69151,2,0,L|243:182,1,56.2499985694885,8|0,0:0|0:0,0:0:0:0:
352,300,69451,2,0,L|370:246,1,56.2499985694885
512,232,69751,2,0,L|494:286,1,56.2499985694885,8|0,0:0|0:0,0:0:0:0:
376,160,70051,2,0,L|429:142,1,56.2499985694885
360,44,70351,2,0,L|308:64,1,56.2499985694885,8|0,0:0|0:0,0:0:0:0:
232,208,70651,5,8,0:0:0:0:
200,64,70801,1,8,0:0:0:0:
100,168,70951,2,0,L|153:150,1,56.2499985694885,8|8,0:0|0:0,0:0:0:0:
336,116,71251,6,0,L|318:169,1,56.2499985694885,0|0,0:0|0:0,0:0:0:0:
200,64,71551,2,0,L|218:11,1,56.2499985694885,8|0,0:0|0:0,0:0:0:0:
232,208,71851,2,0,L|176:208,1,56.2499985694885
72,64,72151,2,0,L|136:64,1,56.2499985694885,8|0,0:0|0:0,0:0:0:0:
232,208,72451,2,0,L|214:261,1,56.2499985694885,0|0,0:0|0:0,0:0:0:0:
60,292,72751,2,0,L|78:239,1,56.2499985694885,8|0,0:0|0:0,0:0:0:0:
168,344,73051,2,0,L|115:362,1,56.2499985694885,0|0,0:0|0:0,0:0:0:0:
128,168,73351,2,0,L|181:150,1,56.2499985694885,8|0,0:0|0:0,0:0:0:0:
40,208,73651,5,8,0:0:0:0:
136,288,73801,1,0,0:0:0:0:
232,208,73951,1,0,0:0:0:0:
128,88,74101,6,0,L|68:64,1,56.2499985694885,8|0,0:0|0:0,0:0:0:0:
136,208,74401,1,0,0:0:0:0:
232,136,74551,1,8,0:0:0:0:
40,208,74701,1,0,0:0:0:0:
40,208,74776,1,0,0:0:0:0:
40,208,74851,1,8,0:0:0:0:
128,88,75151,5,0,2:0:0:0:
231,228,75451,2,0,P|264:182|271:127,1,112.499997138977,2|0,2:0|0:0,0:0:0:0:
71,80,76051,6,0,P|69:124|86:165,1,89.9999915313724
207,294,76351,2,0,P|137:242|56:271,1,179.999983062745,8|0,0:0|0:0,0:0:0:0:
256,204,76801,1,0,0:0:0:0:
120,336,76951,1,8,0:0:0:0:
88,164,77101,1,0,0:0:0:0:
288,244,77251,6,0,L|272:336,1,89.9999915313724
184,140,77551,2,0,P|244:112|340:160,1,179.999983062745,8|0,0:0|0:0,0:0:0:0:
360,304,78001,1,0,0:0:0:0:
480,180,78151,2,0,L|468:84,1,89.9999915313724,8|0,0:0|0:0,0:0:0:0:
336,64,78451,6,0,P|256:104|172:80,1,179.999983062745,8|0,0:0|0:0,0:0:0:0:
20,204,78901,2,0,P|100:164|184:188,1,179.999983062745,8|0,0:0|0:0,0:0:0:0:
248,352,79351,1,8,0:0:0:0:
244,176,79501,1,0,0:0:0:0:
96,272,79651,6,0,L|112:368,1,89.9999915313724,8|0,0:0|0:0,0:0:0:0:
244,176,79951,2,0,L|229:87,1,89.9999915313724,8|0,0:0|0:0,0:0:0:0:
40,64,80251,1,8,0:0:0:0:
12,236,80401,1,0,0:0:0:0:
188,240,80551,2,0,P|244:176|212:96,1,179.999983062745,8|0,0:0|0:0,0:0:0:0:
40,64,81001,5,0,0:0:0:0:
12,236,81151,2,0,L|96:272,1,89.9999915313724,8|0,0:0|0:0,0:0:0:0:
328,104,81451,2,0,L|296:12,1,89.9999915313724,0|0,0:0|0:0,0:0:0:0:
160,156,81751,2,0,L|189:241,1,89.9999915313724,8|0,0:0|0:0,0:0:0:0:
356,336,82051,6,0,L|444:308,1,89.9999915313724,8|0,0:0|0:0,0:0:0:0:
264,168,82351,1,8,0:0:0:0:
280,304,82501,1,0,0:0:0:0:
424,192,82651,2,0,L|396:104,1,89.9999915313724,8|0,0:0|0:0,0:0:0:0:
236,40,82951,1,8,0:1:0:0:
228,60,83026,1,0,0:0:0:0:
220,80,83101,1,0,0:0:0:0:
212,100,83176,1,0,0:0:0:0:
204,120,83251,6,0,L|156:32,1,89.9999915313724,8|0,0:0|0:0,0:0:0:0:
0,152,83551,2,0,P|36:180|80:184,1,89.9999915313724,8|0,0:0|0:0,0:0:0:0:
120,336,83851,2,0,P|148:300|160:256,1,89.9999915313724,8|0,0:0|0:0,0:0:0:0:
112,116,84151,1,8,0:0:0:0:
24,284,84301,1,0,0:0:0:0:
220,212,84451,5,8,0:0:0:0:
220,212,84526,1,0,0:0:0:0:
220,212,84601,2,0,L|192:120,1,89.9999915313724
120,336,84901,2,0,P|164:312|204:304,1,89.9999915313724,8|0,0:0|0:0,0:0:0:0:
80,184,85201,1,0,0:0:0:0:
272,352,85351,2,0,L|304:268,1,89.9999915313724,8|0,0:0|0:0,0:0:0:0:
284,152,85651,5,2,0:0:0:0:
204,304,85951,1,0,0:0:0:0:
376,288,86251,1,0,0:0:0:0:
176,164,86551,5,2,0:0:0:0:
292,296,86851,1,0,0:0:0:0:
384,140,87151,1,0,0:0:0:0:
200,92,87451,6,0,P|144:80|72:60,1,112.499997138977,2|0,0:0|0:0,0:0:0:0:
256,192,88051,1,0,0:0:0:0:
116,216,88351,2,0,P|60:224|0:228,1,112.499997138977,2|0,0:0|0:0,0:0:0:0:
256,280,88951,1,0,0:0:0:0:
132,352,89251,5,2,0:0:0:0:
196,280,89551,1,0,0:0:0:0:
284,244,89851,1,0,0:0:0:0:
260,364,90151,5,2,0:0:0:0:
176,212,90451,1,0,0:0:0:0:
272,56,90751,1,2,0:0:0:0:
308,260,91051,6,0,P|264:324|196:360,1,149.999990463257,4|8,0:0|0:0,0:0:0:0:
320,64,91651,2,0,L|396:80,1,74.9999952316285,0|0,0:0|0:0,0:0:0:0:
140,124,91951,2,0,L|64:108,1,74.9999952316285,8|0,0:0|0:0,0:0:0:0:
256,264,92251,6,0,L|424:224,1,149.999990463257,4|8,0:0|0:0,0:0:0:0:
176,212,92701,2,0,P|161:284|204:348,1,149.999990463257,0|0,0:0|0:0,0:0:0:0:
292,128,93151,1,8,0:0:0:0:
144,36,93301,1,0,0:0:0:0:
64,228,93451,6,0,L|52:332,1,74.9999952316285,8|0,0:0|0:0,0:0:0:0:
224,156,93751,2,0,L|232:81,1,74.9999952316285,8|0,0:0|0:0,0:0:0:0:
80,76,94051,2,0,L|5:67,1,74.9999952316285,8|0,0:0|0:0,0:0:0:0:
176,212,94351,1,8,0:0:0:0:
328,64,94501,1,0,0:0:0:0:
328,64,94576,1,0,0:0:0:0:
328,64,94651,6,0,P|364:112|328:192,1,149.999990463257,4|0,0:0|0:0,0:0:0:0:
188,292,95101,2,0,P|260:272|336:292,1,149.999990463257,4|0,0:0|0:0,0:0:0:0:
424,228,95551,1,8,0:0:0:0:
288,352,95701,1,0,0:0:0:0:
176,212,95851,6,0,L|184:132,1,74.9999952316285
328,64,96151,1,0,0:0:0:0:
424,228,96301,2,0,P|408:284|320:316,1,149.999990463257
176,212,96751,5,0,0:0:0:0:
164,352,96901,1,0,0:0:0:0:
300,248,97051,2,0,L|280:168,1,74.9999952316285,0|0,0:0|2:0,0:0:0:0:
188,96,97351,5,2,2:0:0:0:
172,144,97651,1,2,2:0:0:0:
160,188,97951,1,2,2:0:0:0:
120,280,98251,6,0,P|160:296|208:292,1,89.9999915313724
256,176,98551,2,0,L|276:80,1,89.9999915313724,8|0,0:0|0:0,0:0:0:0:
88,16,98851,2,0,L|99:105,1,89.9999915313724,0|0,0:0|0:0,0:0:0:0:
280,256,99151,2,0,L|300:160,1,89.9999915313724,8|0,0:0|0:0,0:0:0:0:
256,40,99451,6,0,L|160:28,1,89.9999915313724
48,192,99751,2,0,L|144:180,1,89.9999915313724,8|0,0:0|0:0,0:0:0:0:
256,40,100051,1,0,0:0:0:0:
300,268,100201,2,8,P|236:324|152:300,1,179.999983062745,8|0,0:0|0:0,0:0:0:0:
48,192,100651,6,0,L|72:106,1,89.9999915313724,4|0,0:0|0:0,0:0:0:0:
176,132,100951,1,8,0:0:0:0:
192,276,101101,1,0,0:0:0:0:
280,128,101251,2,0,L|256:41,1,89.9999915313724,0|0,0:0|0:0,0:0:0:0:
392,152,101551,1,8,0:0:0:0:
280,256,101701,1,0,0:0:0:0:
176,132,101851,6,0,P|172:92|192:44,1,89.9999915313724
120,280,102151,2,0,P|87:303|35:310,1,89.9999915313724,8|0,0:0|0:0,0:0:0:0:
216,236,102451,1,0,0:0:0:0:
230,262,102526,1,0,0:0:0:0:
252,281,102601,1,0,0:0:0:0:
280,291,102676,1,0,0:0:0:0:
309,289,102751,2,0,P|382:233|373:149,1,179.999983062745,8|0,0:0|0:3,0:3:0:0:
260,56,103201,5,0,0:0:0:0:
296,208,103351,2,0,L|396:192,1,89.9999915313724,8|0,0:0|0:0,0:0:0:0:
452,24,103651,2,0,L|363:38,1,89.9999915313724,0|0,0:0|0:0,0:0:0:0:
156,44,103951,2,0,L|176:132,1,89.9999915313724,8|0,0:0|0:0,0:0:0:0:
36,276,104251,6,0,L|16:188,1,89.9999915313724,8|0,0:0|0:0,0:0:0:0:
156,44,104551,1,8,0:0:0:0:
108,192,104701,1,0,0:0:0:0:
228,332,104851,2,0,L|208:244,1,89.9999915313724,8|0,0:0|0:0,0:0:0:0:
100,116,105151,1,8,0:0:0:0:
232,192,105301,1,0,0:0:0:0:
100,268,105451,6,0,P|32:192|92:120,1,179.999983062745,4|8,0:0|0:0,0:0:0:0:
276,168,105901,2,0,B|296:208|296:208|364:240|420:184,1,179.999983062745,0|8,0:0|0:0,0:0:0:0:
256,32,106351,1,0,0:0:0:0:
244,56,106426,1,0,1:0:0:0:
232,80,106501,1,0,1:0:0:0:
220,104,106576,1,0,1:0:0:0:
176,132,106651,5,8,0:0:0:0:
184,156,106726,1,0,0:0:0:0:
192,180,106801,1,0,0:0:0:0:
200,204,106876,1,0,0:0:0:0:
208,228,106951,1,0,0:0:0:0:
368,316,107101,5,8,0:0:0:0:
360,292,107176,1,0,0:0:0:0:
352,268,107251,1,0,0:0:0:0:
344,244,107326,1,0,0:0:0:0:
336,220,107401,1,0,0:0:0:0:
60,132,107551,2,0,P|36:216|104:268,1,179.999983062745,8|4,0:0|0:0,0:0:0:0:
276,168,108001,5,0,0:0:0:0:
256,352,108151,2,0,L|164:344,1,89.9999915313724,8|0,0:0|0:0,0:0:0:0:
108,192,108451,2,0,L|197:199,1,89.9999915313724,0|0,0:0|0:0,0:0:0:0:
340,96,108751,2,0,L|348:4,1,89.9999915313724,8|0,0:0|0:0,0:0:0:0:
224,56,109051,5,0,0:0:0:0:
276,168,109201,1,0,0:0:0:0:
412,156,109351,2,0,L|420:64,1,89.9999915313724,8|0,0:0|0:0,0:0:0:0:
216,140,109651,2,0,L|208:229,1,89.9999915313724,0|0,0:0|0:0,0:0:0:0:
392,340,109951,2,0,L|399:250,1,89.9999915313724,8|0,0:0|0:0,0:0:0:0:
132,248,110251,6,0,P|167:298|273:278,1,179.999983062745,4|8,0:0|0:0,0:0:0:0:
224,56,110701,2,0,B|112:32|112:32|48:68,1,179.999983062745,0|0,0:0|0:0,0:0:0:0:
28,204,111151,2,0,L|112:156,1,89.9999915313724,8|0,0:0|0:0,0:0:0:0:
224,56,111451,1,8,0:0:0:0:
272,280,111601,1,0,0:0:0:0:
132,248,111751,6,0,L|170:224,3,44.9999957656862,8|0|0|0,0:0|0:0|0:0|0:0,0:0:0:0:
214,124,112051,2,0,L|176:148,3,44.9999957656862,8|0|0|0,0:0|0:0|0:0|0:0,0:0:0:0:
248,248,112351,2,0,L|286:224,3,44.9999957656862,8|0|0|0,0:0|0:0|0:0|0:0,0:0:0:0:
304,140,112651,6,0,L|320:52,1,89.9999915313724
448,136,112951,2,0,L|432:224,1,89.9999915313724,8|0,0:0|0:0,0:0:0:0:
224,328,113251,2,0,P|248:244|336:232,1,179.999983062745,8|0,0:0|0:0,0:0:0:0:
464,324,113701,6,0,P|384:356|300:304,1,179.999983062745,8|0,0:0|0:0,0:0:0:0:
304,140,114151,2,0,L|320:52,1,89.9999915313724,8|0,0:0|0:0,0:0:0:0:
208,240,114451,2,0,L|224:328,1,89.9999915313724,8|0,0:0|0:0,0:0:0:0:
172,104,114751,2,0,L|87:73,1,89.9999915313724,8|0,0:0|0:0,0:0:0:0:
0,256,115051,6,0,L|84:225,1,89.9999915313724,0|0,0:0|0:0,0:0:0:0:
280,248,115351,2,0,P|246:303|181:307,1,134.999987297059,0|0,0:0|3:0,0:0:0:0:
152,232,115651,2,0,L|160:188,7,44.9999957656862,0|0|0|0|0|0|0|0,3:0|3:0|3:0|3:0|3:0|3:0|3:0|3:0,0:0:0:0:
244,116,116251,6,0,L|236:160,3,44.9999957656862,0|0|0|0,0:0|3:0|3:0|3:0,0:0:0:0:
96,136,116551,2,0,L|104:92,3,44.9999957656862,0|0|0|0,0:0|3:0|3:0|3:0,0:0:0:0:
112,60,116851,1,8,0:0:0:0:
127,36,116926,1,0,0:0:0:0:
151,21,117001,1,0,0:0:0:0:
178,16,117076,1,0,0:0:0:0:
205,21,117151,1,8,0:0:0:0:
228,37,117226,1,0,0:0:0:0:
244,60,117301,1,0,0:0:0:0:
249,88,117376,1,0,0:0:0:0:
244,116,117451,6,0,P|228:164|232:204,1,89.9999915313724,4|0,0:0|0:0,0:0:0:0:
268,340,117751,2,0,P|317:329|350:306,1,89.9999915313724,8|0,0:0|0:0,0:0:0:0:
456,168,118051,2,0,L|368:140,1,89.9999915313724
204,116,118351,2,0,L|231:201,1,89.9999915313724,8|0,0:0|0:0,0:0:0:0:
268,340,118651,2,0,L|178:336,1,89.9999915313724
32,108,118951,2,0,L|121:111,1,89.9999915313724,8|0,0:0|0:0,0:0:0:0:
288,120,119251,1,0,0:0:0:0:
144,212,119401,1,0,0:0:0:0:
164,40,119551,1,8,0:0:0:0:
368,104,119701,6,0,P|352:176|256:196,1,179.999983062745
164,40,120151,2,0,L|152:129,1,89.9999915313724,8|0,0:0|0:0,0:0:0:0:
0,224,120451,2,0,L|96:236,1,89.9999915313724,0|0,0:0|0:0,0:0:0:0:
164,367,120751,2,0,P|191:332|203:289,1,89.9999915313724,8|0,0:0|0:0,0:0:0:0:
104,56,121051,5,0,0:0:0:0:
144,212,121201,1,0,0:0:0:0:
288,120,121351,2,0,P|240:96|192:96,1,89.9999915313724,8|0,0:0|0:0,0:0:0:0:
56,148,121651,1,0,0:0:0:0:
60,176,121726,1,0,0:0:0:0:
64,204,121801,1,0,0:0:0:0:
68,232,121876,1,0,0:0:0:0:
72,260,121951,2,0,P|128:296|220:248,1,179.999983062745,8|4,0:0|0:0,0:0:0:0:
228,116,122401,5,0,0:0:0:0:
144,212,122551,2,0,P|152:256|196:292,1,89.9999915313724,8|0,0:0|0:0,0:0:0:0:
336,192,122851,2,0,L|428:192,1,89.9999915313724,0|0,0:0|0:0,0:0:0:0:
268,352,123151,2,0,L|284:236,1,89.9999915313724,8|0,0:0|0:0,0:0:0:0:
412,104,123451,5,8,0:0:0:0:
496,200,123601,1,0,0:0:0:0:
432,316,123751,2,0,P|372:328|324:320,1,89.9999915313724,8|0,0:0|0:0,0:0:0:0:
236,204,124051,2,0,P|224:160|228:116,1,89.9999915313724,8|0,0:0|0:0,0:0:0:0:
152,336,124351,2,0,P|92:348|44:340,1,89.9999915313724,8|0,0:0|0:0,0:0:0:0:
72,88,124651,5,4,0:0:0:0:
128,260,124801,1,0,0:0:0:0:
128,260,124876,1,0,0:0:0:0:
128,260,124951,1,0,0:0:0:0:
296,148,125101,2,0,P|316:228|248:284,1,179.999983062745,4|0,0:0|0:0,0:0:0:0:
40,168,125551,1,0,0:0:0:0:
48,148,125626,1,0,0:0:0:0:
56,128,125701,1,0,0:0:0:0:
64,108,125776,1,0,0:0:0:0:
72,88,125851,6,0,L|44:32,4,44.9999957656862,8|0|0|0|0,0:0|0:0|0:0|0:0|0:0,0:0:0:0:
140,208,126301,1,8,0:0:0:0:
166,220,126376,1,0,0:0:0:0:
196,221,126451,1,0,0:0:0:0:
224,211,126526,1,0,0:0:0:0:
246,191,126601,1,0,0:0:0:0:
260,160,126676,1,0,0:0:0:0:
248,128,126751,6,0,L|220:72,3,44.9999957656862,8|0|0|0,0:0|0:0|0:0|0:0,0:0:0:0:
260,160,127051,2,0,L|312:256,1,89.9999915313724
388,360,127351,2,0,P|416:324|430:280,1,89.9999915313724,8|0,0:0|0:0,0:0:0:0:
504,132,127651,2,0,P|458:138|414:129,1,89.9999915313724,0|0,0:0|0:0,0:0:0:0:
216,32,127951,2,0,P|261:25|305:34,1,89.9999915313724,8|0,0:0|0:0,0:0:0:0:
352,200,128251,5,0,0:0:0:0:
256,280,128401,1,0,0:0:0:0:
160,200,128551,2,0,L|168:104,1,89.9999915313724,8|0,0:0|0:0,0:0:0:0:
352,200,128851,2,0,L|344:296,1,89.9999915313724,0|0,0:0|0:0,0:0:0:0:
148,352,129151,1,8,0:0:0:0:
88,148,129301,6,0,P|168:112|240:160,1,179.999983062745
148,352,129751,2,0,L|56:344,1,89.9999915313724,8|0,0:0|0:0,0:0:0:0:
0,196,130051,2,0,L|7:106,1,89.9999915313724,0|0,0:0|0:0,0:0:0:0:
232,240,130351,2,0,L|224:329,1,89.9999915313724,8|0,0:0|0:0,0:0:0:0:
88,148,130651,6,0,P|168:112|240:160,1,179.999983062745,0|8,0:0|0:0,0:0:0:0:
296,292,131101,2,0,P|368:340|452:312,1,179.999983062745
480,88,131551,2,0,L|392:112,1,89.9999915313724,8|0,0:0|0:0,0:0:0:0:
160,196,131851,6,0,P|232:240|324:200,1,179.999983062745,0|0,0:0|0:0,0:0:0:0:
164,68,132301,2,0,L|126:252,1,179.999983062745
32,340,132751,1,8,0:0:0:0:
12,132,132901,1,0,0:0:0:0:
208,184,133051,6,0,L|170:368,1,179.999983062745
48,112,133501,2,0,P|120:68|196:116,1,179.999983062745
116,272,133951,2,0,L|20:272,1,89.9999915313724,8|0,0:0|0:0,0:0:0:0:
120,148,134251,5,0,0:0:0:0:
120,148,134326,1,0,0:0:0:0:
120,148,134401,1,0,0:0:0:0:
120,148,134476,1,0,0:0:0:0:
120,148,134551,1,0,0:0:0:0:
216,276,134701,2,0,L|204:332,4,44.9999957656862,0|0|0|0|0,0:0|0:0|0:0|0:0|0:0,0:0:0:0:
312,148,135151,1,0,0:0:0:0:
312,148,135226,1,8,3:0:0:0:
312,148,135301,1,8,3:0:0:0:
228,100,135451,6,0,P|216:148|224:188,1,89.9999915313724,8|8,0:0|0:0,0:0:0:0:
340,256,135751,1,0,0:0:0:0:
340,256,135826,1,0,0:0:0:0:
340,256,135901,1,0,0:0:0:0:
400,132,136051,1,8,0:0:0:0:
390,105,136126,1,0,0:0:0:0:
373,83,136201,1,0,0:0:0:0:
351,66,136276,1,0,0:0:0:0:
324,57,136351,1,8,0:0:0:0:
296,56,136426,1,0,0:0:0:0:
269,64,136501,1,0,0:0:0:0:
245,79,136576,1,0,0:0:0:0:
227,100,136651,6,0,P|204:144|168:168,1,89.9999915313724
48,128,136951,2,0,L|64:28,1,89.9999915313724,8|0,0:0|0:0,0:0:0:0:
216,192,137251,2,0,L|201:280,1,89.9999915313724,8|0,0:0|0:0,0:0:0:0:
84,368,137551,1,8,0:0:0:0:
84,368,137701,1,0,0:0:0:0:
0,251,137851,6,0,P|41:236|86:235,1,89.9999915313724,0|0,0:0|0:0,0:0:0:0:
232,104,138151,2,4,L|217:192,1,89.9999915313724,8|0,0:0|0:0,0:0:0:0:
400,356,138451,2,0,L|415:268,1,89.9999915313724,8|0,0:0|0:0,0:0:0:0:
512,104,138751,2,0,L|420:104,1,89.9999915313724,8|0,0:0|0:0,0:0:0:0:
204,268,139051,6,0,L|296:268,1,89.9999915313724,8|0,0:0|0:0,0:0:0:0:
324,104,139351,1,0,0:0:0:0:
132,104,139501,6,0,L|117:192,1,89.9999915313724,8|0,0:0|0:0,0:0:0:0:
208,348,139801,1,0,0:0:0:0:
396,192,139951,6,0,L|381:104,1,89.9999915313724,8|0,0:0|0:0,0:0:0:0:
132,104,140251,1,0,0:0:0:0:
208,348,140401,6,0,L|300:348,1,89.9999915313724,8|0,0:0|0:0,0:0:0:0:
472,104,140851,6,0,L|382:104,1,89.9999915313724,2|0,2:0|2:0,0:0:0:0:
132,104,141451,1,4,0:0:0:0:
