osu file format v14

[General]
AudioFilename: towa yori towa ni.mp3
AudioLeadIn: 0
PreviewTime: 97351
Countdown: 0
SampleSet: Normal
StackLeniency: 0.7
Mode: 0
LetterboxInBreaks: 1
WidescreenStoryboard: 0

[Editor]
Bookmarks: 86551
DistanceSpacing: 0.5
BeatDivisor: 4
GridSize: 4
TimelineZoom: 1.9

[Metadata]
Title:Towa yori Towa ni
TitleUnicode:永久より永遠に
Artist:marina
ArtistUnicode:marina
Creator:terametis
Version:Extra
Source:少女神域∽少女天獄 -The Garden of Fifth Zoa-
Tags:NewRulerNA wring Lass shoujo shiniki tengoku
BeatmapID:356968
BeatmapSetID:143507

[Difficulty]
HPDrainRate:6
CircleSize:4
OverallDifficulty:8.5
ApproachRate:9.2
SliderMultiplier:1.69999990463257
SliderTickRate:2

[Events]
//Background and Video events
0,0,"BG1.jpg",0,0
//Break Periods
//Storyboard Layer 0 (Background)
//Storyboard Layer 1 (Fail)
//Storyboard Layer 2 (Pass)
//Storyboard Layer 3 (Foreground)
//Storyboard Sound Samples

[TimingPoints]
13651,300,4,1,1,60,1,0
37651,-133.333333333333,4,2,1,60,0,0
38026,-133.333333333333,4,2,1,5,0,0
38176,-133.333333333333,4,2,1,60,0,0
38776,-133.333333333333,4,2,1,5,0,0
38926,-133.333333333333,4,2,1,60,0,0
41851,-200,4,2,1,60,0,0
41926,-200,4,2,1,5,0,0
42076,-200,4,2,1,60,0,0
42226,-200,4,2,1,5,0,0
42451,-133.333333333333,4,2,1,60,0,0
42826,-133.333333333333,4,2,1,5,0,0
42976,-133.333333333333,4,2,1,60,0,0
43576,-133.333333333333,4,2,1,5,0,0
43726,-133.333333333333,4,2,1,60,0,0
44326,-133.333333333333,4,2,1,5,0,0
44476,-133.333333333333,4,2,1,60,0,0
46201,-200,4,2,1,60,0,0
46426,-200,4,2,1,5,0,0
46576,-200,4,2,1,60,0,0
46726,-200,4,2,1,5,0,0
46876,-200,4,2,1,60,0,0
46951,-133.333333333333,4,2,1,60,0,0
47626,-133.333333333333,4,2,1,5,0,0
47776,-133.333333333333,4,2,1,60,0,0
48376,-133.333333333333,4,2,1,5,0,0
48526,-133.333333333333,4,2,1,60,0,0
51451,-200,4,2,1,60,0,0
51526,-200,4,2,1,5,0,0
51676,-200,4,2,1,60,0,0
51826,-200,4,2,1,5,0,0
51976,-200,4,2,1,60,0,0
52351,-133.333333333333,4,2,1,60,0,0
53851,-133.333333333333,4,2,1,35,0,0
54451,-133.333333333333,4,1,1,60,0,0
55651,-100,4,1,1,60,0,0
76051,-83.3333333333333,4,1,1,70,0,1
85651,300,3,2,1,70,1,0
85651,-133.333333333333,3,2,1,70,0,0
91051,300,4,1,1,70,1,0
95851,-100,4,1,1,75,0,0
98251,-83.3333333333333,4,1,1,80,0,1
115351,-83.3333333333333,4,1,1,80,0,0
115501,-83.3333333333333,4,1,1,50,0,0
115651,-83.3333333333333,4,1,1,80,0,0
117451,-83.3333333333333,4,1,1,80,0,1
141451,-83.3333333333333,4,1,1,80,0,0

[Colours]
Combo1 : 128,0,255
Combo2 : 232,232,23
Combo3 : 0,255,255

[HitObjects]
52,108,13651,6,0,P|124:64|204:92,1,169.999990463257,0|2,0:0|0:0,0:0:0:0:
232,172,14101,2,0,P|220:212|228:256,1,84.9999952316285,0|2,2:0|0:0,0:0:0:0:
224,348,14401,2,0,P|264:338|298:309,1,84.9999952316285,0|0,2:0|0:0,0:0:0:0:
380,236,14701,2,0,P|343:162|379:88,1,169.999990463257
512,120,15151,2,0,P|484:152|444:164,1,84.9999952316285,2|0,0:0|2:0,0:0:0:0:
332,92,15451,2,0,P|260:56|180:92,1,169.999990463257,2|0,0:0|0:0,0:0:0:0:
192,184,15901,6,0,P|212:264|164:332,1,169.999990463257
40,264,16351,2,0,P|80:244|120:244,1,84.9999952316285,2|0,0:0|2:0,0:0:0:0:
264,352,16651,2,0,P|288:312|296:268,1,84.9999952316285,2|0,0:0|2:0,0:0:0:0:
272,144,16951,1,0,0:0:0:0:
132,152,17101,2,0,P|116:236|128:320,1,169.999990463257,2|2,0:0|0:0,0:0:0:0:
308,280,17551,2,0,P|312:236|308:192,1,84.9999952316285,0|0,0:0|2:0,0:0:0:0:
183,43,17851,1,2,0:0:0:0:
158,63,17926,1,0,3:0:0:0:
140,89,18001,1,0,3:0:0:0:
132,120,18076,1,0,3:0:0:0:
132,151,18151,1,2,0:0:0:0:
142,181,18226,1,0,3:0:0:0:
160,207,18301,1,0,3:0:0:0:
186,226,18376,1,0,3:0:0:0:
216,236,18451,6,0,P|297:219|336:144,1,169.999990463257,0|2,0:0|0:0,0:0:0:0:
256,40,18901,2,0,P|244:88|256:128,1,84.9999952316285,0|2,2:0|0:0,0:0:0:0:
383,84,19201,2,0,P|424:71|465:80,1,84.9999952316285,0|0,2:0|0:0,0:0:0:0:
512,223,19501,2,0,P|431:247|351:223,1,169.999990463257
288,124,19951,2,0,P|248:108|207:114,1,84.9999952316285,2|0,0:0|2:0,0:0:0:0:
128,196,20251,2,0,L|112:280,1,84.9999952316285,2|0,0:0|2:0,0:0:0:0:
192,364,20551,1,0,0:0:0:0:
296,312,20701,6,0,P|324:232|320:148,1,169.999990463257
256,52,21151,2,0,L|172:44,1,84.9999952316285,2|0,0:0|2:0,0:0:0:0:
48,176,21451,2,0,P|128:196|216:184,1,169.999990463257,2|0,0:0|0:0,0:0:0:0:
312,108,21901,2,0,P|360:48|468:80,1,169.999990463257,2|2,0:0|0:0,0:0:0:0:
464,216,22351,1,2,0:0:0:0:
228,336,22651,5,0,0:0:0:0:
209,320,22726,1,0,2:0:0:0:
195,300,22801,1,0,2:0:0:0:
185,278,22876,1,0,2:0:0:0:
181,254,22951,1,0,2:0:0:0:
182,230,23026,1,0,2:0:0:0:
191,207,23101,6,0,P|216:128|172:52,1,169.999990463257,4|0,0:0|0:0,0:0:0:0:
40,132,23551,2,0,P|92:144|132:136,1,84.9999952316285,8|0,0:0|2:0,0:0:0:0:
268,100,23851,2,0,L|264:12,1,84.9999952316285,0|0,0:0|0:0,0:0:0:0:
368,160,24151,1,8,0:0:0:0:
312,256,24301,2,0,P|352:304|456:308,1,169.999990463257
368,160,24751,2,0,L|268:184,1,84.9999952316285,8|0,0:0|2:0,0:0:0:0:
184,264,25051,2,0,P|200:308|200:360,1,84.9999952316285
88,380,25351,1,8,0:0:0:0:
12,284,25501,6,0,P|40:204|96:140,1,169.999990463257
184,264,25951,2,0,P|224:280|272:284,1,84.9999952316285,8|0,0:0|2:0,0:0:0:0:
368,160,26251,2,0,P|360:116|380:40,1,84.9999952316285
452,236,26551,1,8,0:0:0:0:
372,336,26701,2,0,P|288:348|204:336,1,169.999990463257
156,320,27076,2,0,L|148:276,1,42.4999976158143,0|8,0:0|0:0,0:0:0:0:
223,170,27301,1,0,0:0:0:0:
223,170,27376,1,0,0:0:0:0:
223,170,27451,1,8,0:0:0:0:
107,279,27601,1,0,0:0:0:0:
65,273,27676,1,0,0:0:0:0:
30,250,27751,1,8,0:0:0:0:
9,213,27826,1,0,0:0:0:0:
6,171,27901,1,0,0:0:0:0:
23,133,27976,1,0,0:0:0:0:
53,102,28051,6,0,P|134:129|218:109,1,169.999990463257,4|8,0:0|0:0,0:0:0:0:
260,0,28501,1,0,0:0:0:0:
352,68,28651,2,0,L|328:152,1,84.9999952316285,8|0,0:0|0:0,0:0:0:0:
244,240,28951,1,0,0:0:0:0:
424,168,29101,2,0,L|444:336,1,169.999990463257,8|0,0:0|0:0,0:0:0:0:
224,324,29551,2,0,L|244:240,1,84.9999952316285,8|0,0:0|0:0,0:0:0:0:
132,112,29851,1,8,0:0:0:0:
135,143,29926,1,0,0:0:0:0:
139,175,30001,1,0,0:0:0:0:
143,206,30076,1,0,0:0:0:0:
147,238,30151,1,8,0:0:0:0:
316,304,30301,6,0,L|352:132,1,169.999990463257
220,56,30751,2,0,L|228:144,1,84.9999952316285,8|0,0:0|0:0,0:0:0:0:
396,196,31051,2,0,L|480:176,1,84.9999952316285,8|0,0:0|0:0,0:0:0:0:
328,56,31351,1,8,0:0:0:0:
256,220,31501,2,0,P|172:244|88:216,1,169.999990463257
64,232,31876,1,0,0:0:0:0:
62,218,31951,1,8,0:0:0:0:
220,56,32101,1,0,0:0:0:0:
218,69,32176,1,0,0:0:0:0:
217,82,32251,1,8,0:0:0:0:
216,95,32326,1,0,0:0:0:0:
214,108,32401,1,0,0:0:0:0:
213,121,32476,1,0,0:0:0:0:
212,134,32551,1,8,0:0:0:0:
210,147,32626,1,0,0:0:0:0:
209,160,32701,1,0,0:0:0:0:
208,173,32776,1,0,0:0:0:0:
206,186,32851,1,4,0:0:0:0:
256,192,32926,12,2,37651,2:2:0:0:
120,88,37951,6,0,P|116:152|148:204,1,127.499997711182
224,292,38551,1,0,0:0:0:0:
224,292,38701,2,0,P|260:232|372:216,1,191.249996566773
424,352,39451,1,0,0:0:0:0:
312,228,39751,1,0,0:0:0:0:
472,180,40051,5,2,0:0:0:0:
419,235,40501,1,0,0:0:0:0:
397,161,40951,1,0,0:0:0:0:
201,74,41851,2,0,L|177:245,1,169.999990463257,2|0,0:0|0:0,0:0:0:0:
240,348,42751,6,0,P|304:356|368:328,1,127.499997711182,0|0,0:0|0:0,0:0:0:0:
360,240,43351,1,0,0:0:0:0:
360,240,43501,2,0,P|348:168|420:80,1,191.249996566773,0|0,0:0|0:0,0:0:0:0:
268,200,44251,2,0,P|200:220|128:200,1,127.499997711182
96,112,44851,5,2,0:0:0:0:
85,187,45301,1,0,0:0:0:0:
71,262,45751,1,2,0:0:0:0:
252,356,46351,2,0,L|228:184,1,169.999990463257
308,80,47251,5,2,0:0:0:0:
424,152,47551,2,0,P|380:200|316:216,1,127.499997711182
196,260,48151,1,0,0:0:0:0:
196,260,48301,2,0,P|152:188|52:196,1,191.249996566773,0|0,0:0|0:0,0:0:0:0:
12,312,49051,1,0,0:0:0:0:
76,108,49351,1,0,0:0:0:0:
245,318,49651,5,2,0:0:0:0:
170,332,50101,1,0,0:0:0:0:
196,260,50551,1,2,0:0:0:0:
395,134,51451,2,0,L|379:311,1,169.999990463257
269,111,52351,6,0,L|276:48,1,63.7499988555908,0|0,3:0|0:0,0:0:0:0:
172,204,52651,2,0,L|245:170,1,63.7499988555908,0|0,3:0|0:0,0:0:0:0:
360,216,52951,2,0,L|294:169,1,63.7499988555908,0|0,3:0|0:0,0:0:0:0:
168,104,53251,6,0,L|109:130,1,63.7499988555908,0|0,3:0|3:0,0:0:0:0:
112,296,53551,2,0,L|170:269,1,63.7499988555908,0|0,3:0|3:0,0:0:0:0:
360,216,53851,2,0,L|294:169,1,63.7499988555908,0|0,1:0|1:0,0:0:0:0:
252,336,54151,2,0,L|317:382,1,63.7499988555908,0|0,1:0|1:0,0:0:0:0:
452,296,54451,5,0,0:0:0:0:
340,336,54601,1,0,0:0:0:0:
252,256,54751,2,0,L|248:192,1,63.7499988555908
372,108,55051,5,0,0:0:0:0:
296,196,55201,1,0,0:0:0:0:
176,176,55351,2,0,L|156:96,1,63.7499988555908
288,40,55651,6,0,L|260:132,1,84.9999952316285,8|0,0:0|0:0,0:0:0:0:
56,216,55951,1,0,0:0:0:0:
164,36,56101,2,0,L|192:128,1,84.9999952316285,8|0,0:0|0:0,0:0:0:0:
136,304,56401,1,0,0:0:0:0:
304,348,56551,2,0,L|288:260,1,84.9999952316285,8|0,0:0|0:0,0:0:0:0:
344,152,56851,6,0,B|376:320,1,169.999990463257,4|8,0:0|0:0,0:0:0:0:
212,252,57301,1,0,0:0:0:0:
440,248,57451,2,0,B|408:81,1,169.999990463257,0|8,0:0|0:0,0:0:0:0:
264,172,57901,2,0,P|176:176|92:148,1,169.999990463257
144,52,58351,1,8,0:0:0:0:
56,232,58501,1,0,0:0:0:0:
236,96,58651,2,0,L|320:104,1,84.9999952316285
380,308,58951,2,0,L|296:300,1,84.9999952316285,8|0,0:0|0:0,0:0:0:0:
144,348,59251,6,0,L|124:264,1,84.9999952316285
184,148,59551,2,0,L|228:316,1,169.999990463257,8|0,0:0|0:0,0:0:0:0:
56,232,60001,2,0,L|76:148,1,84.9999952316285,0|8,0:0|0:0,0:0:0:0:
180,56,60301,2,0,L|364:60,1,169.999990463257
488,160,60751,2,0,L|396:156,1,84.9999952316285,8|0,0:0|0:0,0:0:0:0:
224,232,61051,1,0,0:0:0:0:
384,256,61201,1,0,0:0:0:0:
264,328,61351,2,0,P|216:336|164:336,1,84.9999952316285,8|0,0:0|0:0,0:0:0:0:
100,156,61651,6,0,P|188:140|288:156,1,169.999990463257,0|8,0:0|0:0,0:0:0:0:
248,280,62101,1,0,0:0:0:0:
384,256,62251,2,0,P|388:176|376:76,1,169.999990463257,0|8,0:0|0:0,0:0:0:0:
180,84,62701,2,0,P|170:168|174:253,1,169.999990463257,0|0,0:0|0:0,0:0:0:0:
308,160,63151,2,0,L|220:148,1,84.9999952316285,8|0,0:0|0:0,0:0:0:0:
68,228,63451,2,0,L|56:316,1,84.9999952316285,0|0,0:0|0:0,0:0:0:0:
248,280,63751,2,0,L|260:192,1,84.9999952316285,8|0,0:0|0:0,0:0:0:0:
148,304,64051,5,8,0:0:0:0:
264,356,64201,1,0,0:0:0:0:
152,212,64351,1,0,0:0:0:0:
340,304,64501,6,0,L|420:276,1,84.9999952316285,8|0,0:0|0:0,0:0:0:0:
248,92,64801,1,0,0:0:0:0:
464,201,64951,6,0,L|464:116,1,84.9999952316285,8|0,0:0|0:0,0:0:0:0:
344,40,65251,1,8,0:0:0:0:
331,57,65326,1,0,0:0:0:0:
321,76,65401,1,0,0:0:0:0:
314,95,65476,1,0,0:0:0:0:
309,116,65551,1,0,0:0:0:0:
307,137,65626,1,0,0:0:0:0:
308,159,65701,1,8,0:0:0:0:
312,179,65776,1,8,0:0:0:0:
319,200,65851,5,0,0:0:0:0:
327,225,65926,1,0,0:0:0:0:
327,251,66001,1,0,0:0:0:0:
321,277,66076,1,0,0:0:0:0:
307,300,66151,1,8,0:0:0:0:
288,318,66226,1,0,0:0:0:0:
264,330,66301,1,0,0:0:0:0:
238,334,66376,1,0,0:0:0:0:
212,332,66451,6,0,P|176:304|148:268,1,84.9999952316285
60,280,66751,2,0,P|66:234|83:192,1,84.9999952316285,8|0,0:0|0:0,0:0:0:0:
248,152,67051,2,0,L|192:216,1,84.9999952316285
8,156,67351,2,0,L|64:92,1,84.9999952316285,8|0,0:0|0:0,0:0:0:0:
216,20,67651,6,0,P|232:56|240:108,1,84.9999952316285
184,208,67951,2,0,P|172:256|184:308,1,84.9999952316285,8|0,0:0|0:0,0:0:0:0:
272,376,68251,2,0,L|356:372,1,84.9999952316285,0|0,0:0|0:0,0:0:0:0:
448,200,68551,2,0,L|364:204,1,84.9999952316285,8|0,0:0|0:0,0:0:0:0:
236,276,68851,6,0,P|228:324|212:368,1,84.9999952316285
60,244,69151,2,0,P|68:196|84:152,1,84.9999952316285,8|0,0:0|0:0,0:0:0:0:
188,40,69451,2,0,L|288:36,1,84.9999952316285
372,192,69751,2,0,L|272:196,1,84.9999952316285,8|0,0:0|0:0,0:0:0:0:
156,224,70051,6,0,P|132:276|128:312,1,84.9999952316285
300,360,70351,2,0,P|324:308|328:272,1,84.9999952316285,8|0,0:0|0:0,0:0:0:0:
260,128,70651,5,8,0:0:0:0:
236,276,70801,1,8,0:0:0:0:
440,180,70951,2,0,L|420:92,1,84.9999952316285,8|8,0:0|0:0,0:0:0:0:
320,208,71251,6,0,P|316:256|324:300,1,84.9999952316285
232,364,71551,2,0,P|176:384|120:380,1,84.9999952316285,8|0,0:0|0:0,0:0:0:0:
48,332,71851,2,0,L|32:224,1,84.9999952316285
208,148,72151,2,0,L|224:256,1,84.9999952316285,8|0,0:0|0:0,0:0:0:0:
308,336,72451,6,0,P|372:348|420:344,1,84.9999952316285
484,184,72751,2,0,P|420:172|372:176,1,84.9999952316285,8|0,0:0|0:0,0:0:0:0:
228,120,73051,2,0,P|216:184|220:232,1,84.9999952316285
388,300,73351,2,0,P|400:236|396:188,1,84.9999952316285,8|0,0:0|0:0,0:0:0:0:
320,68,73651,5,8,0:0:0:0:
260,193,73801,1,0,0:0:0:0:
120,176,73951,2,0,L|108:92,1,84.9999952316285,0|8,0:0|0:0,0:0:0:0:
312,160,74251,2,0,L|324:244,1,84.9999952316285,0|0,0:0|0:0,0:0:0:0:
212,344,74551,1,8,0:0:0:0:
76,284,74701,1,0,0:0:0:0:
76,284,74776,1,0,0:0:0:0:
76,284,74851,1,8,0:0:0:0:
228,72,75151,5,0,2:0:0:0:
268,80,75451,1,2,2:0:0:0:
308,92,75751,6,0,P|336:172|280:228,1,169.999990463257,0|4,2:0|0:0,0:0:0:0:
168,160,76201,1,0,0:0:0:0:
308,92,76351,2,0,L|412:104,1,101.999991165162,8|0,0:0|0:0,0:0:0:0:
488,216,76651,2,0,P|488:280|460:328,1,101.999991165162,0|0,0:0|0:0,0:0:0:0:
300,340,76951,2,0,L|276:216,1,101.999991165162,8|0,0:0|0:0,0:0:0:0:
92,76,77251,6,0,P|76:136|72:176,1,101.999991165162
184,256,77551,1,8,0:0:0:0:
284,156,77701,1,0,0:0:0:0:
408,224,77851,2,0,P|420:284|416:328,1,101.999991165162
220,336,78151,2,0,P|208:276|212:232,1,101.999991165162,8|0,0:0|0:0,0:0:0:0:
344,92,78451,5,8,0:0:0:0:
280,252,78601,1,0,0:0:0:0:
176,116,78751,1,0,0:0:0:0:
368,40,78901,5,8,0:0:0:0:
376,240,79051,1,0,0:0:0:0:
176,248,79201,2,0,P|168:192|172:144,1,101.999991165162,0|8,0:0|0:0,0:0:0:0:
368,40,79501,1,0,0:0:0:0:
476,236,79651,6,0,P|420:244|372:240,1,101.999991165162,8|0,0:0|0:0,0:0:0:0:
284,356,79951,2,0,P|240:320|216:260,1,101.999991165162,8|0,0:0|0:0,0:0:0:0:
200,88,80251,2,0,L|300:72,1,101.999991165162,8|0,0:0|0:0,0:0:0:0:
144,296,80551,2,0,L|44:312,1,101.999991165162,8|0,0:0|0:0,0:0:0:0:
84,104,80851,5,0,0:0:0:0:
184,216,81001,1,0,0:0:0:0:
328,180,81151,2,0,P|348:124|348:80,1,101.999991165162,8|0,0:0|0:0,0:0:0:0:
168,52,81451,5,0,0:0:0:0:
92,192,81601,1,0,0:0:0:0:
168,312,81751,2,0,P|224:336|268:336,1,101.999991165162,8|0,0:0|0:0,0:0:0:0:
400,360,82051,6,0,P|424:296|432:248,1,101.999991165162,8|0,0:0|0:0,0:0:0:0:
240,132,82351,2,0,P|216:196|208:244,1,101.999991165162,8|0,0:0|0:0,0:0:0:0:
296,352,82651,5,8,0:0:0:0:
428,192,82801,1,0,0:0:0:0:
268,48,82951,2,0,L|204:40,1,50.9999955825808,8|0,0:0|0:0,0:0:0:0:
140,116,83101,2,0,L|192:124,1,50.9999955825808
240,132,83251,5,8,0:0:0:0:
278,165,83326,1,0,0:0:0:0:
295,212,83401,1,0,0:0:0:0:
288,262,83476,1,0,0:0:0:0:
258,302,83551,1,8,0:0:0:0:
212,324,83626,1,0,0:0:0:0:
162,320,83701,1,0,0:0:0:0:
119,294,83776,1,0,0:0:0:0:
94,250,83851,2,0,L|104:148,1,101.999991165162,8|0,0:0|0:0,0:0:0:0:
268,48,84151,1,8,0:0:0:0:
404,184,84301,1,0,0:0:0:0:
196,224,84451,5,8,0:0:0:0:
179,271,84526,1,0,0:0:0:0:
192,319,84601,1,0,0:0:0:0:
230,352,84676,1,0,0:0:0:0:
280,356,84751,2,0,P|348:328|392:328,1,101.999991165162,0|8,0:0|0:0,0:0:0:0:
480,216,85051,1,0,0:0:0:0:
480,368,85201,1,0,0:0:0:0:
340,232,85351,2,0,L|352:128,1,101.999991165162,8|0,0:0|0:0,0:0:0:0:
468,52,85651,6,0,P|468:116|428:164,1,127.499997711182,2|0,0:0|0:0,0:0:0:0:
344,164,86101,2,0,L|316:104,1,63.7499988555908,0|2,0:0|0:0,0:0:0:0:
364,32,86401,1,0,0:0:0:0:
256,164,86551,6,0,P|196:176|136:148,1,127.499997711182,2|0,0:0|0:0,0:0:0:0:
93,75,87001,2,0,L|109:11,1,63.7499988555908,0|2,0:0|0:0,0:0:0:0:
216,8,87301,1,0,0:0:0:0:
64,160,87451,6,0,P|48:224|72:308,1,127.499997711182,2|0,0:0|0:0,0:0:0:0:
140,332,87901,2,0,L|197:305,1,63.7499988555908,0|2,0:0|0:0,0:0:0:0:
280,184,88201,1,0,0:0:0:0:
324,300,88351,6,0,L|264:328,1,63.7499988555908,2|0,0:0|0:0,0:0:0:0:
368,212,88651,2,0,L|373:146,1,63.7499988555908,0|0,0:0|0:0,0:0:0:0:
424,292,88951,2,0,L|478:329,1,63.7499988555908,2|0,0:0|0:0,0:0:0:0:
456,124,89251,6,0,P|412:84|320:68,1,127.499997711182,2|0,0:0|0:0,0:0:0:0:
244,144,89701,1,0,0:0:0:0:
272,272,89851,2,0,L|329:245,1,63.7499988555908,2|0,0:0|0:0,0:0:0:0:
308,144,90151,6,0,P|244:132|184:148,1,127.499997711182,2|0,0:0|0:0,0:0:0:0:
144,268,90601,1,0,0:0:0:0:
64,196,90751,2,0,P|80:140|104:116,1,63.7499988555908,2|0,0:0|0:0,0:0:0:0:
188,92,91051,6,0,L|288:100,1,84.9999952316285,4|0,0:2|0:0,0:0:0:0:
136,152,91351,2,0,P|112:96|172:16,1,169.999990463257,8|0,0:0|0:0,0:0:0:0:
264,184,91801,1,0,0:0:0:0:
196,256,91951,2,0,L|112:236,1,84.9999952316285,8|0,0:0|0:0,0:0:0:0:
160,356,92251,6,0,L|332:332,1,169.999990463257,4|8,0:2|0:0,0:0:0:0:
452,312,92701,2,0,P|480:236|440:160,1,169.999990463257
284,120,93151,2,0,L|272:208,1,84.9999952316285,8|0,0:0|0:0,0:0:0:0:
140,288,93451,6,0,P|84:252|88:132,1,169.999990463257,4|8,0:2|0:0,0:0:0:0:
160,52,93901,1,0,0:0:0:0:
284,120,94051,2,0,L|272:208,1,84.9999952316285,8|0,0:0|0:0,0:0:0:0:
140,288,94351,1,8,0:0:0:0:
292,360,94501,1,0,0:0:0:0:
292,360,94576,1,0,0:0:0:0:
292,360,94651,6,0,L|380:328,1,84.9999952316285,12|0,2:2|0:0,0:0:0:0:
284,120,94951,1,0,0:0:0:0:
236,288,95101,5,8,0:0:0:0:
368,164,95251,1,0,0:0:0:0:
196,112,95401,1,0,0:0:0:0:
192,352,95551,2,0,P|108:360|64:292,1,169.999990463257,12|8,0:0|0:0,0:0:0:0:
196,112,96001,1,8,0:0:0:0:
380,240,96151,2,0,L|364:332,1,84.9999952316285,8|8,0:0|0:0,0:0:0:0:
176,188,96751,5,8,0:0:0:0:
344,76,96901,1,8,0:0:0:0:
156,280,97051,2,0,L|68:256,1,84.9999952316285,8|8,0:0|0:0,0:0:0:0:
136,52,97351,5,2,2:0:0:0:
176,188,97651,1,2,2:0:0:0:
272,88,97951,1,2,2:0:0:0:
456,256,98251,6,0,P|408:276|336:284,1,101.999991165162,4|0,0:0|0:0,0:0:0:0:
260,352,98551,2,0,P|216:292|204:256,1,101.999991165162,8|0,0:0|0:0,0:0:0:0:
256,100,98851,1,0,0:0:0:0:
104,224,99001,1,0,0:0:0:0:
297,209,99151,2,0,P|334:175|349:126,1,101.999991165162,8|0,0:0|0:0,0:0:0:0:
161,127,99451,2,0,P|92:104|64:80,1,101.999991165162
350,127,99751,2,0,P|420:104|448:80,1,101.999991165162,8|0,0:0|0:0,0:0:0:0:
268,16,100051,5,0,0:0:0:0:
224,196,100201,1,0,0:0:0:0:
444,184,100351,1,8,0:0:0:0:
324,356,100501,6,0,P|284:324|296:184,1,203.999982330323,2|0,0:0|0:0,0:0:0:0:
480,244,100951,2,0,P|420:264|380:260,1,101.999991165162,8|0,0:0|0:0,0:0:0:0:
307,155,101251,2,0,P|276:117|228:100,1,101.999991165162
136,240,101551,2,0,P|167:278|215:295,1,101.999991165162,8|0,0:0|0:0,0:0:0:0:
356,212,101851,5,0,0:0:0:0:
192,336,102001,1,0,0:0:0:0:
52,200,102151,2,0,P|48:148|60:96,1,101.999991165162,8|0,0:0|0:0,0:0:0:0:
284,72,102451,1,0,0:0:0:0:
274,121,102526,1,0,0:0:0:0:
240,159,102601,1,0,0:0:0:0:
193,175,102676,1,0,0:0:0:0:
143,165,102751,2,0,P|144:104|168:64,1,101.999991165162,8|0,0:0|0:0,0:0:0:0:
236,228,103051,6,0,P|284:268|416:236,1,203.999982330323,6|8,0:0|0:0,0:0:0:0:
400,100,103501,1,0,0:0:0:0:
248,184,103651,2,0,P|228:236|232:284,1,101.999991165162
128,368,103951,2,0,P|68:384|20:376,1,101.999991165162,8|0,0:0|0:0,0:0:0:0:
36,188,104251,5,8,0:0:0:0:
152,300,104401,1,0,0:0:0:0:
308,248,104551,2,0,P|320:196|320:140,1,101.999991165162,8|0,0:0|0:0,0:0:0:0:
96,32,104851,6,0,P|84:80|84:140,1,101.999991165162,8|0,0:0|0:0,0:0:0:0:
216,284,105151,1,8,0:0:0:0:
380,168,105301,1,0,0:0:0:0:
256,68,105451,6,0,L|148:76,1,101.999991165162,10|0,0:0|0:0,0:0:0:0:
84,312,105751,1,0,0:0:0:0:
308,248,105901,2,0,P|320:196|320:140,1,101.999991165162,8|0,0:0|0:0,0:0:0:0:
96,32,106201,1,0,0:0:0:0:
216,284,106351,2,0,P|280:292|340:288,1,101.999991165162,8|0,0:0|0:0,0:0:0:0:
504,104,106651,6,0,L|452:80,1,50.9999955825808,8|0,0:0|0:0,0:0:0:0:
296,32,106801,2,0,L|352:56,1,50.9999955825808
388,112,106951,2,0,P|360:156|320:184,1,101.999991165162,0|8,0:0|0:0,0:0:0:0:
272,192,107176,1,0,0:0:0:0:
247,159,107251,1,0,0:0:0:0:
213,137,107326,1,0,0:0:0:0:
173,128,107401,1,0,0:0:0:0:
133,133,107476,1,0,0:0:0:0:
100,152,107551,2,0,P|66:247|76:272,1,101.999991165162,8|0,0:0|0:0,0:0:0:0:
256,312,107851,6,0,P|284:256|244:104,1,203.999982330323,6|8,0:0|0:0,0:0:0:0:
104,72,108301,1,0,0:0:0:0:
64,244,108451,2,0,L|172:260,1,101.999991165162
336,284,108751,2,0,P|356:236|352:180,1,101.999991165162,8|0,0:0|0:0,0:0:0:0:
196,40,109051,5,8,0:0:0:0:
220,216,109201,1,0,0:0:0:0:
400,204,109351,2,0,P|404:156|392:100,1,101.999991165162,8|0,0:0|0:0,0:0:0:0:
248,36,109651,6,0,L|140:28,1,101.999991165162,8|0,0:0|0:0,0:0:0:0:
24,192,109951,1,8,0:0:0:0:
60,184,110026,1,0,0:0:0:0:
96,176,110101,1,0,0:0:0:0:
132,168,110176,1,0,0:0:0:0:
168,160,110251,6,0,P|248:248|216:320,1,203.999982330323,6|8,0:0|0:0,0:0:0:0:
296,192,110701,2,0,P|276:100|356:36,1,203.999982330323,0|0,0:0|0:0,0:0:0:0:
512,88,111151,2,0,L|496:200,1,101.999991165162,8|0,0:0|0:0,0:0:0:0:
376,340,111451,1,8,0:0:0:0:
256,144,111601,1,0,0:0:0:0:
140,280,111751,2,0,L|196:292,3,50.9999955825808,8|0|0|0,0:0|0:0|0:0|0:0,0:0:0:0:
224,328,112051,2,0,L|272:296,3,50.9999955825808,8|0|0|0,0:0|0:0|0:0|0:0,0:0:0:0:
308,304,112351,1,8,0:0:0:0:
299,266,112426,1,0,0:0:0:0:
302,229,112501,1,0,0:0:0:0:
318,194,112576,1,0,0:0:0:0:
344,168,112651,6,0,L|448:162,1,101.999991165162,2|0,0:2|0:0,0:0:0:0:
480,336,112951,2,0,L|376:340,1,101.999991165162,8|0,0:0|0:0,0:0:0:0:
167,166,113251,2,0,L|66:160,1,101.999991165162,8|0,0:0|0:0,0:0:0:0:
224,304,113551,1,0,0:0:0:0:
344,168,113701,2,0,B|372:72|372:72|464:24,1,203.999982330323,8|0,0:0|0:0,0:0:0:0:
432,228,114151,2,0,P|392:260|332:276,1,101.999991165162,8|0,0:0|0:0,0:0:0:0:
256,368,114451,2,0,P|212:312|200:268,1,101.999991165162,8|0,0:0|0:0,0:0:0:0:
256,180,114751,1,8,0:0:0:0:
256,180,114826,1,0,0:0:0:0:
256,180,114901,1,0,0:0:0:0:
68,100,115051,5,2,0:0:0:0:
136,284,115201,1,2,0:0:0:0:
264,136,115351,2,0,L|168:96,1,101.999991165162,0|0,0:0|2:0,0:0:0:0:
64,244,115651,5,2,3:2:0:0:
52,282,115726,1,0,3:0:0:0:
60,322,115801,1,0,3:0:0:0:
87,353,115876,1,0,3:0:0:0:
124,367,115951,1,0,3:0:0:0:
164,362,116026,1,0,3:0:0:0:
197,339,116101,1,0,3:0:0:0:
212,300,116176,1,0,3:0:0:0:
212,256,116251,5,0,0:0:0:0:
197,218,116326,1,0,0:0:0:0:
199,177,116401,1,0,3:0:0:0:
217,141,116476,1,0,3:0:0:0:
249,115,116551,1,0,0:0:0:0:
288,104,116626,1,0,0:0:0:0:
328,110,116701,1,0,3:0:0:0:
362,131,116776,1,0,3:0:0:0:
380,168,116851,5,8,0:0:0:0:
383,208,116926,1,0,0:0:0:0:
369,246,117001,1,0,0:0:0:0:
340,275,117076,1,0,0:0:0:0:
302,289,117151,1,8,0:0:0:0:
262,286,117226,1,0,0:0:0:0:
226,267,117301,1,0,0:0:0:0:
202,234,117376,1,0,0:0:0:0:
192,196,117451,6,0,P|164:152|100:120,1,101.999991165162,4|0,0:0|0:0,0:0:0:0:
8,188,117751,1,8,0:0:0:0:
112,24,117901,1,0,0:0:0:0:
288,104,118051,2,0,L|268:220,1,101.999991165162
100,292,118351,2,0,L|84:168,1,101.999991165162,8|0,0:0|0:0,0:0:0:0:
144,60,118651,6,0,P|192:40|248:36,1,101.999991165162,0|0,0:0|0:0,0:0:0:0:
368,324,118951,2,0,P|320:344|264:348,1,101.999991165162,8|0,0:0|0:0,0:0:0:0:
100,292,119251,5,0,0:0:0:0:
192,140,119401,1,0,0:0:0:0:
348,224,119551,1,8,0:0:0:0:
100,292,119701,6,0,P|56:200|64:100,1,203.999982330323,2|0,0:0|0:0,0:0:0:0:
256,48,120151,2,0,L|232:148,1,101.999991165162,8|0,0:0|0:0,0:0:0:0:
276,304,120451,1,0,0:0:0:0:
432,228,120601,1,0,0:0:0:0:
192,140,120751,2,0,L|168:240,1,101.999991165162,8|0,0:0|0:0,0:0:0:0:
210,342,121051,5,0,0:0:0:0:
245,374,121126,1,0,0:0:0:0:
293,375,121201,1,0,0:0:0:0:
335,351,121276,1,0,0:0:0:0:
354,306,121351,2,0,L|338:171,1,101.999991165162,8|0,0:0|0:0,0:0:0:0:
124,48,121651,2,0,L|100:148,1,101.999991165162,0|0,0:0|0:0,0:0:0:0:
188,276,121951,1,8,0:0:0:0:
256,48,122101,1,0,0:0:0:0:
468,156,122251,6,0,P|428:248|336:288,1,203.999982330323,6|8,0:0|0:0,0:0:0:0:
192,140,122701,1,0,0:0:0:0:
324,216,122851,2,0,P|372:200|396:156,1,101.999991165162
256,48,123151,1,8,0:0:0:0:
264,288,123301,1,0,0:0:0:0:
52,340,123451,6,0,L|40:236,1,101.999991165162,8|0,0:0|0:0,0:0:0:0:
180,40,123751,2,0,L|192:144,1,101.999991165162,8|0,0:0|0:0,0:0:0:0:
324,316,124051,6,0,L|220:328,1,101.999991165162,8|0,0:0|0:0,0:0:0:0:
0,132,124351,2,0,L|104:120,1,101.999991165162,8|0,0:0|0:0,0:0:0:0:
328,60,124651,5,4,0:0:0:0:
192,208,124801,1,0,0:0:0:0:
192,208,124876,1,0,0:0:0:0:
192,208,124951,1,0,0:0:0:0:
0,132,125101,2,0,L|52:336,1,203.999982330323,4|0,0:0|0:0,0:0:0:0:
240,312,125551,1,0,0:0:0:0:
260,276,125626,1,0,0:0:0:0:
280,240,125701,1,0,0:0:0:0:
300,204,125776,1,0,0:0:0:0:
320,168,125851,5,12,0:0:0:0:
351,193,125926,1,0,0:0:0:0:
371,229,126001,1,0,0:2:0:0:
377,269,126076,1,0,0:0:0:0:
369,309,126151,1,8,0:0:0:0:
347,343,126226,1,0,0:0:0:0:
314,368,126301,1,0,0:2:0:0:
275,376,126376,1,0,0:0:0:0:
235,375,126451,1,8,0:0:0:0:
198,357,126526,1,0,0:0:0:0:
170,328,126601,1,0,0:0:0:0:
154,290,126676,1,0,0:0:0:0:
160,252,126751,1,8,0:0:0:0:
180,216,126826,1,0,0:0:0:0:
192,178,126901,1,0,0:0:0:0:
192,137,126976,1,0,0:0:0:0:
188,100,127051,6,0,P|147:52|20:72,1,203.999982330323,6|8,0:1|0:0,0:0:0:0:
40,248,127501,1,0,0:0:0:0:
236,292,127651,2,0,L|260:180,1,101.999991165162
360,24,127951,2,0,P|408:12|460:24,1,101.999991165162,8|0,0:0|0:0,0:0:0:0:
496,240,128251,6,0,P|448:240|392:224,1,101.999991165162,0|0,0:0|0:0,0:0:0:0:
332,120,128551,1,8,0:0:0:0:
360,316,128701,1,0,0:0:0:0:
160,252,128851,2,0,P|164:200|180:148,1,101.999991165162
236,292,129151,1,8,0:0:0:0:
80,344,129301,6,0,P|32:256|32:152,1,203.999982330323,0|0,0:0|0:0,0:0:0:0:
212,52,129751,2,0,P|228:108|224:156,1,101.999991165162,8|0,0:0|0:0,0:0:0:0:
160,252,130051,1,0,0:0:0:0:
312,152,130201,1,0,0:0:0:0:
104,48,130351,2,0,L|96:152,1,101.999991165162,8|0,0:0|0:0,0:0:0:0:
80,344,130651,6,0,P|160:380|272:356,1,203.999982330323,2|8,0:0|0:0,0:0:0:0:
312,152,131101,1,0,0:0:0:0:
452,212,131251,2,0,P|432:236|408:256,3,50.9999955825808
360,288,131551,2,0,P|332:292|308:292,3,50.9999955825808,8|0|0|0,0:0|0:0|0:0|0:0,0:0:0:0:
240,276,131851,6,0,B|168:236|168:236|156:108,1,203.999982330323,4|0,0:0|0:0,0:0:0:0:
332,20,132301,2,0,B|404:60|404:60|416:188,1,203.999982330323,4|0,0:0|0:0,0:0:0:0:
132,180,132751,2,0,L|120:60,1,101.999991165162,8|0,0:0|0:0,0:0:0:0:
8,280,133051,6,0,P|84:344|183:336,1,203.999982330323,4|0,0:0|0:0,0:0:0:0:
288,224,133501,2,0,P|276:124|380:52,1,203.999982330323,4|0,0:0|0:0,0:0:0:0:
436,244,133951,2,0,L|372:324,1,101.999991165162,8|0,0:0|0:0,0:0:0:0:
212,320,134251,5,0,0:0:0:0:
185,292,134326,1,0,0:0:0:0:
169,258,134401,1,0,0:0:0:0:
165,220,134476,1,0,0:0:0:0:
174,183,134551,1,0,0:0:0:0:
348,48,134701,1,0,0:0:0:0:
382,64,134776,1,0,0:0:0:0:
408,92,134851,1,0,0:0:0:0:
422,127,134926,1,0,0:0:0:0:
424,165,135001,1,0,0:0:0:0:
411,201,135076,1,0,0:0:0:0:
387,230,135151,1,8,0:0:0:0:
353,249,135226,1,0,0:0:0:0:
316,254,135301,1,0,0:0:0:0:
279,246,135376,1,0,0:0:0:0:
252,220,135451,6,0,L|248:160,3,50.9999955825808,8|0|0|0,0:0|0:0|0:0|0:0,0:0:0:0:
240,132,135751,2,0,P|232:100|220:76,3,50.9999955825808,8|0|0|0,0:0|0:0|0:0|0:0,0:0:0:0:
200,52,136051,1,8,0:0:0:0:
167,31,136126,1,0,0:0:0:0:
130,22,136201,1,0,0:0:0:0:
92,24,136276,1,0,0:0:0:0:
57,39,136351,1,8,0:0:0:0:
28,63,136426,1,0,0:0:0:0:
8,96,136501,1,0,0:0:0:0:
0,133,136576,1,0,0:0:0:0:
4,172,136651,6,0,L|76:244,1,101.999991165162,4|0,0:0|0:0,0:0:0:0:
120,352,136951,2,0,P|184:320|212:284,1,101.999991165162,8|0,0:0|0:0,0:0:0:0:
196,168,137251,2,0,P|188:100|204:56,1,101.999991165162,8|0,0:0|0:0,0:0:0:0:
356,32,137551,1,8,0:0:0:0:
376,216,137701,1,0,0:0:0:0:
168,228,137851,6,0,L|92:148,1,101.999991165162,2|0,0:0|0:0,0:0:0:0:
256,36,138151,1,8,0:0:0:0:
376,216,138301,1,0,0:0:0:0:
204,272,138451,6,0,L|96:288,1,101.999991165162,8|0,0:0|0:0,0:0:0:0:
48,112,138751,1,8,0:0:0:0:
192,360,138901,1,0,0:0:0:0:
344,328,139051,6,0,L|352:220,1,101.999991165162,8|8,0:0|0:0,0:0:0:0:
268,120,139351,1,0,0:0:0:0:
103,286,139501,6,8,L|204:272,1,101.999991165162
236,88,139801,1,0,0:0:0:0:
48,112,139951,6,0,L|40:220,1,101.999991165162,8|8,0:0|0:0,0:0:0:0:
192,360,140251,1,0,0:0:0:0:
300,148,140401,6,8,L|199:162,1,101.999991165162,8|8,0:0|0:0,0:0:0:0:
376,348,140851,6,0,L|400:248,1,101.999991165162,2|2,2:0|2:0,0:0:0:0:
256,36,141451,1,4,0:0:0:0:
