osu file format v12

[General]
AudioFilename: towayoritowani.mp3
AudioLeadIn: 0
PreviewTime: 98130
Countdown: 0
SampleSet: Normal
StackLeniency: 0.2
Mode: 1
LetterboxInBreaks: 0
WidescreenStoryboard: 0

[Editor]
Bookmarks: 12325,23140,107890
DistanceSpacing: 0.6
BeatDivisor: 4
GridSize: 8
TimelineZoom: 1

[Metadata]
Title:Towa yori Towa ni
TitleUnicode:永久より永遠に
Artist:marina
ArtistUnicode:marina
Creator:lolcubes
Version:Futsuu
Source:少女神域∽少女天獄 -The Garden of Fifth Zoa-
Tags:キミ∽ツナグ Kimi ~ Tsunagu Shoujo Shiniki ~ Shoujo Tengoku taiko
BeatmapID:369231
BeatmapSetID:148034

[Difficulty]
HPDrainRate:4
CircleSize:5
OverallDifficulty:4
ApproachRate:5
SliderMultiplier:1.2
SliderTickRate:1

[Events]
//Background and Video events
0,0,"theonlysfwbgforthisdamnedgame.jpg",0,0
//Break Periods
//Storyboard Layer 0 (Background)
//Storyboard Layer 1 (Fail)
//Storyboard Layer 2 (Pass)
//Storyboard Layer 3 (Foreground)
//Storyboard Sound Samples
//Background Colour Transformations
3,100,0,0,0

[TimingPoints]
1540.83718689181,300,4,1,0,80,1,0
38665,-125,4,1,0,40,0,0
46165,-125,4,1,0,27,0,0
46990,-125,4,1,0,40,0,0
53440,-125,4,1,0,44,0,0
53740,-125,4,1,0,48,0,0
54040,-125,4,1,0,52,0,0
54340,-125,4,1,0,56,0,0
54790,-125,4,1,0,65,0,0
55240,-125,4,1,0,74,0,0
55540,-100,4,1,0,80,0,0
85240,315.789473684211,4,1,0,80,1,8
85240,-95.2380952380952,4,1,0,80,0,0
85560,300,3,1,0,80,1,0
85935,-125,3,1,0,40,0,0
89160,-125,3,1,0,43,0,0
89760,-125,3,1,0,51,0,0
90060,303.030303030303,3,1,0,55,1,0
90060,-125,3,1,0,55,0,0
90660,-125,3,1,0,65,0,0
90940,300,4,1,0,80,1,0
98140,-100,4,1,0,80,0,1
141340,-100,4,1,0,80,0,0
201040,315.789473684211,4,1,0,80,1,8
201040,-95.2380952380952,4,1,0,80,0,0
201360,300,3,1,0,80,1,0
201660,-125,3,1,0,40,0,0
204960,-125,3,1,0,43,0,0
205560,-125,3,1,0,51,0,0
205860,303.030303030303,3,1,0,55,1,0
205860,-125,3,1,0,55,0,0
206160,-125,3,1,0,60,0,0
206460,-125,3,1,0,65,0,0
206740,300,4,1,0,80,1,0
216050,300,4,1,0,80,1,0
217850,300,4,1,0,80,1,0
219950,300,4,1,0,80,1,0
226100,300,4,1,0,80,1,0
227000,300,4,1,0,80,1,0
229100,315.789473684211,4,1,0,80,1,8
229420,300,3,1,0,80,1,0
229720,-125,3,1,0,50,0,0
233920,303.030303030303,3,1,0,50,1,0
233920,-125,3,1,0,50,0,0
234800,300,4,1,0,80,1,0
255190,300,4,1,0,80,1,1
288790,-100,4,1,0,80,0,0
300640,-100,4,1,0,80,0,1
310390,-100,4,1,0,80,0,0

[HitObjects]
256,192,13540,5,4,0:0:0:0:
256,192,14140,1,8,0:0:0:0:
256,192,15040,1,0,0:0:0:0:
256,192,15340,1,8,0:0:0:0:
256,192,16240,1,0,0:0:0:0:
256,192,16540,1,8,0:0:0:0:
256,192,16990,1,0,0:0:0:0:
256,192,17440,1,0,0:0:0:0:
256,192,17740,1,8,0:0:0:0:
256,192,18340,1,0,0:0:0:0:
256,192,18640,1,8,0:0:0:0:
256,192,19240,1,8,0:0:0:0:
256,192,19840,1,8,0:0:0:0:
256,192,20440,1,8,0:0:0:0:
256,192,21040,1,8,0:0:0:0:
256,192,21640,1,8,0:0:0:0:
256,192,22240,1,8,0:0:0:0:
256,192,22540,1,8,0:0:0:0:
256,192,22990,1,4,0:0:0:0:
256,192,23440,1,8,0:0:0:0:
256,192,23740,1,0,0:0:0:0:
256,192,24190,1,0,0:0:0:0:
256,192,24640,1,8,0:0:0:0:
256,192,24940,1,0,0:0:0:0:
256,192,25390,1,0,0:0:0:0:
256,192,25840,1,8,0:0:0:0:
256,192,26140,1,0,0:0:0:0:
256,192,26590,1,8,0:0:0:0:
248,192,27040,1,8,0:0:0:0:
256,192,27340,1,8,0:0:0:0:
256,192,27640,1,8,0:0:0:0:
248,192,27940,1,0,0:0:0:0:
248,192,28540,1,8,0:0:0:0:
248,192,28990,1,8,0:0:0:0:
248,192,29290,1,0,0:0:0:0:
248,192,29440,1,0,0:0:0:0:
248,192,29590,1,8,0:0:0:0:
248,192,30190,1,12,0:0:0:0:
248,192,30640,1,8,0:0:0:0:
248,192,30940,1,8,0:0:0:0:
248,192,31390,1,4,0:0:0:0:
248,192,31840,1,8,0:0:0:0:
248,192,32140,1,8,0:0:0:0:
248,192,32740,1,0,0:0:0:0:
248,192,33340,1,0,0:0:0:0:
248,192,33640,1,0,0:0:0:0:
248,192,33790,1,0,0:0:0:0:
248,192,34540,1,0,0:0:0:0:
248,192,34840,1,0,0:0:0:0:
248,192,34990,1,0,0:0:0:0:
248,192,35740,1,0,0:0:0:0:
248,192,36040,1,0,0:0:0:0:
248,192,36190,1,0,0:0:0:0:
248,192,36640,1,0,0:0:0:0:
248,192,37090,1,0,0:0:0:0:
248,192,37540,1,0,0:0:0:0:
248,192,38740,1,8,0:0:0:0:
248,192,39940,1,0,0:0:0:0:
248,192,41140,1,8,0:0:0:0:
248,192,41740,1,0,0:0:0:0:
248,192,42340,1,0,0:0:0:0:
248,192,43540,1,8,0:0:0:0:
248,192,44740,1,0,0:0:0:0:
248,192,45940,1,8,0:0:0:0:
168,104,46240,2,0,P|112:144|104:264,1,192
248,192,47140,1,0,0:0:0:0:
248,192,48040,1,0,0:0:0:0:
248,192,48340,1,8,0:0:0:0:
248,192,49540,1,0,0:0:0:0:
248,192,50440,1,0,0:0:0:0:
248,192,50740,1,8,0:0:0:0:
248,192,51340,1,8,0:0:0:0:
248,192,51940,1,0,0:0:0:0:
248,192,52540,1,0,0:0:0:0:
248,192,52840,1,0,0:0:0:0:
248,192,53140,1,0,0:0:0:0:
248,192,53440,1,0,0:0:0:0:
248,192,53740,1,0,0:0:0:0:
248,192,54040,1,0,0:0:0:0:
248,192,54340,1,8,0:0:0:0:
248,192,54790,1,8,0:0:0:0:
248,192,55240,1,8,0:0:0:0:
248,192,55540,1,8,0:0:0:0:
248,192,55990,1,8,0:0:0:0:
248,192,56440,1,8,0:0:0:0:
248,192,56740,1,4,0:0:0:0:
248,192,57040,1,8,0:0:0:0:
248,192,57640,1,8,0:0:0:0:
248,192,57940,1,0,0:0:0:0:
248,192,58240,1,8,0:0:0:0:
248,192,58840,1,8,0:0:0:0:
248,192,59140,1,0,0:0:0:0:
248,192,59440,1,8,0:0:0:0:
248,192,60040,1,8,0:0:0:0:
256,192,60340,1,0,0:0:0:0:
256,192,60640,1,8,0:0:0:0:
256,192,60790,1,0,0:0:0:0:
248,192,61090,1,0,0:0:0:0:
256,192,61240,1,8,0:0:0:0:
248,192,61540,1,0,0:0:0:0:
256,192,61840,1,8,0:0:0:0:
248,192,62440,1,8,0:0:0:0:
256,192,62740,1,0,0:0:0:0:
248,192,63040,1,8,0:0:0:0:
256,192,63490,1,0,0:0:0:0:
256,192,63640,1,8,0:0:0:0:
256,192,63940,1,12,0:0:0:0:
256,192,64390,1,8,0:0:0:0:
256,192,64840,1,8,0:0:0:0:
8,48,65140,2,0,L|488:48,1,480
256,192,66940,1,0,0:0:0:0:
256,192,67240,1,0,0:0:0:0:
256,192,67540,1,0,0:0:0:0:
256,192,68140,1,8,0:0:0:0:
256,192,68740,1,0,0:0:0:0:
256,192,69190,1,0,0:0:0:0:
256,192,69640,1,0,0:0:0:0:
256,192,69940,1,0,0:0:0:0:
256,192,70540,1,8,0:0:0:0:
256,192,71140,1,0,0:0:0:0:
256,192,71740,1,0,0:0:0:0:
256,192,72040,1,0,0:0:0:0:
256,192,72340,1,0,0:0:0:0:
256,192,72940,1,8,0:0:0:0:
256,192,73540,1,8,0:0:0:0:
256,192,73990,1,8,0:0:0:0:
256,192,74440,1,8,0:0:0:0:
256,192,74740,1,8,0:0:0:0:
256,192,75940,1,4,0:0:0:0:
256,192,76240,1,8,0:0:0:0:
256,192,76840,1,8,0:0:0:0:
256,192,77140,1,0,0:0:0:0:
256,192,77440,1,8,0:0:0:0:
256,192,77890,1,0,0:0:0:0:
256,192,78040,1,8,0:0:0:0:
256,192,78340,1,0,0:0:0:0:
256,192,78640,1,8,0:0:0:0:
256,192,79240,1,8,0:0:0:0:
256,192,79540,1,0,0:0:0:0:
256,192,79840,1,8,0:0:0:0:
256,192,80440,1,8,0:0:0:0:
256,192,80740,1,8,0:0:0:0:
256,192,81040,1,8,0:0:0:0:
256,192,81340,1,8,0:0:0:0:
256,192,81640,1,8,0:0:0:0:
256,192,81940,1,8,0:0:0:0:
256,192,82240,1,8,0:0:0:0:
256,192,82540,1,8,0:0:0:0:
256,192,82840,1,8,0:0:0:0:
256,192,83140,1,8,0:0:0:0:
256,192,83590,1,8,0:0:0:0:
256,192,84040,1,8,0:0:0:0:
256,192,84340,1,0,0:0:0:0:
256,192,84790,1,0,0:0:0:0:
256,192,85240,1,0,0:0:0:0:
256,192,85560,1,0,0:0:0:0:
256,192,86460,1,8,0:0:0:0:
256,192,87360,1,8,0:0:0:0:
256,192,88260,1,0,0:0:0:0:
256,192,89160,1,8,0:0:0:0:
256,192,89760,1,8,0:0:0:0:
256,192,90060,1,8,0:0:0:0:
256,192,90666,1,8,0:0:0:0:
256,192,90940,1,4,0:0:0:0:
256,192,91540,1,0,0:0:0:0:
256,192,91840,1,0,0:0:0:0:
256,192,92140,1,0,0:0:0:0:
256,192,92590,1,0,0:0:0:0:
256,192,93040,1,0,0:0:0:0:
256,192,93340,1,0,0:0:0:0:
256,192,93940,1,0,0:0:0:0:
256,192,94240,1,0,0:0:0:0:
256,192,94540,1,8,0:0:0:0:
256,192,94990,1,8,0:0:0:0:
256,192,95440,1,8,0:0:0:0:
256,192,95740,1,12,0:0:0:0:
256,192,96190,1,8,0:0:0:0:
256,192,96640,1,12,0:0:0:0:
256,192,97090,1,8,0:0:0:0:
256,192,98140,1,4,0:0:0:0:
256,192,98740,1,0,0:0:0:0:
256,192,98890,1,0,0:0:0:0:
256,192,99040,1,8,0:0:0:0:
256,192,99340,1,0,0:0:0:0:
256,192,99940,1,0,0:0:0:0:
256,192,100240,1,8,0:0:0:0:
256,192,100540,1,0,0:0:0:0:
256,192,101140,1,0,0:0:0:0:
256,192,101290,1,0,0:0:0:0:
256,192,101440,1,8,0:0:0:0:
256,192,101740,1,0,0:0:0:0:
256,192,102340,1,0,0:0:0:0:
256,192,102640,1,8,0:0:0:0:
256,192,102940,1,0,0:0:0:0:
256,192,103540,1,0,0:0:0:0:
256,192,103840,1,8,0:0:0:0:
256,192,104140,1,0,0:0:0:0:
256,192,104740,1,0,0:0:0:0:
256,192,105040,1,8,0:0:0:0:
256,192,105340,1,0,0:0:0:0:
256,192,105640,1,8,0:0:0:0:
256,192,105790,1,0,0:0:0:0:
256,192,106090,1,0,0:0:0:0:
256,192,106240,1,8,0:0:0:0:
256,192,106540,1,8,0:0:0:0:
256,192,106990,1,8,0:0:0:0:
256,192,107440,1,8,0:0:0:0:
256,192,107740,1,4,0:0:0:0:
256,192,108340,1,0,0:0:0:0:
256,192,108490,1,0,0:0:0:0:
256,192,108640,1,8,0:0:0:0:
256,192,108940,1,0,0:0:0:0:
256,192,109240,1,8,0:0:0:0:
256,192,109540,1,0,0:0:0:0:
256,192,109840,1,8,0:0:0:0:
256,192,110140,1,0,0:0:0:0:
256,192,110740,1,0,0:0:0:0:
256,192,111340,1,0,0:0:0:0:
256,192,111940,1,0,0:0:0:0:
256,184,112240,1,8,0:0:0:0:
256,184,112540,1,4,0:0:0:0:
256,192,113140,1,0,0:0:0:0:
256,192,113290,1,0,0:0:0:0:
256,192,113440,1,8,0:0:0:0:
256,192,113740,1,8,0:0:0:0:
256,192,114190,1,8,0:0:0:0:
256,192,114640,1,8,0:0:0:0:
256,192,114940,1,0,0:0:0:0:
256,192,115540,1,0,0:0:0:0:
256,192,115840,1,8,0:0:0:0:
120,112,116140,2,4,P|296:112|424:248,1,360
256,192,117340,1,4,0:0:0:0:
256,192,117940,1,0,0:0:0:0:
256,192,118090,1,0,0:0:0:0:
256,192,118240,1,8,0:0:0:0:
256,192,118540,1,0,0:0:0:0:
256,192,119140,1,0,0:0:0:0:
256,192,119440,1,8,0:0:0:0:
256,192,119740,1,0,0:0:0:0:
256,192,120340,1,0,0:0:0:0:
256,192,120490,1,0,0:0:0:0:
256,192,120640,1,8,0:0:0:0:
256,192,120940,1,0,0:0:0:0:
256,192,121540,1,0,0:0:0:0:
256,192,121840,1,8,0:0:0:0:
256,192,122140,1,0,0:0:0:0:
256,192,122740,1,0,0:0:0:0:
256,192,122890,1,0,0:0:0:0:
256,192,123040,1,8,0:0:0:0:
256,192,123340,1,0,0:0:0:0:
256,192,123940,1,0,0:0:0:0:
256,192,124240,1,8,0:0:0:0:
256,192,124540,1,4,0:0:0:0:
256,192,124840,1,8,0:0:0:0:
256,192,124990,1,0,0:0:0:0:
256,192,125290,1,0,0:0:0:0:
256,192,125440,1,8,0:0:0:0:
192,96,125740,2,4,B|360:72|360:72|424:272|424:272,1,360
256,192,126940,1,4,0:0:0:0:
256,192,127540,1,0,0:0:0:0:
256,192,127840,1,8,0:0:0:0:
256,192,128140,1,0,0:0:0:0:
256,192,128440,1,8,0:0:0:0:
256,192,128740,1,0,0:0:0:0:
256,192,129040,1,8,0:0:0:0:
256,192,129340,1,0,0:0:0:0:
256,192,129940,1,0,0:0:0:0:
256,192,130090,1,0,0:0:0:0:
256,192,130240,1,8,0:0:0:0:
256,192,130540,1,8,0:0:0:0:
256,192,130990,1,8,0:0:0:0:
256,192,131440,1,8,0:0:0:0:
256,192,131740,1,4,0:0:0:0:
256,192,132190,1,0,0:0:0:0:
256,192,132640,1,0,0:0:0:0:
256,192,132940,1,0,0:0:0:0:
256,192,133390,1,0,0:0:0:0:
256,192,133840,1,0,0:0:0:0:
256,192,134140,1,0,0:0:0:0:
256,192,134440,1,8,0:0:0:0:
256,192,134590,1,8,0:0:0:0:
256,192,134890,1,8,0:0:0:0:
256,192,135040,1,8,0:0:0:0:
256,192,135340,1,0,0:0:0:0:
256,192,135640,1,0,0:0:0:0:
256,192,135790,1,0,0:0:0:0:
256,192,135940,1,0,0:0:0:0:
256,192,136540,1,4,0:0:0:0:
256,192,136840,1,8,0:0:0:0:
256,192,137140,1,8,0:0:0:0:
256,192,137440,1,8,0:0:0:0:
256,192,137740,1,8,0:0:0:0:
256,192,138040,1,8,0:0:0:0:
256,192,138340,1,8,0:0:0:0:
256,192,138640,1,8,0:0:0:0:
256,192,138940,1,12,0:0:0:0:
256,192,139390,1,12,0:0:0:0:
256,192,139840,1,12,0:0:0:0:
256,192,140290,1,12,0:0:0:0:
256,192,141340,1,4,0:0:0:0:
256,192,141790,1,8,0:0:0:0:
256,192,142240,1,8,0:0:0:0:
256,192,142690,1,8,0:0:0:0:
256,192,143140,1,8,0:0:0:0:
256,192,143440,1,8,0:0:0:0:
256,192,143740,1,4,0:0:0:0:
256,192,144340,1,0,0:0:0:0:
256,192,144640,1,8,0:0:0:0:
256,192,144790,1,0,0:0:0:0:
256,192,145540,1,0,0:0:0:0:
256,192,145840,1,8,0:0:0:0:
256,192,145990,1,0,0:0:0:0:
256,192,146740,1,0,0:0:0:0:
256,192,147040,1,8,0:0:0:0:
256,192,147190,1,8,0:0:0:0:
256,192,147640,1,8,0:0:0:0:
256,192,147940,1,8,0:0:0:0:
256,192,148240,1,8,0:0:0:0:
248,192,148540,1,4,0:0:0:0:
248,192,149140,1,8,0:0:0:0:
248,192,149590,1,8,0:0:0:0:
248,192,149890,1,0,0:0:0:0:
248,192,150040,1,0,0:0:0:0:
248,192,150190,1,8,0:0:0:0:
248,192,150790,1,12,0:0:0:0:
248,192,151240,1,8,0:0:0:0:
248,192,151540,1,8,0:0:0:0:
248,192,151990,1,4,0:0:0:0:
248,192,152440,1,0,0:0:0:0:
248,192,152590,1,0,0:0:0:0:
248,192,153040,1,8,0:0:0:0:
248,192,153340,1,0,0:0:0:0:
248,192,153490,1,0,0:0:0:0:
256,192,153940,1,8,0:0:0:0:
256,192,154390,1,0,0:0:0:0:
256,192,154840,1,0,0:0:0:0:
256,192,155140,1,8,0:0:0:0:
256,192,155740,1,0,0:0:0:0:
256,192,155890,1,0,0:0:0:0:
256,192,156340,1,8,0:0:0:0:
256,192,156640,1,0,0:0:0:0:
256,192,156790,1,0,0:0:0:0:
256,192,157090,1,0,0:0:0:0:
256,192,157240,1,0,0:0:0:0:
256,192,157540,1,8,0:0:0:0:
256,192,158140,1,0,0:0:0:0:
256,192,158290,1,0,0:0:0:0:
256,192,158740,1,8,0:0:0:0:
256,192,159190,1,0,0:0:0:0:
256,192,159640,1,0,0:0:0:0:
256,192,159940,1,8,0:0:0:0:
256,192,160240,1,0,0:0:0:0:
256,192,160540,1,8,0:0:0:0:
256,192,160990,1,8,0:0:0:0:
256,192,161440,1,8,0:0:0:0:
256,192,162040,1,8,0:0:0:0:
256,192,162340,1,8,0:0:0:0:
256,192,162640,1,8,0:0:0:0:
256,192,162790,1,8,0:0:0:0:
256,192,162940,1,0,0:0:0:0:
256,192,163090,1,0,0:0:0:0:
256,192,163540,1,8,0:0:0:0:
256,192,163990,1,0,0:0:0:0:
256,192,164440,1,0,0:0:0:0:
256,192,164740,1,8,0:0:0:0:
256,192,164890,1,0,0:0:0:0:
256,192,165340,1,0,0:0:0:0:
256,192,165490,1,0,0:0:0:0:
256,192,165940,1,8,0:0:0:0:
256,192,166390,1,0,0:0:0:0:
256,192,166840,1,0,0:0:0:0:
256,192,167140,1,8,0:0:0:0:
256,192,167440,1,8,0:0:0:0:
256,192,167740,1,0,0:0:0:0:
256,192,167890,1,0,0:0:0:0:
256,192,168340,1,8,0:0:0:0:
256,192,168790,1,0,0:0:0:0:
256,192,169240,1,0,0:0:0:0:
256,192,169540,1,8,0:0:0:0:
256,192,169840,1,8,0:0:0:0:
256,192,169990,1,8,0:0:0:0:
256,192,170140,1,4,0:0:0:0:
256,192,170590,1,4,0:0:0:0:
256,192,171040,1,12,0:0:0:0:
248,192,172540,1,4,0:0:0:0:
248,192,172840,1,8,0:0:0:0:
248,192,173440,1,8,0:0:0:0:
248,192,173740,1,0,0:0:0:0:
248,192,174040,1,8,0:0:0:0:
248,192,174490,1,0,0:0:0:0:
248,192,174640,1,8,0:0:0:0:
248,192,174940,1,0,0:0:0:0:
248,192,175240,1,8,0:0:0:0:
248,192,175840,1,8,0:0:0:0:
256,192,176140,1,0,0:0:0:0:
256,192,176440,1,8,0:0:0:0:
256,192,176590,1,0,0:0:0:0:
248,192,176890,1,0,0:0:0:0:
256,192,177040,1,8,0:0:0:0:
248,192,177340,1,0,0:0:0:0:
256,192,177640,1,8,0:0:0:0:
256,192,178090,1,0,0:0:0:0:
248,192,178240,1,8,0:0:0:0:
256,192,178540,1,0,0:0:0:0:
248,192,178840,1,8,0:0:0:0:
256,192,179290,1,0,0:0:0:0:
256,192,179440,1,8,0:0:0:0:
256,192,179740,1,12,0:0:0:0:
256,192,180190,1,8,0:0:0:0:
256,192,180640,1,8,0:0:0:0:
8,48,180940,2,0,L|488:48,1,480
256,192,182740,1,0,0:0:0:0:
256,192,183040,1,0,0:0:0:0:
256,192,183340,1,0,0:0:0:0:
256,192,183940,1,8,0:0:0:0:
256,192,184540,1,0,0:0:0:0:
256,192,184990,1,0,0:0:0:0:
256,192,185440,1,0,0:0:0:0:
256,192,185740,1,0,0:0:0:0:
256,192,186340,1,8,0:0:0:0:
256,192,186490,1,0,0:0:0:0:
256,192,186640,1,0,0:0:0:0:
256,192,186940,1,4,0:0:0:0:
256,192,187540,1,0,0:0:0:0:
256,192,187840,1,0,0:0:0:0:
256,192,188140,1,0,0:0:0:0:
256,192,188740,1,8,0:0:0:0:
256,192,189040,1,0,0:0:0:0:
256,192,189340,1,8,0:0:0:0:
256,192,189790,1,8,0:0:0:0:
256,192,190240,1,8,0:0:0:0:
256,192,190540,1,0,0:0:0:0:
256,192,190840,1,8,0:0:0:0:
256,192,190990,1,8,0:0:0:0:
256,192,191140,1,8,0:0:0:0:
256,192,191740,1,4,0:0:0:0:
256,192,192340,1,0,0:0:0:0:
256,192,192640,1,0,0:0:0:0:
256,192,192790,1,0,0:0:0:0:
256,192,192940,1,8,0:0:0:0:
256,192,193390,1,0,0:0:0:0:
256,192,193840,1,0,0:0:0:0:
256,192,194140,1,0,0:0:0:0:
256,192,194590,1,0,0:0:0:0:
256,192,195040,1,0,0:0:0:0:
256,192,195190,1,0,0:0:0:0:
256,192,195340,1,8,0:0:0:0:
256,192,195640,1,0,0:0:0:0:
256,192,195940,1,8,0:0:0:0:
256,192,196240,1,8,0:0:0:0:
256,192,196390,1,8,0:0:0:0:
256,192,196540,1,8,0:0:0:0:
256,192,196840,1,8,0:0:0:0:
256,192,197140,1,8,0:0:0:0:
256,192,197440,1,8,0:0:0:0:
256,192,197740,1,8,0:0:0:0:
256,192,198040,1,8,0:0:0:0:
256,192,198340,1,8,0:0:0:0:
256,192,198640,1,8,0:0:0:0:
256,192,198940,1,8,0:0:0:0:
256,192,199390,1,8,0:0:0:0:
256,192,199840,1,8,0:0:0:0:
256,192,200140,1,0,0:0:0:0:
256,192,200590,1,0,0:0:0:0:
256,192,201040,1,0,0:0:0:0:
256,192,201360,1,0,0:0:0:0:
256,192,202260,1,8,0:0:0:0:
256,192,203160,1,8,0:0:0:0:
256,192,203760,1,8,0:0:0:0:
256,192,204060,1,0,0:0:0:0:
256,192,204960,1,8,0:0:0:0:
256,192,205560,1,8,0:0:0:0:
256,192,205860,1,8,0:0:0:0:
256,192,206163,1,0,0:0:0:0:
256,192,206466,1,8,0:0:0:0:
256,192,206740,1,4,0:0:0:0:
256,192,207340,1,0,0:0:0:0:
256,192,207490,1,8,0:0:0:0:
256,192,207790,1,8,0:0:0:0:
256,192,207940,1,0,0:0:0:0:
256,192,208540,1,0,0:0:0:0:
256,192,208690,1,8,0:0:0:0:
256,192,208990,1,8,0:0:0:0:
256,192,209140,1,0,0:0:0:0:
256,192,209740,1,0,0:0:0:0:
256,192,209890,1,8,0:0:0:0:
256,192,210190,1,8,0:0:0:0:
256,192,210340,1,0,0:0:0:0:
256,192,210790,1,8,0:0:0:0:
256,192,211240,1,8,0:0:0:0:
256,192,211540,1,12,0:0:0:0:
256,192,211840,1,8,0:0:0:0:
256,192,211990,1,8,0:0:0:0:
256,192,212440,1,12,0:0:0:0:
256,192,212740,1,8,0:0:0:0:
256,192,212890,1,8,0:0:0:0:
256,192,213340,1,0,0:0:0:0:
256,192,213490,1,8,0:0:0:0:
256,192,213940,1,4,0:0:0:0:
256,192,214540,1,0,0:0:0:0:
256,192,214690,1,0,0:0:0:0:
256,192,214990,1,12,0:0:0:0:
256,192,216040,1,4,0:0:0:0:
256,192,216650,1,0,0:0:0:0:
256,192,216800,1,0,0:0:0:0:
256,192,217100,1,12,0:0:0:0:
256,192,217550,1,8,0:0:0:0:
256,192,217850,1,4,0:0:0:0:
256,192,218450,1,0,0:0:0:0:
256,192,218600,1,0,0:0:0:0:
256,192,218900,1,12,0:0:0:0:
256,192,219950,1,4,0:0:0:0:
256,192,220550,1,0,0:0:0:0:
256,192,220700,1,0,0:0:0:0:
256,192,221000,1,12,0:0:0:0:
256,192,221450,1,8,0:0:0:0:
256,192,221750,1,8,0:0:0:0:
256,192,222050,1,8,0:0:0:0:
256,192,222350,1,12,0:0:0:0:
256,192,222800,1,0,0:0:0:0:
256,192,223250,1,8,0:0:0:0:
256,192,223400,1,8,0:0:0:0:
256,192,223700,1,8,0:0:0:0:
256,192,223850,1,8,0:0:0:0:
256,192,224000,1,8,0:0:0:0:
256,192,224300,1,8,0:0:0:0:
256,192,224450,1,8,0:0:0:0:
256,192,224750,1,0,0:0:0:0:
256,192,225200,1,0,0:0:0:0:
256,192,225650,1,0,0:0:0:0:
256,192,226100,1,12,0:0:0:0:
256,192,227000,1,12,0:0:0:0:
256,192,227450,1,8,0:0:0:0:
256,192,227900,1,12,0:0:0:0:
256,192,229420,1,8,0:0:0:0:
256,192,230320,1,8,0:0:0:0:
256,192,230920,1,8,0:0:0:0:
256,192,231220,1,0,0:0:0:0:
256,192,232120,1,0,0:0:0:0:
256,192,233020,1,8,0:0:0:0:
256,192,233320,1,0,0:0:0:0:
256,192,233620,1,8,0:0:0:0:
256,192,233920,1,8,0:0:0:0:
256,192,234223,1,0,0:0:0:0:
256,192,234526,1,8,0:0:0:0:
256,192,234800,1,4,0:0:0:0:
256,192,235100,1,8,0:0:0:0:
256,192,235400,1,0,0:0:0:0:
256,192,235550,1,8,0:0:0:0:
256,192,235850,1,8,0:0:0:0:
256,192,236000,1,0,0:0:0:0:
256,192,236600,1,0,0:0:0:0:
256,192,236750,1,8,0:0:0:0:
256,192,237050,1,8,0:0:0:0:
256,192,237200,1,0,0:0:0:0:
256,192,237500,1,8,0:0:0:0:
256,192,237800,1,0,0:0:0:0:
256,192,237950,1,8,0:0:0:0:
256,192,238250,1,8,0:0:0:0:
256,192,238400,1,0,0:0:0:0:
256,192,238850,1,8,0:0:0:0:
256,192,239300,1,8,0:0:0:0:
256,192,239600,1,12,0:0:0:0:
256,192,239900,1,8,0:0:0:0:
256,192,240050,1,8,0:0:0:0:
256,192,240500,1,12,0:0:0:0:
256,192,240800,1,8,0:0:0:0:
256,192,240950,1,8,0:0:0:0:
256,192,241400,1,0,0:0:0:0:
256,192,241550,1,8,0:0:0:0:
256,192,242000,1,12,0:0:0:0:
256,192,242300,1,8,0:0:0:0:
256,192,242600,1,8,0:0:0:0:
256,192,242900,1,8,0:0:0:0:
256,192,243200,1,8,0:0:0:0:
256,192,243350,1,8,0:0:0:0:
256,192,243650,1,8,0:0:0:0:
256,192,243800,1,8,0:0:0:0:
256,192,243950,1,4,0:0:0:0:
256,192,244700,1,0,0:0:0:0:
256,192,245000,1,0,0:0:0:0:
256,192,245300,1,8,0:0:0:0:
256,192,245600,1,12,0:0:0:0:
256,192,245750,1,12,0:0:0:0:
256,192,245900,1,12,0:0:0:0:
256,192,247850,1,4,0:0:0:0:
256,192,248150,1,4,0:0:0:0:
256,192,248300,1,4,0:0:0:0:
256,192,249800,1,0,0:0:0:0:
256,192,249950,1,8,0:0:0:0:
256,192,250400,1,12,0:0:0:0:
256,192,250550,1,12,0:0:0:0:
256,192,250700,1,12,0:0:0:0:
256,192,251600,1,8,0:0:0:0:
256,192,251900,1,0,0:0:0:0:
256,192,252050,1,8,0:0:0:0:
256,192,252350,1,0,0:0:0:0:
256,192,252500,1,8,0:0:0:0:
256,192,252800,1,4,0:0:0:0:
256,192,253100,1,8,0:0:0:0:
256,192,253250,1,8,0:0:0:0:
256,192,253400,1,8,0:0:0:0:
256,192,253700,1,8,0:0:0:0:
256,192,253850,1,8,0:0:0:0:
256,192,254000,1,12,0:0:0:0:
256,192,254450,1,12,0:0:0:0:
256,192,254900,1,12,0:0:0:0:
256,192,255190,1,4,0:0:0:0:
256,192,255490,1,8,0:0:0:0:
256,192,255640,1,0,0:0:0:0:
256,192,255940,1,0,0:0:0:0:
256,192,256090,1,8,0:0:0:0:
256,192,256390,1,0,0:0:0:0:
256,192,256690,1,8,0:0:0:0:
256,192,256840,1,0,0:0:0:0:
256,192,257140,1,0,0:0:0:0:
256,192,257290,1,8,0:0:0:0:
256,192,257590,1,4,0:0:0:0:
256,192,257890,1,8,0:0:0:0:
256,192,258040,1,8,0:0:0:0:
256,192,258340,1,8,0:0:0:0:
256,192,258490,1,8,0:0:0:0:
256,192,258790,1,0,0:0:0:0:
256,192,259090,1,0,0:0:0:0:
256,192,259240,1,0,0:0:0:0:
256,192,259540,1,0,0:0:0:0:
256,192,259690,1,0,0:0:0:0:
256,192,259990,1,4,0:0:0:0:
256,192,260590,1,0,0:0:0:0:
256,192,260890,1,8,0:0:0:0:
256,192,261190,1,0,0:0:0:0:
256,192,261490,1,8,0:0:0:0:
256,192,261790,1,0,0:0:0:0:
256,184,262090,1,8,0:0:0:0:
256,184,262390,1,4,0:0:0:0:
256,192,262990,1,0,0:0:0:0:
256,192,263140,1,0,0:0:0:0:
256,192,263290,1,8,0:0:0:0:
96,120,263590,2,4,P|80:240|288:320,1,360
256,192,264790,1,4,0:0:0:0:
256,192,265090,1,8,0:0:0:0:
256,192,265390,1,0,0:0:0:0:
256,192,265540,1,0,0:0:0:0:
256,192,265690,1,8,0:0:0:0:
256,192,265990,1,0,0:0:0:0:
256,192,266590,1,0,0:0:0:0:
256,192,266890,1,8,0:0:0:0:
256,192,267190,1,0,0:0:0:0:
256,192,267490,1,8,0:0:0:0:
256,192,267790,1,0,0:0:0:0:
256,192,267940,1,0,0:0:0:0:
256,192,268090,1,8,0:0:0:0:
256,192,268390,1,0,0:0:0:0:
256,192,268990,1,0,0:0:0:0:
256,192,269290,1,8,0:0:0:0:
256,192,269590,1,4,0:0:0:0:
256,192,269890,1,8,0:0:0:0:
256,192,270190,1,0,0:0:0:0:
256,192,270340,1,0,0:0:0:0:
256,192,270490,1,8,0:0:0:0:
256,192,270790,1,0,0:0:0:0:
256,192,271090,1,8,0:0:0:0:
256,192,271390,1,0,0:0:0:0:
256,192,271690,1,8,0:0:0:0:
256,192,271990,1,4,0:0:0:0:
256,192,272440,1,0,0:0:0:0:
256,192,272890,1,8,0:0:0:0:
0,128,273190,2,4,B|112:256|320:312|320:312,1,360
256,192,274390,1,4,0:0:0:0:
256,192,274990,1,0,0:0:0:0:
256,192,275140,1,0,0:0:0:0:
256,192,275290,1,8,0:0:0:0:
256,192,275590,1,0,0:0:0:0:
256,192,275890,1,8,0:0:0:0:
256,192,276190,1,0,0:0:0:0:
256,192,276490,1,8,0:0:0:0:
256,192,276790,1,0,0:0:0:0:
256,192,277390,1,0,0:0:0:0:
256,192,277540,1,0,0:0:0:0:
256,192,277690,1,8,0:0:0:0:
256,192,277990,1,8,0:0:0:0:
256,192,278290,1,8,0:0:0:0:
256,192,278440,1,8,0:0:0:0:
256,192,278890,1,8,0:0:0:0:
256,192,279190,1,4,0:0:0:0:
256,192,279490,1,8,0:0:0:0:
256,192,279790,1,8,0:0:0:0:
256,192,280090,1,8,0:0:0:0:
256,192,280390,1,0,0:0:0:0:
256,192,280690,1,8,0:0:0:0:
256,192,280990,1,8,0:0:0:0:
256,192,281290,1,8,0:0:0:0:
256,192,281590,1,0,0:0:0:0:
256,192,281890,1,8,0:0:0:0:
256,192,282190,1,8,0:0:0:0:
256,192,282490,1,8,0:0:0:0:
88,80,282790,2,4,L|464:72,1,360
256,192,283990,1,4,0:0:0:0:
256,192,284290,1,8,0:0:0:0:
256,192,284590,1,8,0:0:0:0:
256,192,284890,1,8,0:0:0:0:
256,192,285190,1,8,0:0:0:0:
256,192,285490,1,8,0:0:0:0:
256,192,285790,1,8,0:0:0:0:
256,192,286090,1,8,0:0:0:0:
256,192,286390,1,12,0:0:0:0:
256,192,286840,1,12,0:0:0:0:
256,192,287290,1,12,0:0:0:0:
256,192,287740,1,12,0:0:0:0:
256,192,288790,1,4,0:0:0:0:
256,192,289240,1,8,0:0:0:0:
256,192,289690,1,8,0:0:0:0:
256,192,290140,1,8,0:0:0:0:
256,192,290440,1,8,0:0:0:0:
256,192,290590,1,8,0:0:0:0:
256,192,290890,1,8,0:0:0:0:
256,192,291190,1,4,0:0:0:0:
256,192,291490,1,0,0:0:0:0:
256,192,291790,1,8,0:0:0:0:
256,192,292240,1,0,0:0:0:0:
256,192,292690,1,0,0:0:0:0:
256,192,292990,1,8,0:0:0:0:
256,192,293440,1,0,0:0:0:0:
256,192,293890,1,0,0:0:0:0:
256,192,294190,1,8,0:0:0:0:
256,192,294640,1,8,0:0:0:0:
256,192,295090,1,8,0:0:0:0:
256,192,295390,1,8,0:0:0:0:
256,192,295690,1,8,0:0:0:0:
256,192,295990,1,4,0:0:0:0:
256,192,296290,1,8,0:0:0:0:
256,192,296590,1,8,0:0:0:0:
256,192,296890,1,8,0:0:0:0:
256,192,297040,1,4,0:0:0:0:
256,192,297490,1,8,0:0:0:0:
256,192,297790,1,8,0:0:0:0:
256,192,298090,1,8,0:0:0:0:
256,192,298240,1,4,0:0:0:0:
256,192,298690,1,8,0:0:0:0:
256,192,298990,1,8,0:0:0:0:
256,192,299290,1,8,0:0:0:0:
256,192,299440,1,12,0:0:0:0:
256,192,299890,1,8,0:0:0:0:
256,192,300190,1,12,0:0:0:0:
256,192,300640,1,4,0:0:0:0:
256,192,300940,1,0,0:0:0:0:
256,192,301090,1,8,0:0:0:0:
256,192,301390,1,0,0:0:0:0:
256,192,301690,1,8,0:0:0:0:
256,192,301840,1,0,0:0:0:0:
256,192,302290,1,8,0:0:0:0:
256,192,302590,1,0,0:0:0:0:
256,192,302890,1,8,0:0:0:0:
256,192,303040,1,0,0:0:0:0:
256,192,303490,1,8,0:0:0:0:
256,192,303790,1,0,0:0:0:0:
256,192,304090,1,8,0:0:0:0:
256,192,304240,1,8,0:0:0:0:
248,192,304690,1,8,0:0:0:0:
256,192,304990,1,8,0:0:0:0:
256,192,305290,1,8,0:0:0:0:
248,192,305590,1,4,0:0:0:0:
248,192,305890,1,8,0:0:0:0:
248,192,306190,1,8,0:0:0:0:
248,192,306640,1,8,0:0:0:0:
248,192,306940,1,0,0:0:0:0:
248,192,307090,1,0,0:0:0:0:
248,192,307240,1,8,0:0:0:0:
248,192,307840,1,12,0:0:0:0:
248,192,308290,1,8,0:0:0:0:
248,192,308590,1,8,0:0:0:0:
248,192,308890,1,8,0:0:0:0:
248,192,309040,1,4,0:0:0:0:
248,192,309340,1,0,0:0:0:0:
248,192,309490,1,0,0:0:0:0:
248,192,309640,1,0,0:0:0:0:
248,192,310090,1,0,0:0:0:0:
248,192,310390,1,4,0:0:0:0:
256,192,310540,8,0,315790,0:0:0:0:
