osu file format v14

[General]
AudioFilename: marina - Towa yori Towa ni.mp3
AudioLeadIn: 0
PreviewTime: 95681
Countdown: 0
SampleSet: Normal
StackLeniency: 0.7
Mode: 0
LetterboxInBreaks: 0
WidescreenStoryboard: 0

[Editor]
DistanceSpacing: 1
BeatDivisor: 2
GridSize: 4
TimelineZoom: 1.580001

[Metadata]
Title:Towa yori Towa ni (Short Ver.)
TitleUnicode:永久より永遠に (Short Ver.)
Artist:marina
ArtistUnicode:marina
Creator:DavidEd
Version:Normal
Source:少女神域∽少女天獄 -The Garden of Fifth Zoa-
Tags:Shoujo Shin'iki Tengoku ed ending visual novel eroge -Hakurei- lit120
BeatmapID:839986
BeatmapSetID:348479

[Difficulty]
HPDrainRate:4
CircleSize:3.5
OverallDifficulty:4
ApproachRate:5
SliderMultiplier:1
SliderTickRate:1

[Events]
//Background and Video events
0,0,"BG.jpg",0,0
//Break Periods
//Storyboard Layer 0 (Background)
//Storyboard Layer 1 (Fail)
//Storyboard Layer 2 (Pass)
//Storyboard Layer 3 (Foreground)
//Storyboard Sound Samples

[TimingPoints]
10846,300,4,1,2,40,1,0
11746,-100,4,1,1,40,0,0
16246,-100,4,1,2,40,0,0
16846,-100,4,1,1,40,0,0
36046,-100,4,2,1,40,0,0
50446,-100,4,1,2,25,0,0
51646,-100,4,1,2,30,0,0
52846,-100,4,1,2,35,0,0
54046,-100,4,1,1,40,0,0
63646,-100,4,1,2,40,0,0
64546,-100,4,1,1,40,0,0
83296,-100,4,1,2,40,0,0
83746,-100,4,1,1,40,0,0
84046,300,3,1,1,40,1,0
84046,-100,3,2,1,40,0,0
89446,300,4,1,1,40,1,0
89446,-100,4,1,1,40,0,0
93046,-100,4,1,1,40,0,0
94396,-100,4,1,2,40,0,0
94546,-100,4,1,1,40,0,0
95296,-100,4,1,2,40,0,0
95446,-100,4,1,1,40,0,0
96646,-100,4,1,1,50,0,1
113446,-100,4,1,1,45,0,0
115246,-100,4,1,2,45,0,0
115846,-100,4,1,1,50,0,1
124246,-100,4,1,2,50,0,1
125146,-100,4,1,1,50,0,1
139846,-100,4,1,1,40,0,0
143446,-100,4,1,1,30,0,0
144646,-100,4,1,1,20,0,0
145846,-100,4,1,1,10,0,0
147046,-100,4,2,1,10,0,0

[Colours]
Combo1 : 255,128,64
Combo2 : 255,128,255
Combo3 : 128,0,64
Combo4 : 255,0,0

[HitObjects]
119,87,10846,6,0,P|154:123|213:134,1,100,2|2,0:0|0:0,0:0:0:0:
250,128,11296,2,0,P|297:109|356:113,1,100,2|2,0:0|0:0,0:0:0:0:
389,135,11746,1,8,0:0:0:0:
421,229,12046,6,0,P|399:281|352:312,1,100,6|2,0:0|0:0,0:0:0:0:
265,305,12646,2,0,P|219:284|167:286,1,100,2|2,0:0|0:0,0:0:0:0:
122,300,13096,2,0,B|121:251|121:251|99:216|99:216|99:145,1,150,2|2,0:0|0:0,0:0:0:0:
137,63,13846,2,0,P|178:90|198:140,1,100,2|2,0:0|0:0,0:0:0:0:
205,184,14296,6,0,P|211:257|268:307,1,150,2|2,0:0|0:0,0:0:0:0:
359,332,15046,2,0,P|400:313|430:265,1,100,2|2,0:0|0:0,0:0:0:0:
434,218,15496,2,0,P|411:147|345:106,1,150,2|2,0:0|0:0,0:0:0:0:
256,142,16246,1,2,0:0:0:0:
188,72,16546,1,2,0:0:0:0:
115,141,16846,6,0,P|98:191|108:240,1,100,2|2,0:0|0:0,0:0:0:0:
165,317,17446,2,0,P|213:304|271:324,1,100,2|2,0:0|0:0,0:0:0:0:
308,331,17896,2,0,P|383:303|417:224,1,150,2|2,0:0|0:0,0:0:0:0:
413,144,18646,2,0,P|359:145|315:124,1,100,2|2,0:0|0:0,0:0:0:0:
282,90,19096,6,0,P|205:70|139:94,1,150,2|2,0:0|0:0,0:0:0:0:
78,166,19846,2,0,P|74:215|99:267,1,100,2|2,0:0|0:0,0:0:0:0:
122,302,20296,2,0,B|166:270|166:270|209:272|209:272|256:235,1,150,2|2,0:0|0:0,0:0:0:0:
293,149,21046,2,0,P|342:137|389:153,1,100,8|2,0:0|0:0,0:0:0:0:
430,178,21496,6,0,B|443:254|443:254|429:331,1,150,6|8,0:0|0:0,0:0:0:0:
329,324,22246,2,0,P|281:310|225:325,1,100,2|8,0:0|0:0,0:0:0:0:
184,333,22696,2,0,P|113:315|74:249,1,150,2|8,0:0|0:0,0:0:0:0:
62,153,23446,2,0,P|114:161|161:144,1,100,2|8,0:0|0:0,0:0:0:0:
189,106,23896,6,0,P|250:73|331:83,1,150,2|8,0:0|0:0,0:0:0:0:
411,137,24646,1,2,0:0:0:0:
398,236,24946,1,8,0:0:0:0:
398,236,25096,2,0,P|325:251|278:307,1,150,2|8,0:0|0:0,0:0:0:0:
181,331,25846,2,0,P|132:326|90:292,1,100,2|8,0:0|0:0,0:0:0:0:
52,204,26446,5,2,0:0:0:0:
105,119,26746,1,8,0:0:0:0:
203,136,27046,2,0,P|251:149|302:136,1,100,8|2,0:0|0:0,0:0:0:0:
344,116,27496,2,0,B|353:167|353:167|392:201|392:201|406:260,1,150,8|2,0:0|0:0,0:0:0:0:
412,296,28096,1,0,0:0:0:0:
324,344,28396,2,0,L|264:340,1,50
224,352,28696,6,0,P|196:280|144:228,1,150
56,184,29446,2,0,P|80:120|144:72,1,150,6|8,0:0|0:0,0:0:0:0:
292,76,30346,1,0,0:0:0:0:
356,152,30646,2,0,P|345:203|315:246,1,100,2|8,0:0|0:0,0:0:0:0:
220,252,31246,5,4,0:0:0:0:
256,192,31546,12,2,34846,0:0:0:0:
172,280,36046,5,4,0:0:0:0:
244,348,36346,1,0,0:0:0:0:
340,324,36646,2,0,P|388:280|404:240,1,100,2|0,0:0|0:0,0:0:0:0:
429,209,37096,2,0,P|417:137|362:86,1,150,2|0,0:0|0:0,0:0:0:0:
274,39,37846,2,0,P|263:90|277:139,1,100,2|0,0:0|0:0,0:0:0:0:
287,234,38446,6,0,P|215:214|176:144,2,150,2|0|2,0:0|0:0|0:0,0:0:0:0:
381,196,39646,1,0,0:0:0:0:
466,145,39946,1,0,0:0:0:0:
464,244,40246,2,0,P|408:227|380:194,1,100,2|0,0:0|0:0,0:0:0:0:
324,114,40846,5,2,0:0:0:0:
243,54,41146,1,0,0:0:0:0:
160,110,41446,2,0,P|130:151|122:200,1,100,2|0,0:0|0:0,0:0:0:0:
113,248,41896,2,0,P|173:307|245:305,1,150,2|0,0:0|0:0,0:0:0:0:
333,327,42646,2,0,P|328:273|302:236,1,100,2|0,0:0|0:0,0:0:0:0:
205,212,43246,6,0,P|249:152|320:138,2,150,2|0|2,0:0|0:0|0:0,0:0:0:0:
367,329,44746,1,0,0:0:0:0:
437,257,45046,2,0,L|431:155,1,100,2|0,0:0|0:0,0:0:0:0:
372,75,45646,5,2,0:0:0:0:
280,112,45946,1,0,0:0:0:0:
256,208,46246,2,0,P|219:241|170:248,1,100,2|0,0:0|0:0,0:0:0:0:
124,269,46696,2,0,B|117:214|117:214|88:185|88:185|81:128,1,150,2|0,0:0|0:0,0:0:0:0:
151,60,47446,2,0,P|190:85|246:89,1,100,2|0,0:0|0:0,0:0:0:0:
338,62,48046,6,0,P|406:83|442:152,2,150,2|0|2,0:0|0:0|0:0,0:0:0:0:
172,174,49546,1,0,0:0:0:0:
116,257,49846,2,0,P|162:276|212:268,1,100,2|0,0:0|0:0,0:0:0:0:
302,228,50446,6,0,P|350:218|401:232,1,100,2|2,0:0|0:0,0:0:0:0:
397,330,51046,2,0,P|348:339|297:325,1,100,2|2,0:0|0:0,0:0:0:0:
214,275,51646,2,0,P|165:262|117:271,2,100,2|2|2,0:0|0:0|0:0,0:0:0:0:
300,326,52546,1,2,0:0:0:0:
384,273,52846,6,0,P|382:219|352:173,1,100,10|10,0:0|0:0,0:0:0:0:
319,88,53446,2,0,P|276:121|259:163,1,100,2|8,0:0|0:0,0:0:0:0:
272,256,54046,2,0,P|212:324|129:320,2,150,12|12|12,0:0|0:0|0:0,0:0:0:0:
274,156,55246,5,6,0:0:0:0:
211,78,55546,1,8,0:0:0:0:
111,84,55846,2,0,P|116:134|103:184,1,100,2|8,0:0|0:0,0:0:0:0:
79,225,56296,2,0,P|82:277|106:319,1,100,2|8,0:0|0:0,0:0:0:0:
152,334,56746,1,8,0:0:0:0:
251,334,57046,2,0,P|262:285|245:228,1,100,2|8,0:0|0:0,0:0:0:0:
250,137,57646,6,0,P|298:113|346:113,1,100,2|8,0:0|0:0,0:0:0:0:
434,155,58246,2,0,L|431:256,1,100,2|8,0:0|0:0,0:0:0:0:
418,303,58696,2,0,P|367:296|318:316,1,100,2|2,0:0|0:0,0:0:0:0:
279,338,59146,1,8,0:0:0:0:
179,339,59446,2,0,P|132:321|99:281,1,100,2|8,0:0|0:0,0:0:0:0:
71,188,60046,6,0,P|92:141|137:105,1,100,2|8,0:0|0:0,0:0:0:0:
228,96,60646,2,0,P|263:130|312:143,1,100,2|8,0:0|0:0,0:0:0:0:
359,130,61096,2,0,P|398:163|418:209,1,100,2|2,0:0|0:0,0:0:0:0:
417,256,61546,1,8,0:0:0:0:
351,331,61846,2,0,P|323:292|318:238,1,100,2|8,0:0|0:0,0:0:0:0:
311,142,62446,6,0,B|259:157|259:157|222:141|222:141|163:161,1,150,12|12,0:0|0:0,0:0:0:0:
76,276,63346,1,8,0:0:0:0:
155,337,63646,2,0,P|233:335|287:287,2,150,2|2|8,0:0|0:0|0:0,0:0:0:0:
76,276,64846,6,0,L|76:173,1,100,6|2,0:0|0:0,0:0:0:0:
104,80,65446,2,0,P|152:109|173:153,1,100,2|2,0:0|0:0,0:0:0:0:
213,238,66046,2,0,L|321:240,1,100,2|2,0:0|0:0,0:0:0:0:
399,189,66646,1,8,0:0:0:0:
396,288,66946,1,2,0:0:0:0:
312,342,67246,6,0,L|193:339,1,100,2|2,0:0|0:0,0:0:0:0:
162,332,67696,2,0,P|126:272|121:184,1,150
103,91,68446,2,0,L|223:82,1,100,2|2,0:0|0:0,0:0:0:0:
293,42,69046,1,8,0:0:0:0:
388,70,69346,1,2,0:0:0:0:
436,157,69646,6,0,L|431:259,1,100,2|2,0:0|0:0,0:0:0:0:
353,319,70246,2,0,P|302:305|253:320,1,100,2|2,0:0|0:0,0:0:0:0:
159,336,70846,2,0,P|110:319|80:282,1,100,2|2,0:0|0:0,0:0:0:0:
77,182,71446,1,8,0:0:0:0:
151,115,71746,1,2,0:0:0:0:
250,123,72046,6,0,P|258:173|280:222,1,100,2|2,0:0|0:0,0:0:0:0:
324,236,72496,2,0,P|392:217|452:156,1,150
424,63,73246,1,8,0:0:0:0:
76,261,74446,6,0,P|100:306|143:335,1,100,6|8,0:0|0:0,0:0:0:0:
239,334,75046,1,2,0:0:0:0:
189,246,75346,1,8,0:0:0:0:
247,164,75646,2,0,P|166:148|101:198,2,150,2|8|0,0:0|0:0|0:0,0:0:0:0:
325,226,76846,6,0,P|257:262|189:244,2,150,2|8|0,0:0|0:0|0:0,0:0:0:0:
345,128,78046,2,0,P|391:150|419:191,1,100,2|8,0:0|0:0,0:0:0:0:
467,277,78646,2,0,P|439:316|391:335,1,100,2|8,0:0|0:0,0:0:0:0:
291,333,79246,5,12,0:0:0:0:
202,285,79546,1,8,0:0:0:0:
114,236,79846,2,0,P|145:201|199:183,1,100,8|8,0:0|0:0,0:0:0:0:
288,224,80446,2,0,P|340:228|400:204,1,100,2|8,0:0|0:0,0:0:0:0:
432,132,81046,2,0,P|405:89|357:64,1,100,8|8,0:0|0:0,0:0:0:0:
262,67,81646,6,0,B|208:99|155:71|155:71|106:86|88:143,1,200,8|8,0:0|0:0,0:0:0:0:
62,224,82546,1,8,0:0:0:0:
118,306,82846,2,0,P|186:334|263:309,2,150,8|2|8,0:0|0:0|0:0,0:0:0:0:
62,224,84046,6,0,B|62:164|62:164|96:122,1,100,6|0,0:0|0:0,0:0:0:0:
137,46,84646,1,0,0:0:0:0:
227,89,84946,2,0,P|281:83|328:50,2,100,2|0|0,0:0|0:0|0:0,0:0:0:0:
184,179,85846,6,0,P|276:191|371:144,1,200,2|0,0:0|0:0,0:0:0:0:
427,63,86746,1,2,0:0:0:0:
227,89,87346,1,0,0:0:0:0:
135,49,87646,6,0,P|126:106|143:149,1,100,2|0,0:0|0:0,0:0:0:0:
226,194,88246,1,0,0:0:0:0:
134,235,88546,2,0,P|74:209|48:171,2,100,2|0|0,0:0|0:0|0:0,0:0:0:0:
226,194,89446,6,0,P|234:238|219:298,1,100,6|2,0:0|0:0,0:0:0:0:
132,336,90046,1,2,0:0:0:0:
134,235,90346,1,2,0:0:0:0:
226,194,90646,2,0,P|272:188|334:210,1,100,2|0,0:0|0:0,0:0:0:0:
337,250,91096,2,0,P|363:307|406:328,1,100,2|0,0:0|0:0,0:0:0:0:
443,325,91546,1,2,0:0:0:0:
468,228,91846,6,0,L|424:122,1,100,2|2,0:0|0:0,0:0:0:0:
362,61,92446,2,0,P|332:108|329:154,1,100,2|2,0:0|0:0,0:0:0:0:
337,250,93046,6,0,P|309:290|242:312,1,100,12|2,0:0|0:0,0:0:0:0:
212,308,93496,2,0,P|167:287|138:247,1,100,12|2,0:0|0:0,0:0:0:0:
124,200,93946,1,12,0:0:0:0:
144,104,94246,6,0,L|188:148,1,50,12|2,0:0|0:0,0:0:0:0:
228,132,94546,2,0,L|272:176,1,50,8|8,0:0|0:0,0:0:0:0:
412,164,95146,6,0,L|400:228,1,50,12|2,0:0|0:0,0:0:0:0:
360,240,95446,2,0,L|344:308,1,50,8|8,0:0|0:0,0:0:0:0:
303,315,95746,2,0,P|258:325|201:310,2,100
256,228,96646,6,0,P|244:184|248:128,1,100,6|8,0:0|0:0,0:0:0:0:
292,40,97246,1,2,0:0:0:0:
192,28,97546,1,8,0:0:0:0:
136,112,97846,2,0,P|120:168|120:220,1,100,2|8,0:0|0:0,0:0:0:0:
152,304,98446,1,2,0:0:0:0:
250,270,98746,5,8,0:0:0:0:
250,270,98896,2,0,B|286:302|286:302|314:302|314:302|350:330,1,100,2|2,0:0|0:0,0:0:0:0:
381,329,99346,2,0,P|425:306|448:261,1,100,8|2,0:0|0:0,0:0:0:0:
447,162,99946,1,8,0:0:0:0:
378,89,100246,2,0,P|351:135|351:185,1,100,2|8,0:0|0:0,0:0:0:0:
302,268,100846,2,0,P|251:260|192:264,1,100,2|8,0:0|0:0,0:0:0:0:
108,296,101446,6,0,P|76:211|138:111,1,200,4|2,0:0|0:0,0:0:0:0:
153,25,102346,1,8,0:0:0:0:
251,40,102646,1,2,0:0:0:0:
224,136,102946,1,8,0:0:0:0:
321,112,103246,2,0,P|363:151|376:203,1,100,2|8,0:0|0:0,0:0:0:0:
369,290,103846,6,0,L|297:282,1,50,2|2,0:0|0:0,0:0:0:0:
277,256,104146,2,0,L|209:268,1,50,8|2,0:0|0:0,0:0:0:0:
187,294,104446,2,0,P|137:307|86:290,1,100,8|8,0:0|0:0,0:0:0:0:
16,227,105046,6,0,P|22:174|49:130,1,100,12|0,0:0|0:0,0:0:0:0:
94,123,105496,2,0,P|143:134|201:120,1,100,12|0,0:0|0:0,0:0:0:0:
233,97,105946,1,12,0:0:0:0:
332,89,106246,6,0,P|367:126|384:180,1,100,6|8,0:0|0:0,0:0:0:0:
382,271,106846,2,0,P|337:303|282:307,1,100,2|8,0:0|0:0,0:0:0:0:
195,329,107446,2,0,P|144:323|106:293,1,100,2|8,0:0|0:0,0:0:0:0:
60,204,108046,1,2,0:0:0:0:
158,185,108346,1,8,0:0:0:0:
139,86,108646,6,0,P|194:90|242:129,1,100,2|8,0:0|0:0,0:0:0:0:
261,153,109096,2,0,P|301:184|351:188,1,100,2|2,0:0|0:0,0:0:0:0:
396,176,109546,1,8,0:0:0:0:
436,268,109846,1,2,0:0:0:0:
360,332,110146,1,8,0:0:0:0:
272,284,110446,2,0,P|224:300|176:336,1,100,2|8,0:0|0:0,0:0:0:0:
104,268,111046,6,0,P|92:220|105:163,1,100,6|8,0:0|0:0,0:0:0:0:
152,84,111646,1,2,0:0:0:0:
242,127,111946,1,8,0:0:0:0:
307,51,112246,2,0,P|359:52|405:77,1,100,2|8,0:0|0:0,0:0:0:0:
436,108,112696,2,0,L|434:220,1,100,2|2,0:0|0:0,0:0:0:0:
430,257,113146,1,8,0:0:0:0:
352,320,113446,1,2,0:0:0:0:
262,275,113746,5,8,0:0:0:0:
184,338,114046,2,0,P|162:294|169:236,1,100,2|8,0:0|0:0,0:0:0:0:
98,170,114646,2,0,P|143:147|192:149,1,100,8|0,0:0|0:0,0:0:0:0:
276,201,115246,2,0,P|325:202|369:179,1,100,8|0,0:0|0:0,0:0:0:0:
426,97,115846,6,0,P|368:80|311:96,1,100,6|8,0:0|0:0,0:0:0:0:
242,135,116446,2,0,L|236:238,1,100,2|8,0:0|0:0,0:0:0:0:
162,302,117046,2,0,L|142:200,1,100,2|8,0:0|0:0,0:0:0:0:
134,107,117646,1,2,0:0:0:0:
216,50,117946,5,8,0:0:0:0:
216,50,118096,2,0,P|269:49|317:80,1,100,2|2,0:0|0:0,0:0:0:0:
341,109,118546,1,8,0:0:0:0:
402,187,118846,2,0,P|401:242|375:294,1,100,2|8,0:0|0:0,0:0:0:0:
289,318,119446,2,0,P|240:306|184:320,1,100,2|8,0:0|0:0,0:0:0:0:
99,276,120046,2,0,L|100:176,1,100,2|8,0:0|0:0,0:0:0:0:
92,76,120646,6,0,P|140:92|200:84,1,100,6|8,0:0|0:0,0:0:0:0:
286,59,121246,2,0,P|337:57|384:77,1,100,2|8,0:0|0:0,0:0:0:0:
320,154,121846,1,2,0:0:0:0:
381,232,122146,1,8,0:0:0:0:
319,311,122446,2,0,P|267:287|235:235,1,100,2|8,0:0|0:0,0:0:0:0:
158,199,123046,6,0,P|193:167|243:155,1,100,12|2,0:0|0:0,0:0:0:0:
291,169,123496,2,0,P|338:185|394:174,1,100,12|2,0:0|0:0,0:0:0:0:
426,146,123946,1,12,0:0:0:0:
377,58,124246,6,0,L|321:58,1,50,2|2,0:0|0:0,0:0:0:0:
227,59,124696,2,0,P|179:80|148:121,1,100,2|2,0:0|0:0,0:0:0:0:
140,164,125146,1,8,0:0:0:0:
64,228,125446,6,0,P|78:275|116:311,1,100,6|8,0:0|0:0,0:0:0:0:
211,324,126046,2,0,P|265:320|316:285,1,100,2|8,0:0|0:0,0:0:0:0:
389,245,126646,1,2,0:0:0:0:
362,148,126946,1,8,0:0:0:0:
279,203,127246,2,0,P|234:214|179:201,1,100,2|8,0:0|0:0,0:0:0:0:
147,166,127696,6,0,P|98:154|50:165,1,100,2|0,0:0|0:0,0:0:0:0:
16,202,128146,1,8,0:0:0:0:
49,296,128446,2,0,P|84:325|148:327,1,100,2|8,0:0|0:0,0:0:0:0:
220,275,129046,1,2,0:0:0:0:
302,331,129346,1,8,0:0:0:0:
382,272,129646,2,0,L|378:171,1,100,2|8,0:0|0:0,0:0:0:0:
339,79,130246,6,0,P|299:109|279:155,1,100,6|8,0:0|0:0,0:0:0:0:
281,203,130696,2,0,P|280:259|258:300,1,100,2|2,0:0|0:0,0:0:0:0:
220,327,131146,1,8,0:0:0:0:
120,328,131446,2,0,P|85:288|74:238,1,100,2|8,0:0|0:0,0:0:0:0:
56,196,131896,2,0,P|103:174|134:131,1,100,2|2,0:0|0:0,0:0:0:0:
147,88,132346,1,8,0:0:0:0:
240,52,132646,6,0,L|344:62,1,100,12|2,0:0|0:0,0:0:0:0:
382,87,133096,2,0,P|373:137|382:185,1,100,12|2,0:0|0:0,0:0:0:0:
403,229,133546,2,0,L|397:287,1,50,12|2,0:0|0:0,0:0:0:0:
369,320,133846,2,0,P|322:305|266:309,1,100,12|2,0:0|0:0,0:0:0:0:
174,333,134446,2,0,P|122:320|87:285,1,100,12|2,0:0|0:0,0:0:0:0:
56,194,135046,5,12,0:0:0:0:
155,187,135346,1,8,0:0:0:0:
152,87,135646,2,0,P|203:102|239:136,1,100,8|8,0:0|0:0,0:0:0:0:
252,231,136246,2,0,P|301:213|327:172,1,100,8|8,0:0|0:0,0:0:0:0:
341,75,136846,2,0,P|395:100|424:143,1,100,8|8,0:0|0:0,0:0:0:0:
452,225,137446,5,12,0:0:0:0:
452,225,137596,2,0,P|439:275|404:314,1,100,8|8,0:0|0:0,0:0:0:0:
358,310,138046,2,0,P|308:298|251:314,1,100,8|8,0:0|0:0,0:0:0:0:
214,325,138496,2,0,P|160:325|116:300,1,100,8|8,0:0|0:0,0:0:0:0:
87,265,138946,1,8,0:0:0:0:
307,61,139846,6,0,P|311:113|338:158,1,100,12|2,0:0|0:0,0:0:0:0:
374,184,140296,2,0,P|376:238|357:293,1,100,12|2,0:0|0:0,0:0:0:0:
324,313,140746,2,0,P|274:310|227:326,1,100,12|2,0:0|0:0,0:0:0:0:
178,339,141196,2,0,P|127:326|89:289,1,100,12|0,0:0|0:0,0:0:0:0:
69,249,141646,1,12,0:0:0:0:
96,152,141946,1,8,0:0:0:0:
190,183,142246,5,6,0:0:0:0:
256,192,142546,12,4,147046,0:0:0:0:
