osu file format v14

[General]
AudioFilename: marina - Towa yori Towa ni.mp3
AudioLeadIn: 0
PreviewTime: 95681
Countdown: 0
SampleSet: Normal
StackLeniency: 0.7
Mode: 0
LetterboxInBreaks: 0
WidescreenStoryboard: 0

[Editor]
DistanceSpacing: 1.4
BeatDivisor: 4
GridSize: 4
TimelineZoom: 3.879998

[Metadata]
Title:Towa yori Towa ni (Short Ver.)
TitleUnicode:永久より永遠に (Short Ver.)
Artist:marina
ArtistUnicode:marina
Creator:DavidEd
Version:Insane
Source:少女神域∽少女天獄 -The Garden of Fifth Zoa-
Tags:Shoujo Shin'iki Tengoku ed ending visual novel eroge -Hakurei- lit120
BeatmapID:769617
BeatmapSetID:348479

[Difficulty]
HPDrainRate:6
CircleSize:4
OverallDifficulty:7
ApproachRate:9
SliderMultiplier:1.6
SliderTickRate:1

[Events]
//Background and Video events
0,0,"BG.jpg",0,0
//Break Periods
//Storyboard Layer 0 (Background)
//Storyboard Layer 1 (Fail)
//Storyboard Layer 2 (Pass)
//Storyboard Layer 3 (Foreground)
//Storyboard Sound Samples

[TimingPoints]
10846,300,4,1,2,40,1,0
11746,-100,4,1,1,40,0,0
16246,-100,4,1,2,40,0,0
16846,-100,4,1,1,40,0,0
20746,-100,4,1,2,40,0,0
21046,-100,4,1,1,40,0,0
30646,-100,4,1,2,40,0,0
30946,-100,4,1,1,40,0,0
36046,-200,4,2,1,40,0,0
50446,-133.333333333333,4,1,2,25,0,0
51646,-133.333333333333,4,1,2,30,0,0
52846,-100,4,1,2,35,0,0
54046,-100,4,1,1,40,0,0
54196,-100,4,1,2,40,0,0
54496,-100,4,1,1,40,0,0
54646,-100,4,1,2,40,0,0
54946,-100,4,1,1,40,0,0
63796,-100,4,1,2,40,0,0
64096,-100,4,1,1,40,0,0
64246,-100,4,1,2,40,0,0
64546,-100,4,1,1,40,0,0
64846,-133.333333333333,4,1,1,40,0,0
74446,-100,4,1,1,40,0,0
81496,-100,4,1,2,40,0,0
81646,-100,4,1,1,40,0,0
82996,-100,4,1,2,40,0,0
83296,-100,4,1,1,40,0,0
83446,-100,4,1,2,40,0,0
83746,-100,4,1,1,40,0,0
84046,300,3,2,1,40,1,0
84046,-200,3,2,1,40,0,0
89446,300,4,1,2,40,1,0
89446,-111.111111111111,4,1,2,40,0,0
93046,-100,4,1,1,40,0,0
94396,-100,4,1,2,40,0,0
94546,-100,4,1,1,40,0,0
95296,-100,4,1,2,40,0,0
95446,-100,4,1,1,40,0,0
96646,-100,4,1,1,50,0,1
105646,-100,4,1,2,50,0,1
105946,-100,4,1,1,50,0,1
113446,-100,4,1,1,45,0,0
114796,-100,4,1,2,45,0,0
115096,-100,4,1,1,45,0,0
115246,-100,4,1,2,45,0,0
115546,-100,4,1,1,45,0,0
115846,-100,4,1,1,50,0,1
124396,-100,4,1,2,50,0,1
124696,-100,4,1,1,50,0,1
124846,-100,4,1,2,50,0,1
125146,-100,4,1,1,50,0,1
129646,-100,4,1,2,50,0,1
129946,-100,4,1,1,50,0,1
133846,-100,4,1,1,50,0,1
134146,-100,4,1,2,50,0,1
134446,-100,4,1,1,50,0,1
134746,-100,4,1,2,50,0,1
135046,-100,4,1,1,50,0,1
139846,-100,4,1,1,40,0,0
143446,-100,4,1,1,30,0,0
144646,-100,4,1,1,20,0,0
145846,-100,4,1,1,10,0,0
147046,-100,4,2,1,10,0,0

[Colours]
Combo1 : 255,128,64
Combo2 : 255,128,255
Combo3 : 128,0,64
Combo4 : 255,0,0

[HitObjects]
172,108,10846,6,0,L|168:64,2,40,2|2|2,0:0|0:0|0:0,0:0:0:0:
184,244,11146,1,0,0:0:0:0:
296,164,11296,2,0,L|292:120,2,40,2|2|2,0:0|0:0|0:0,0:0:0:0:
308,300,11596,1,0,0:0:0:0:
184,244,11746,2,0,L|104:252,1,80,8|0,0:0|0:0,0:0:0:0:
68,148,12046,6,0,P|76:112|76:68,1,80,6|0,0:0|0:0,0:0:0:0:
248,40,12346,2,0,P|247:79|256:118,1,80
384,220,12646,2,0,P|392:180|392:141,1,80,2|0,0:0|0:0,0:0:0:0:
380,44,12946,1,2,0:0:0:0:
472,240,13096,6,0,P|424:308|348:308,1,160,2|0,0:0|0:0,0:0:0:0:
184,244,13546,2,0,P|168:284|160:336,1,80,2|0,0:0|0:0,0:0:0:0:
296,188,13846,2,0,P|288:148|273:111,1,80,2|0,0:0|0:0,0:0:0:0:
152,48,14146,1,2,0:0:0:0:
68,148,14296,6,0,L|72:312,1,160,2|0,0:0|0:0,0:0:0:0:
208,340,14746,2,0,P|216:300|208:260,1,80,2|0,0:0|0:0,0:0:0:0:
156,132,15046,2,0,P|196:148|248:144,1,80,2|0,0:0|0:0,0:0:0:0:
344,112,15346,1,2,0:0:0:0:
456,76,15496,6,0,B|452:240,1,160,2|0,0:0|0:0,0:0:0:0:
384,332,15946,2,0,P|348:308|304:300,1,80,2|0,0:0|0:0,0:0:0:0:
200,320,16246,1,2,0:0:0:0:
171,330,16321,1,2,0:0:0:0:
142,331,16396,1,2,0:0:0:0:
113,324,16471,1,2,0:0:0:0:
87,308,16546,1,2,0:0:0:0:
67,285,16621,1,2,0:0:0:0:
55,258,16696,1,2,0:0:0:0:
51,229,16771,1,2,0:0:0:0:
57,199,16846,6,0,L|68:108,1,80,6|0,0:0|0:0,0:0:0:0:
176,40,17146,2,0,L|185:119,1,80,2|0,0:0|0:0,0:0:0:0:
288,240,17446,2,0,L|297:160,1,80,2|0,0:0|0:0,0:0:0:0:
320,56,17746,1,2,0:0:0:0:
448,140,17896,6,0,P|460:224|432:292,1,160,2|0,0:0|0:0,0:0:0:0:
316,332,18346,2,0,L|228:320,1,80,2|0,0:0|0:0,0:0:0:0:
88,276,18646,2,0,P|128:276|168:260,1,80,2|0,0:0|0:0,0:0:0:0:
244,200,18946,1,2,0:0:0:0:
172,52,19096,6,0,P|116:108|116:192,1,160,2|0,0:0|0:0,0:0:0:0:
172,320,19546,2,0,P|204:296|252:280,1,80,2|0,0:0|0:0,0:0:0:0:
372,320,19846,2,0,P|409:305|441:281,1,80,2|0,0:0|0:0,0:0:0:0:
488,200,20146,1,2,0:0:0:0:
360,92,20296,6,0,B|353:175|353:175|313:252,1,160,2|2,0:0|0:0,0:0:0:0:
172,320,20746,1,2,0:0:0:0:
152,316,20821,1,2,0:0:0:0:
132,312,20896,1,2,0:0:0:0:
113,308,20971,1,2,0:0:0:0:
96,304,21046,2,0,P|60:232|80:156,1,160,8|0,0:0|0:0,0:0:0:0:
132,60,21496,6,0,P|204:88|284:72,1,160,6|2,0:0|0:0,0:0:0:0:
416,44,21946,2,0,L|420:128,1,80,8|0,0:0|0:0,0:0:0:0:
460,232,22246,2,0,L|424:308,1,80,2|2,0:0|0:0,0:0:0:0:
324,336,22546,1,8,0:0:0:0:
224,304,22696,6,0,P|264:248|364:240,1,160,2|2,0:0|0:0,0:0:0:0:
384,136,23146,2,0,L|304:108,1,80,8|0,0:0|0:0,0:0:0:0:
184,44,23446,2,0,P|168:84|168:128,1,80,2|2,0:0|0:0,0:0:0:0:
224,216,23746,1,8,0:0:0:0:
124,336,23896,6,0,P|76:272|72:188,1,160,2|2,0:0|0:0,0:0:0:0:
184,44,24346,2,0,L|188:132,1,80,8|0,0:0|0:0,0:0:0:0:
312,244,24646,2,0,L|308:164,1,80,2|2,0:0|0:0,0:0:0:0:
304,60,24946,1,8,0:0:0:0:
452,60,25096,6,0,L|448:228,1,160,2|2,0:0|0:0,0:0:0:0:
448,260,25471,1,2,0:0:0:0:
448,260,25546,1,8,0:0:0:0:
332,324,25696,1,0,0:0:0:0:
296,172,25846,1,2,0:0:0:0:
277,148,25921,1,0,0:0:0:0:
253,130,25996,1,0,0:0:0:0:
225,119,26071,1,0,0:0:0:0:
195,116,26146,1,8,0:0:0:0:
166,120,26221,1,0,0:0:0:0:
138,131,26296,1,0,0:0:0:0:
115,150,26371,1,0,0:0:0:0:
97,174,26446,6,0,L|88:264,1,80,12|2,0:0|0:0,0:0:0:0:
188,336,26746,2,0,L|195:256,1,80,8|2,0:0|0:0,0:0:0:0:
296,172,27046,2,0,L|303:251,1,80,0|2,0:0|0:0,0:0:0:0:
420,336,27346,1,8,0:0:0:0:
420,336,27496,6,0,L|427:256,1,80,8|0,0:0|0:0,0:0:0:0:
436,156,27796,1,2,0:0:0:0:
436,156,27946,1,2,0:0:0:0:
436,156,28096,2,0,L|424:72,1,80,8|0,0:0|0:0,0:0:0:0:
248,48,28396,1,2,0:0:0:0:
320,132,28546,2,0,L|312:224,1,80,8|0,0:0|0:0,0:0:0:0:
280,320,28846,6,0,P|244:300|196:300,1,80,6|2,0:0|0:0,0:0:0:0:
76,324,29146,2,0,P|64:288|64:240,1,80,8|2,0:0|0:0,0:0:0:0:
36,128,29446,2,0,P|76:124|120:140,1,80,8|2,0:0|0:0,0:0:0:0:
216,204,29746,1,8,0:0:0:0:
280,320,29896,6,0,P|348:336|424:284,1,160,6|2,0:0|0:0,0:0:0:0:
420,289,30271,1,2,0:0:0:0:
420,289,30346,1,8,0:0:0:0:
468,192,30496,1,0,0:0:0:0:
420,100,30646,1,2,0:0:0:0:
395,83,30721,1,2,0:0:0:0:
365,78,30796,1,2,0:0:0:0:
336,85,30871,1,2,0:0:0:0:
311,100,30946,1,8,0:0:0:0:
285,115,31021,1,8,0:0:0:0:
256,122,31096,1,8,0:0:0:0:
226,117,31171,1,8,0:0:0:0:
200,103,31246,5,4,0:0:0:0:
256,192,31321,12,0,33346,0:0:0:0:
256,136,33646,6,0,P|216:128|176:136,1,80,2|0,0:0|0:0,0:0:0:0:
56,232,33946,2,0,P|95:239|134:231,1,80,2|0,0:0|0:0,0:0:0:0:
268,232,34246,2,0,L|276:324,1,80,2|0,0:0|0:0,0:0:0:0:
396,336,34546,1,2,0:0:0:0:
433,322,34621,1,0,0:0:0:0:
458,291,34696,1,0,0:0:0:0:
464,252,34771,1,0,0:0:0:0:
450,215,34846,6,0,P|440:176|440:120,1,80,2|0,0:0|0:0,0:0:0:0:
360,44,35146,2,0,P|344:84|308:112,1,80,2|0,0:0|0:0,0:0:0:0:
204,60,35446,1,2,0:0:0:0:
180,51,35521,1,0,0:0:0:0:
155,48,35596,1,0,0:0:0:0:
131,52,35671,1,0,0:0:0:0:
108,62,35746,1,2,0:0:0:0:
89,77,35821,1,0,0:0:0:0:
74,97,35896,1,0,0:0:0:0:
64,120,35971,1,0,0:0:0:0:
62,145,36046,5,6,0:0:0:0:
64,292,36346,1,0,0:0:0:0:
64,292,36646,2,0,P|96:280|150:281,1,80,2|0,0:0|0:0,0:0:0:0:
214,322,37096,2,0,P|272:337|331:320,1,120,2|0,0:0|0:0,0:0:0:0:
369,175,37846,2,0,P|341:207|333:248,1,80,2|0,0:0|0:0,0:0:0:0:
448,202,38446,6,0,P|448:154|399:100,2,120,2|0|2,0:0|0:0|0:0,0:0:0:0:
356,264,39646,2,0,P|320:240|296:200,1,80
253,111,40246,1,2,0:0:0:0:
160,76,40546,1,0,0:0:0:0:
232,16,40696,1,0,0:0:0:0:
253,111,40846,5,2,0:0:0:0:
92,280,41146,1,0,0:0:0:0:
92,280,41446,2,0,P|124:272|155:235,1,80,2|0,0:0|0:0,0:0:0:0:
210,166,41896,2,0,P|238:202|234:281,1,120,2|0,0:0|0:0,0:0:0:0:
320,340,42646,2,0,L|408:335,1,80,2|0,0:0|0:0,0:0:0:0:
469,264,43246,6,0,P|406:256|365:211,1,120,2|0,0:0|0:0,0:0:0:0:
377,15,44146,2,0,L|371:140,1,120,2|0,0:0|0:0,0:0:0:0:
367,217,44746,1,0,0:0:0:0:
444,324,45046,1,2,0:0:0:0:
367,217,45346,1,0,0:0:0:0:
288,168,45496,1,0,0:0:0:0:
280,256,45646,6,0,P|254:289|220:320,1,80,2|0,0:0|0:0,0:0:0:0:
92,320,46246,2,0,P|96:288|87:227,1,80,2|0,0:0|0:0,0:0:0:0:
53,168,46696,2,0,P|109:161|165:201,1,120,2|0,0:0|0:0,0:0:0:0:
258,263,47446,2,0,P|262:223|282:185,1,80,2|0,0:0|0:0,0:0:0:0:
304,84,48046,6,0,P|340:108|427:106,2,120,2|0|2,0:0|0:0|0:0,0:0:0:0:
196,48,49246,2,0,P|160:60|124:88,1,80
128,196,49846,1,2,0:0:0:0:
232,248,50146,1,0,0:0:0:0:
232,248,50296,1,0,0:0:0:0:
232,248,50446,6,0,L|228:324,1,60.0000022888184,10|2,0:0|0:0,0:0:0:0:
320,296,50746,2,0,L|316:355,1,60.0000022888184,10|2,0:0|0:0,0:0:0:0:
416,340,51046,2,0,L|419:280,1,60.0000022888184,10|2,0:0|0:0,0:0:0:0:
424,184,51346,1,10,0:0:0:0:
424,184,51496,1,2,0:0:0:0:
424,184,51646,6,0,L|420:120,1,60.0000022888184,10|2,0:0|0:0,0:0:0:0:
328,132,51946,2,0,L|324:72,1,60.0000022888184,10|2,0:0|0:0,0:0:0:0:
227,87,52246,2,0,L|224:28,1,60.0000022888184,10|2,0:0|0:0,0:0:0:0:
116,28,52546,1,10,0:0:0:0:
116,28,52696,1,2,0:0:0:0:
48,116,52846,6,0,L|52:204,1,80,2|2,0:0|0:0,0:0:0:0:
148,276,53146,2,0,L|151:196,1,80,2|2,0:0|0:0,0:0:0:0:
252,112,53446,2,0,L|255:191,1,80,2|2,0:0|0:0,0:0:0:0:
364,272,53746,2,0,L|367:192,1,80,2|2,0:0|0:0,0:0:0:0:
384,68,54046,5,12,0:0:0:0:
464,240,54196,2,0,L|468:288,2,40,2|2|2,0:0|0:0|0:0,0:0:0:0:
384,68,54496,1,12,0:0:0:0:
280,200,54646,2,0,L|276:239,2,40,2|2|2,0:0|0:0|0:0,0:0:0:0:
384,68,54946,2,0,P|392:112|384:160,1,80,12|0,0:0|0:0,0:0:0:0:
364,272,55246,6,0,P|324:320|220:320,1,160,6|8,0:0|0:0,0:0:0:0:
136,280,55696,1,0,0:0:0:0:
56,184,55846,2,0,P|96:176|136:184,1,80,0|2,0:0|0:0,0:0:0:0:
232,232,56146,1,8,0:0:0:0:
336,184,56296,6,0,P|288:132|192:124,1,160,2|2,0:0|0:0,0:0:0:0:
56,184,56746,2,0,L|60:280,1,80,8|0,0:0|0:0,0:0:0:0:
229,311,57046,2,0,L|232:231,1,80,2|2,0:0|0:0,0:0:0:0:
274,116,57346,2,0,P|232:116|184:100,1,80,8|0,0:0|0:0,0:0:0:0:
396,64,57646,6,0,P|460:96|472:192,1,160,2|8,0:0|0:0,0:0:0:0:
448,284,58096,1,0,0:0:0:0:
351,235,58246,2,0,B|292:256|263:319|263:319|215:307,1,160,2|8,0:0|0:0,0:0:0:0:
132,324,58696,6,0,P|68:264|72:184,1,160,2|2,0:0|0:0,0:0:0:0:
68,84,59146,2,0,P|108:100|160:100,1,80,8|0,0:0|0:0,0:0:0:0:
256,40,59446,1,2,0:0:0:0:
372,104,59596,1,2,0:0:0:0:
372,104,59671,1,2,0:0:0:0:
372,104,59746,2,0,L|376:188,1,80,8|0,0:0|0:0,0:0:0:0:
412,316,60046,6,0,P|376:292|332:284,1,80,2|2,0:0|0:0,0:0:0:0:
236,340,60346,2,0,P|197:330|164:308,1,80,8|0,0:0|0:0,0:0:0:0:
56,284,60646,2,0,P|88:224|88:132,1,160,2|8,0:0|0:0,0:0:0:0:
64,32,61096,6,0,P|132:60|224:36,1,160,2|2,0:0|0:0,0:0:0:0:
328,48,61546,2,0,L|324:136,1,80,8|0,0:0|0:0,0:0:0:0:
304,232,61846,1,2,0:0:0:0:
416,192,61996,1,2,0:0:0:0:
416,192,62071,1,2,0:0:0:0:
416,192,62146,2,0,L|412:280,1,80,8|0,0:0|0:0,0:0:0:0:
278,305,62446,6,0,P|282:269|310:225,1,80,12|2,0:0|0:0,0:0:0:0:
416,192,62746,1,2,0:0:0:0:
272,128,62896,2,0,P|236:148|208:180,1,80,12|2,0:0|0:0,0:0:0:0:
156,280,63196,1,2,0:0:0:0:
60,220,63346,2,0,L|67:140,1,80,12|2,0:0|0:0,0:0:0:0:
136,32,63646,6,0,L|140:71,3,40,8|8|2|2,0:0|0:0|0:0|0:0,0:0:0:0:
204,184,63946,2,0,L|208:145,3,40,2|2|8|8,0:0|0:0|0:0|0:0,0:0:0:0:
280,32,64246,2,0,L|284:71,3,40,2|10|2|2,0:0|0:0|0:0|0:0,0:0:0:0:
300,108,64546,1,8,0:0:0:0:
303,147,64621,1,8,0:0:0:0:
307,187,64696,1,8,0:0:0:0:
311,227,64771,1,8,0:0:0:0:
315,267,64846,6,0,L|320:344,1,60.0000022888184,6|0,0:0|0:0,0:0:0:0:
228,352,65146,2,0,L|224:292,1,60.0000022888184,2|0,0:0|0:0,0:0:0:0:
124,252,65446,2,0,L|128:312,1,60.0000022888184,2|0,0:0|0:0,0:0:0:0:
228,352,65746,1,2,0:0:0:0:
228,352,65896,1,0,0:0:0:0:
315,267,66046,6,0,L|383:263,1,60.0000022888184,2|0,0:0|0:0,0:0:0:0:
472,340,66346,2,0,L|412:343,1,60.0000022888184,2|0,0:0|0:0,0:0:0:0:
315,267,66646,2,0,L|383:263,1,60.0000022888184,10|0,0:0|0:0,0:0:0:0:
472,340,66946,1,2,0:0:0:0:
472,340,67096,1,0,0:0:0:0:
464,240,67246,6,0,L|460:172,1,60.0000022888184,2|0,0:0|0:0,0:0:0:0:
372,172,67546,2,0,L|368:104,1,60.0000022888184,2|0,0:0|0:0,0:0:0:0:
284,120,67846,2,0,L|280:52,1,60.0000022888184,2|0,0:0|0:0,0:0:0:0:
180,40,68146,1,2,0:0:0:0:
180,40,68296,1,0,0:0:0:0:
112,104,68446,6,0,L|120:172,1,60.0000022888184,2|0,0:0|0:0,0:0:0:0:
36,184,68746,2,0,L|44:252,1,60.0000022888184,2|0,0:0|0:0,0:0:0:0:
84,328,69046,1,10,0:0:0:0:
240,248,69196,1,0,0:0:0:0:
188,340,69346,1,2,0:0:0:0:
140,240,69496,1,0,0:0:0:0:
296,340,69646,6,0,L|372:332,1,60.0000022888184,2|0,0:0|0:0,0:0:0:0:
356,248,69946,2,0,L|432:240,1,60.0000022888184,2|0,0:0|0:0,0:0:0:0:
416,156,70246,2,0,L|492:148,1,60.0000022888184,2|0,0:0|0:0,0:0:0:0:
476,64,70546,1,2,0:0:0:0:
476,64,70696,1,0,0:0:0:0:
380,32,70846,6,0,L|308:40,1,60.0000022888184,2|0,0:0|0:0,0:0:0:0:
256,104,71146,2,0,L|259:163,1,60.0000022888184,2|0,0:0|0:0,0:0:0:0:
180,244,71446,2,0,L|176:184,1,60.0000022888184,10|0,0:0|0:0,0:0:0:0:
152,88,71746,1,2,0:0:0:0:
152,88,71896,1,0,0:0:0:0:
44,64,72046,6,0,L|48:144,1,60.0000022888184,2|0,0:0|0:0,0:0:0:0:
44,220,72346,2,0,L|60:288,1,60.0000022888184,2|0,0:0|0:0,0:0:0:0:
160,336,72646,2,0,L|232:304,1,60.0000022888184,2|0,0:0|0:0,0:0:0:0:
256,216,72946,1,2,0:0:0:0:
324,296,73096,1,8,0:0:0:0:
324,296,73171,1,8,0:0:0:0:
324,296,73246,1,8,0:0:0:0:
256,192,73321,12,0,74146,0:0:0:0:
152,192,74446,6,0,P|192:200|232:192,1,80,6|2,0:0|0:0,0:0:0:0:
356,120,74746,2,0,L|360:208,1,80,8|0,0:0|0:0,0:0:0:0:
368,316,75046,1,0,0:0:0:0:
448,248,75196,1,2,0:0:0:0:
284,264,75346,2,0,L|200:288,1,80,8|0,0:0|0:0,0:0:0:0:
116,332,75646,6,0,P|60:276|60:196,1,160,2|8,0:0|0:0,0:0:0:0:
60,100,76096,2,0,P|108:116|212:80,1,160,2|2,0:0|0:0,0:0:0:0:
296,40,76546,2,0,L|384:56,1,80,8|0,0:0|0:0,0:0:0:0:
464,104,76846,6,0,P|448:176|464:264,1,160,2|8,0:0|0:0,0:0:0:0:
384,328,77296,2,0,P|312:296|228:296,1,160,2|2,0:0|0:0,0:0:0:0:
136,336,77746,2,0,P|96:320|68:288,1,80,8|0,0:0|0:0,0:0:0:0:
72,156,78046,6,0,P|109:170|136:198,1,80,2|0,0:0|0:0,0:0:0:0:
231,295,78346,2,0,P|258:266|295:252,1,80,8|0,0:0|0:0,0:0:0:0:
464,224,78646,1,2,0:0:0:0:
384,328,78796,1,2,0:0:0:0:
384,328,78871,1,2,0:0:0:0:
384,328,78946,2,0,L|380:244,1,80,8|0,0:0|0:0,0:0:0:0:
400,68,79246,6,0,L|404:156,1,80,12|2,0:0|0:0,0:0:0:0:
300,196,79546,2,0,L|296:116,1,80,8|2,0:0|0:0,0:0:0:0:
208,52,79846,2,0,L|120:60,1,80,8|2,0:0|0:0,0:0:0:0:
56,144,80146,1,8,0:0:0:0:
56,144,80296,1,2,0:0:0:0:
180,164,80446,6,0,L|184:252,1,80,8|2,0:0|0:0,0:0:0:0:
72,320,80746,2,0,L|68:240,1,80,8|2,0:0|0:0,0:0:0:0:
180,164,81046,2,0,L|183:243,1,80,8|2,0:0|0:0,0:0:0:0:
256,320,81346,1,8,0:0:0:0:
289,340,81421,1,8,0:0:0:0:
328,348,81496,1,2,0:0:0:0:
367,340,81571,1,2,0:0:0:0:
401,318,81646,6,0,L|404:236,1,80,8|2,0:0|0:0,0:0:0:0:
456,132,81946,2,0,P|412:132|376:116,1,80,8|2,0:0|0:0,0:0:0:0:
296,36,82246,2,0,P|264:80|260:116,1,80,8|2,0:0|0:0,0:0:0:0:
260,228,82546,1,8,0:0:0:0:
340,164,82696,1,2,0:0:0:0:
180,164,82846,5,8,0:0:0:0:
161,199,82921,1,8,0:0:0:0:
158,239,82996,1,2,0:0:0:0:
170,276,83071,1,2,0:0:0:0:
195,307,83146,2,0,L|200:352,3,40,2|2|8|8,0:0|0:0|0:0|0:0,0:0:0:0:
324,324,83446,2,0,L|328:276,3,40,2|2|2|2,0:0|0:0|0:0|0:0,0:0:0:0:
332,244,83746,1,8,0:0:0:0:
336,204,83821,1,8,0:0:0:0:
340,164,83896,1,8,0:0:0:0:
343,125,83971,1,8,0:0:0:0:
347,85,84046,6,0,P|312:72|264:72,1,80,6|0,0:0|0:0,0:0:0:0:
168,96,84646,1,0,0:0:0:0:
170,276,84946,2,0,P|200:248|224:208,1,80,2|0,0:0|0:0,0:0:0:0:
168,96,85546,1,0,0:0:0:0:
340,164,85846,6,0,B|372:176|372:176|404:176|404:176|424:208|424:208|480:220,1,160,2|0,0:0|0:0,0:0:0:0:
376,292,86746,1,2,0:0:0:0:
376,292,87346,1,0,0:0:0:0:
272,324,87646,6,0,L|268:240,1,80,2|0,0:0|0:0,0:0:0:0:
260,148,88246,1,0,0:0:0:0:
160,84,88546,2,0,L|164:168,1,80,2|0,0:0|0:0,0:0:0:0:
172,264,89146,1,0,0:0:0:0:
260,148,89446,6,0,L|344:144,1,71.9999978027344,14|2,0:0|0:0,0:0:0:0:
423,228,89746,2,0,L|344:232,1,71.9999978027344,10|2,0:0|0:0,0:0:0:0:
264,327,90046,2,0,L|344:324,1,71.9999978027344,10|2,0:0|0:0,0:0:0:0:
423,228,90346,2,0,L|344:232,1,71.9999978027344,10|2,0:0|0:0,0:0:0:0:
260,148,90646,6,0,L|344:144,1,71.9999978027344,10|2,0:0|0:0,0:0:0:0:
448,136,90946,1,10,0:0:0:0:
380,48,91096,2,0,L|300:51,1,71.9999978027344,2|10,0:0|0:0,0:0:0:0:
184,56,91396,1,2,0:0:0:0:
260,148,91546,2,0,P|260:204|252:236,1,71.9999978027344,10|2,0:0|0:0,0:0:0:0:
188,320,91846,6,0,L|100:312,1,71.9999978027344,10|2,0:0|0:0,0:0:0:0:
68,208,92146,2,0,L|147:215,1,71.9999978027344,10|2,0:0|0:0,0:0:0:0:
276,328,92446,2,0,P|284:288|280:244,1,71.9999978027344,10|2,0:0|0:0,0:0:0:0:
260,148,92746,1,10,0:0:0:0:
184,56,92896,1,8,0:0:0:0:
184,56,92971,1,8,0:0:0:0:
184,56,93046,6,0,P|144:64|104:96,2,80,12|2|2,0:0|0:0|0:0,0:0:0:0:
328,55,93496,2,0,P|367:63|399:86,2,80,12|2|2,0:0|0:0|0:0,0:0:0:0:
184,56,93946,1,12,0:0:0:0:
348,312,94246,6,0,L|352:220,1,80,8|2,0:0|0:0,0:0:0:0:
356,140,94546,1,8,0:0:0:0:
356,140,94696,1,8,0:0:0:0:
164,312,95146,6,0,L|160:220,1,80,8|2,0:0|0:0,0:0:0:0:
156,140,95446,1,8,0:0:0:0:
156,140,95596,1,8,0:0:0:0:
256,64,95746,6,0,B|256:168|256:224,2,160
72,100,96646,6,0,P|64:144|72:184,1,80,6|0,0:0|0:0,0:0:0:0:
48,296,96946,2,0,L|136:288,1,80,8|0,0:0|0:0,0:0:0:0:
232,228,97246,2,0,P|248:272|248:316,1,80,2|2,0:0|0:0,0:0:0:0:
372,328,97546,2,0,P|374:288|389:251,1,80,8|0,0:0|0:0,0:0:0:0:
460,180,97846,5,2,0:0:0:0:
419,89,97996,1,0,0:0:0:0:
272,148,98146,2,0,L|360:160,1,80,8|0,0:0|0:0,0:0:0:0:
460,180,98446,1,2,0:0:0:0:
388,251,98596,1,2,0:0:0:0:
351,158,98746,1,8,0:0:0:0:
232,68,98896,6,0,P|184:132|208:212,1,160,2|2,0:0|0:0,0:0:0:0:
300,256,99346,2,0,L|296:344,1,80,8|0,0:0|0:0,0:0:0:0:
180,336,99646,2,0,L|183:256,1,80,2|2,0:0|0:0,0:0:0:0:
188,152,99946,2,0,P|148:160|100:148,1,80,8|0,0:0|0:0,0:0:0:0:
192,56,100246,6,0,P|230:48|270:55,1,80,2|0,0:0|0:0,0:0:0:0:
328,152,100546,2,0,L|324:248,1,80,8|0,0:0|0:0,0:0:0:0:
456,152,100846,2,0,L|452:72,2,80,2|2|8,0:0|0:0|0:0,0:0:0:0:
464,260,101296,1,8,0:0:0:0:
464,260,101371,1,8,0:0:0:0:
464,260,101446,6,0,P|428:304|320:304,1,160,6|8,0:0|0:0,0:0:0:0:
240,248,101896,1,0,0:0:0:0:
120,252,102046,2,0,P|112:295|116:348,1,80,2|2,0:0|0:0,0:0:0:0:
240,248,102346,2,0,P|240:208|233:168,1,80,8|0,0:0|0:0,0:0:0:0:
120,76,102646,6,0,P|119:115|126:155,1,80,2|0,0:0|0:0,0:0:0:0:
240,248,102946,2,0,P|240:208|233:168,1,80,8|0,0:0|0:0,0:0:0:0:
244,44,103246,2,0,P|284:52|324:80,1,80,2|2,0:0|0:0,0:0:0:0:
392,160,103546,1,8,0:0:0:0:
456,52,103696,1,0,0:0:0:0:
392,160,103846,6,0,P|388:208|396:256,1,80,2|0,0:0|0:0,0:0:0:0:
400,348,104146,2,0,P|360:332|316:332,1,80,8|0,0:0|0:0,0:0:0:0:
196,336,104446,2,0,P|156:334|119:318,1,80,8|2,0:0|0:0,0:0:0:0:
44,256,104746,1,8,0:0:0:0:
188,156,104896,1,2,0:0:0:0:
188,156,104971,1,2,0:0:0:0:
188,156,105046,6,0,L|192:248,1,80,12|2,0:0|0:0,0:0:0:0:
316,300,105346,2,0,L|312:220,1,80,2|8,0:0|0:0,0:0:0:0:
256,84,105646,1,2,0:0:0:0:
282,70,105721,1,2,0:0:0:0:
311,63,105796,1,2,0:0:0:0:
341,62,105871,1,2,0:0:0:0:
370,68,105946,1,8,0:0:0:0:
397,81,106021,1,8,0:0:0:0:
421,100,106096,1,8,0:0:0:0:
439,124,106171,1,8,0:0:0:0:
451,151,106246,6,0,L|444:320,1,160,6|8,0:0|0:0,0:0:0:0:
316,300,106696,1,0,0:0:0:0:
196,247,106846,2,0,L|200:151,1,80,2|2,0:0|0:0,0:0:0:0:
156,56,107146,2,0,L|96:120,1,80,8|0,0:0|0:0,0:0:0:0:
40,196,107446,6,0,P|40:240|52:280,1,80,2|0,0:0|0:0,0:0:0:0:
175,323,107746,2,0,P|191:283|195:247,1,80,8|0,0:0|0:0,0:0:0:0:
240,128,108046,2,0,P|280:152|324:160,1,80,2|2,0:0|0:0,0:0:0:0:
440,128,108346,2,0,P|448:168|444:220,1,80,8|0,0:0|0:0,0:0:0:0:
420,324,108646,6,0,P|376:308|332:308,1,80,2|0,0:0|0:0,0:0:0:0:
212,320,108946,1,8,0:0:0:0:
255,205,109096,2,0,P|251:157|231:113,1,80,0|2,0:0|0:0,0:0:0:0:
164,48,109396,1,2,0:0:0:0:
100,128,109546,2,0,P|86:165|84:205,1,80,8|0,0:0|0:0,0:0:0:0:
104,304,109846,5,2,0:0:0:0:
104,304,109996,1,2,0:0:0:0:
255,205,110146,2,0,L|263:293,1,80,8|0,0:0|0:0,0:0:0:0:
388,332,110446,2,0,L|395:252,1,80,2|2,0:0|0:0,0:0:0:0:
456,160,110746,1,8,0:0:0:0:
447,121,110821,1,8,0:0:0:0:
424,88,110896,1,8,0:0:0:0:
391,67,110971,1,8,0:0:0:0:
352,59,111046,6,0,P|272:80|192:60,1,160,6|0,0:0|0:0,0:0:0:0:
96,40,111496,1,0,0:0:0:0:
44,124,111646,2,0,L|48:212,1,80,2|2,0:0|0:0,0:0:0:0:
60,312,111946,2,0,P|100:300|140:260,1,80,8|0,0:0|0:0,0:0:0:0:
224,192,112246,6,0,L|236:280,1,80,2|0,0:0|0:0,0:0:0:0:
312,344,112546,1,8,0:0:0:0:
384,272,112696,2,0,L|394:192,1,80,2|0,0:0|0:0,0:0:0:0:
408,96,112996,1,2,0:0:0:0:
476,244,113146,1,8,0:0:0:0:
476,244,113296,1,0,0:0:0:0:
302,205,113446,6,0,L|210:189,1,80,2|0,0:0|0:0,0:0:0:0:
108,300,113746,2,0,L|186:286,1,80,8|0,0:0|0:0,0:0:0:0:
302,205,114046,2,0,L|312:296,1,80,2|2,0:0|0:0,0:0:0:0:
428,336,114346,2,0,L|431:256,1,80,8|0,0:0|0:0,0:0:0:0:
448,148,114646,5,8,0:0:0:0:
438,109,114721,1,8,0:0:0:0:
414,78,114796,1,2,0:0:0:0:
378,61,114871,1,2,0:0:0:0:
338,62,114946,2,0,L|280:72,3,40,2|2|8|8,0:0|0:0|0:0|0:0,0:0:0:0:
236,160,115246,2,0,L|196:136,3,40,2|2|2|2,0:0|0:0|0:0|0:0,0:0:0:0:
176,120,115546,1,8,0:0:0:0:
138,108,115621,1,8,0:0:0:0:
99,116,115696,1,8,0:0:0:0:
68,141,115771,1,8,0:0:0:0:
52,177,115846,6,0,L|56:260,1,80,6|0,0:0|0:0,0:0:0:0:
160,328,116146,2,0,L|156:248,1,80,8|0,0:0|0:0,0:0:0:0:
236,160,116446,2,0,L|328:152,1,80,2|2,0:0|0:0,0:0:0:0:
408,240,116746,2,0,L|328:246,1,80,8|0,0:0|0:0,0:0:0:0:
236,160,117046,6,0,L|328:152,1,80,2|0,0:0|0:0,0:0:0:0:
392,56,117346,2,0,L|312:62,1,80,8|0,0:0|0:0,0:0:0:0:
188,52,117646,1,2,0:0:0:0:
236,160,117796,2,0,P|244:204|236:244,1,80,2|8,0:0|0:0,0:0:0:0:
124,316,118096,6,0,P|100:240|120:160,1,160,2|2,0:0|0:0,0:0:0:0:
188,52,118546,2,0,L|272:56,1,80,8|0,0:0|0:0,0:0:0:0:
392,56,118846,2,0,L|400:144,1,80,2|2,0:0|0:0,0:0:0:0:
328,264,119146,2,0,L|320:184,1,80,8|0,0:0|0:0,0:0:0:0:
464,212,119446,6,0,L|471:291,1,80,2|2,0:0|0:0,0:0:0:0:
300,344,119746,2,0,P|264:320|244:280,1,80,8|0,0:0|0:0,0:0:0:0:
216,200,120046,1,2,0:0:0:0:
260,104,120196,1,8,0:0:0:0:
234,96,120271,1,8,0:0:0:0:
207,95,120346,1,8,0:0:0:0:
181,100,120421,1,8,0:0:0:0:
157,112,120496,1,8,0:0:0:0:
137,129,120571,1,8,0:0:0:0:
122,150,120646,6,0,P|112:232|56:296,1,160,6|8,0:0|0:0,0:0:0:0:
168,340,121096,1,0,0:0:0:0:
268,288,121246,2,0,P|312:280|360:292,1,80,2|2,0:0|0:0,0:0:0:0:
452,344,121546,2,0,P|464:304|460:256,1,80,8|0,0:0|0:0,0:0:0:0:
408,168,121846,6,0,L|320:176,1,80,2|0,0:0|0:0,0:0:0:0:
288,76,122146,2,0,L|367:68,1,80,8|0,0:0|0:0,0:0:0:0:
408,168,122446,2,0,L|320:176,1,80,2|2,0:0|0:0,0:0:0:0:
224,184,122746,1,8,0:0:0:0:
188,88,122896,1,0,0:0:0:0:
80,88,123046,6,0,L|72:184,1,80,12|2,0:0|0:0,0:0:0:0:
64,272,123346,1,2,0:0:0:0:
172,336,123496,2,0,L|178:256,1,80,12|2,0:0|0:0,0:0:0:0:
184,152,123796,1,2,0:0:0:0:
272,300,123946,2,0,P|312:312|360:304,1,80,12|2,0:0|0:0,0:0:0:0:
452,268,124246,5,8,0:0:0:0:
436,231,124321,1,8,0:0:0:0:
428,192,124396,1,2,0:0:0:0:
427,152,124471,1,2,0:0:0:0:
435,113,124546,2,0,L|448:64,3,40,2|2|8|8,0:0|0:0|0:0|0:0,0:0:0:0:
320,80,124846,2,0,L|280:68,3,40,2|2|2|2,0:0|0:0|0:0|0:0,0:0:0:0:
252,60,125146,1,8,0:0:0:0:
212,52,125221,1,8,0:0:0:0:
173,58,125296,1,8,0:0:0:0:
138,76,125371,1,8,0:0:0:0:
111,106,125446,6,0,B|112:180|72:188|84:268,1,160,6|8,0:0|0:0,0:0:0:0:
148,336,125896,1,0,0:0:0:0:
240,300,126046,2,0,P|248:256|244:208,1,80,2|2,0:0|0:0,0:0:0:0:
219,107,126346,1,8,0:0:0:0:
318,161,126496,1,0,0:0:0:0:
412,96,126646,6,0,P|436:136|448:176,1,80,2|0,0:0|0:0,0:0:0:0:
428,276,126946,2,0,P|391:295|340:308,1,80,8|0,0:0|0:0,0:0:0:0:
240,300,127246,2,0,P|233:254|233:220,1,80,2|2,0:0|0:0,0:0:0:0:
219,107,127546,1,8,0:0:0:0:
132,40,127696,6,0,P|108:104|148:192,1,160,2|2,0:0|0:0,0:0:0:0:
219,107,128146,2,0,P|259:99|307:111,1,80,8|0,0:0|0:0,0:0:0:0:
444,176,128446,2,0,P|405:183|365:176,1,80,2|2,0:0|0:0,0:0:0:0:
219,107,128746,2,0,L|224:192,1,80,8|0,0:0|0:0,0:0:0:0:
240,300,129046,6,0,P|176:292|140:304,1,80,2|2,0:0|0:0,0:0:0:0:
52,332,129346,2,0,P|60:292|48:236,1,80,8|0,0:0|0:0,0:0:0:0:
28,152,129646,2,0,L|16:108,3,40,2|2|2|2,0:0|0:0|0:0|0:0,0:0:0:0:
124,84,129946,2,0,L|156:56,3,40,8|8|8|8,0:0|0:0|0:0|0:0,0:0:0:0:
184,32,130246,6,0,P|260:68|336:52,1,160,6|8,0:0|0:0,0:0:0:0:
444,52,130696,2,0,L|456:220,1,160,2|2,0:0|0:0,0:0:0:0:
456,252,131071,1,2,0:0:0:0:
456,252,131146,2,0,P|448:292|416:332,1,80,8|0,0:0|0:0,0:0:0:0:
330,341,131446,6,0,P|254:313|173:331,1,160,2|8,0:0|0:0,0:0:0:0:
80,344,131896,2,0,P|44:272|68:180,1,160,2|2,0:0|0:0,0:0:0:0:
84,164,132271,1,2,0:0:0:0:
84,164,132346,2,0,L|88:76,1,80,8|0,0:0|0:0,0:0:0:0:
177,17,132646,5,4,0:0:0:0:
268,80,132796,1,8,0:0:0:0:
268,80,132871,1,8,0:0:0:0:
268,80,132946,1,8,0:0:0:0:
199,168,133096,5,4,0:0:0:0:
309,188,133246,1,8,0:0:0:0:
309,188,133321,1,8,0:0:0:0:
309,188,133396,1,8,0:0:0:0:
268,80,133546,1,12,0:0:0:0:
301,59,133621,1,8,0:0:0:0:
340,51,133696,1,8,0:0:0:0:
379,59,133771,1,8,0:0:0:0:
413,81,133846,6,0,L|452:124,3,40,12|8|8|8,0:0|0:0|0:0|0:0,0:0:0:0:
480,196,134146,2,0,L|476:244,3,40,2|2|2|2,0:0|0:0|0:0|0:0,0:0:0:0:
472,276,134446,1,12,0:0:0:0:
452,304,134521,1,8,0:0:0:0:
425,327,134596,1,8,0:0:0:0:
393,340,134671,1,8,0:0:0:0:
358,344,134746,1,2,0:0:0:0:
324,338,134821,1,2,0:0:0:0:
293,323,134896,1,2,0:0:0:0:
267,299,134971,1,2,0:0:0:0:
249,269,135046,6,0,L|256:184,1,80,12|2,0:0|0:0,0:0:0:0:
268,80,135346,2,0,L|188:84,1,80,8|2,0:0|0:0,0:0:0:0:
60,52,135646,2,0,P|56:96|64:140,1,80,8|2,0:0|0:0,0:0:0:0:
76,168,135871,1,2,0:0:0:0:
76,168,135946,2,0,P|81:207|77:247,1,80,8|2,0:0|0:0,0:0:0:0:
104,332,136246,6,0,P|148:332|184:316,1,80,8|2,0:0|0:0,0:0:0:0:
272,192,136546,2,0,L|276:280,1,80,8|2,0:0|0:0,0:0:0:0:
380,312,136846,2,0,L|376:232,1,80,8|2,0:0|0:0,0:0:0:0:
372,192,137071,1,2,0:0:0:0:
372,192,137146,2,0,L|368:92,1,80,8|2,0:0|0:0,0:0:0:0:
256,60,137446,5,6,0:0:0:0:
256,60,137596,2,0,L|168:64,1,80,8|8,0:0|0:0,0:0:0:0:
60,152,137896,1,6,0:0:0:0:
60,152,138046,2,0,L|148:156,1,80,8|8,0:0|0:0,0:0:0:0:
260,244,138346,1,6,0:0:0:0:
260,244,138496,2,0,L|172:248,1,80,8|8,0:0|0:0,0:0:0:0:
60,328,138796,1,6,0:0:0:0:
60,328,138946,1,0,0:0:0:0:
196,120,139846,6,0,P|220:152|260:172,1,80,12|2,0:0|0:0,0:0:0:0:
352,192,140146,1,2,0:0:0:0:
360,64,140296,2,0,P|320:64|272:92,1,80,12|2,0:0|0:0,0:0:0:0:
254,170,140596,1,2,0:0:0:0:
384,272,140746,6,0,P|416:248|432:212,1,80,12|2,0:0|0:0,0:0:0:0:
444,120,141046,1,2,0:0:0:0:
258,90,141196,2,0,P|252:130|253:173,1,80,12|2,0:0|0:0,0:0:0:0:
263,281,141496,1,2,0:0:0:0:
242,314,141571,1,2,0:0:0:0:
209,337,141646,2,0,P|153:321|113:325,1,80,12|2,0:0|0:0,0:0:0:0:
40,256,141946,2,0,P|43:210|59:169,1,80,12|2,0:0|0:0,0:0:0:0:
126,92,142246,5,6,0:0:0:0:
256,192,142396,12,4,147046,0:0:0:0:
