osu file format v14

[General]
AudioFilename: marina - Towa yori Towa ni.mp3
AudioLeadIn: 0
PreviewTime: 95681
Countdown: 0
SampleSet: Normal
StackLeniency: 0.7
Mode: 0
LetterboxInBreaks: 0
WidescreenStoryboard: 0

[Editor]
DistanceSpacing: 1.6
BeatDivisor: 4
GridSize: 4
TimelineZoom: 2.88

[Metadata]
Title:Towa yori Towa ni (Short Ver.)
TitleUnicode:永久より永遠に (Short Ver.)
Artist:marina
ArtistUnicode:marina
Creator:DavidEd
Version:Extreme
Source:少女神域∽少女天獄 -The Garden of Fifth Zoa-
Tags:Shoujo Shin'iki Tengoku ed ending visual novel eroge -Hakurei- lit120
BeatmapID:796848
BeatmapSetID:348479

[Difficulty]
HPDrainRate:7
CircleSize:4
OverallDifficulty:8.3
ApproachRate:9.3
SliderMultiplier:1.8
SliderTickRate:1

[Events]
//Background and Video events
0,0,"BG.jpg",0,0
//Break Periods
//Storyboard Layer 0 (Background)
//Storyboard Layer 1 (Fail)
//Storyboard Layer 2 (Pass)
//Storyboard Layer 3 (Foreground)
//Storyboard Sound Samples

[TimingPoints]
10846,300,4,1,2,40,1,0
11746,-66.6666666666667,4,1,1,40,0,0
12046,-100,4,1,1,40,0,0
16246,-100,4,1,2,40,0,0
16846,-100,4,1,1,40,0,0
21046,-100,4,1,1,40,0,0
30646,-100,4,1,2,40,0,0
30946,-100,4,1,1,40,0,0
33346,-100,4,1,1,25,0,0
33646,-100,4,2,1,40,0,0
36046,-200,4,2,1,40,0,0
50446,-133.333333333333,4,1,1,25,0,0
51646,-133.333333333333,4,1,1,30,0,0
52846,-133.333333333333,4,1,2,35,0,0
54046,-100,4,1,1,40,0,0
54196,-100,4,1,2,40,0,0
54496,-100,4,1,1,40,0,0
54646,-100,4,1,2,40,0,0
54946,-100,4,1,1,40,0,0
63796,-100,4,1,2,40,0,0
64096,-100,4,1,1,40,0,0
64246,-100,4,1,2,40,0,0
64546,-100,4,1,1,40,0,0
81496,-100,4,1,2,40,0,0
81646,-100,4,1,1,40,0,0
82996,-100,4,1,2,40,0,0
83296,-100,4,1,1,40,0,0
83446,-100,4,1,2,40,0,0
84046,300,3,1,1,40,1,0
84046,-200,3,2,1,40,0,0
89446,300,4,1,1,40,1,0
89446,-111.111111111111,4,1,1,40,0,0
93046,-99.9999999999999,4,1,1,40,0,0
94396,-100,4,1,2,40,0,0
94546,-100,4,1,1,40,0,0
95296,-100,4,1,2,40,0,0
95446,-100,4,1,1,40,0,0
96646,-100,4,1,1,50,0,1
110446,-100,4,1,2,50,0,1
110746,-100,4,1,1,50,0,1
113446,-100,4,1,1,45,0,0
114796,-100,4,1,2,45,0,0
115096,-100,4,1,1,45,0,0
115246,-100,4,1,2,45,0,0
115546,-100,4,1,1,45,0,0
115846,-100,4,1,1,50,0,1
124396,-100,4,1,2,50,0,1
124696,-100,4,1,1,50,0,1
124846,-100,4,1,2,50,0,1
125146,-100,4,1,1,50,0,1
133846,-100,4,1,1,50,0,1
134146,-100,4,1,2,50,0,1
134446,-100,4,1,1,50,0,1
134746,-100,4,1,2,50,0,1
135046,-100,4,1,1,50,0,1
139846,-100,4,1,1,40,0,0
143446,-100,4,1,1,30,0,0
144646,-100,4,1,1,20,0,0
145846,-100,4,1,1,10,0,0
147046,-100,4,1,1,10,0,0

[Colours]
Combo1 : 255,128,64
Combo2 : 255,128,255
Combo3 : 128,0,64
Combo4 : 255,0,0

[HitObjects]
144,160,10846,6,0,P|140:140|140:104,2,45
256,292,11146,1,0,0:0:0:0:
368,160,11296,2,0,P|372:140|372:104,2,45
256,292,11596,1,0,0:0:0:0:
256,64,11746,6,0,B|256:140|256:140|256:204,1,135.000005149842,8|0,0:0|0:0,0:0:0:0:
164,336,12046,6,0,P|156:292|168:244,1,90,6|0,0:0|0:0,0:0:0:0:
346,248,12346,2,0,P|356:292|348:336,1,90,2|0,0:0|0:0,0:0:0:0:
165,248,12646,1,2,0:0:0:0:
335,137,12796,1,0,0:0:0:0:
158,66,12946,1,2,0:0:0:0:
165,248,13096,6,0,P|220:319|310:320,1,180,2|0,0:0|0:0,0:0:0:0:
467,230,13546,2,0,L|376:211,1,90,2|0,0:0|0:0,0:0:0:0:
267,181,13846,1,2,0:0:0:0:
404,315,13996,1,0,0:0:0:0:
464,132,14146,1,2,0:0:0:0:
256,292,14296,6,0,P|176:316|96:264,1,180,2|0,0:0|0:0,0:0:0:0:
52,144,14746,2,0,L|152:136,1,90,2|0,0:0|0:0,0:0:0:0:
340,116,15046,1,2,0:0:0:0:
256,292,15196,1,0,0:0:0:0:
141,136,15346,1,2,0:0:0:0:
320,36,15496,6,0,P|396:56|420:148,1,180,2|0,0:0|0:0,0:0:0:0:
464,260,15946,2,0,P|420:268|364:252,1,90,2|0,0:0|0:0,0:0:0:0:
141,136,16246,1,2,0:0:0:0:
110,149,16321,1,2,0:0:0:0:
85,172,16396,1,2,0:0:0:0:
70,202,16471,1,2,0:0:0:0:
64,235,16546,1,2,0:0:0:0:
70,268,16621,1,2,0:0:0:0:
86,298,16696,1,2,0:0:0:0:
111,321,16771,1,2,0:0:0:0:
142,334,16846,6,0,P|185:336|233:320,1,90,2|0,0:0|0:0,0:0:0:0:
347,242,17146,2,0,L|359:342,1,90,2|0,0:0|0:0,0:0:0:0:
172,245,17446,2,0,L|161:155,1,90,2|0,0:0|0:0,0:0:0:0:
92,56,17746,1,2,0:0:0:0:
272,176,17896,6,0,P|324:160|352:36,1,180,2|0,0:0|0:0,0:0:0:0:
92,56,18346,2,0,B|80:100|80:100|81:146,1,90,2|0,0:0|0:0,0:0:0:0:
160,324,18646,2,0,B|172:280|172:280|171:234,1,90,2|0,0:0|0:0,0:0:0:0:
256,72,18946,1,2,0:0:0:0:
456,252,19096,6,0,P|404:324|316:320,1,180,2|0,0:0|0:0,0:0:0:0:
163,117,19546,1,2,0:0:0:0:
116,272,19696,1,0,0:0:0:0:
273,235,19846,1,2,0:0:0:0:
52,168,19996,1,0,0:0:0:0:
212,332,20146,1,2,0:0:0:0:
280,112,20296,6,0,P|360:80|444:116,1,180,2|0,0:0|0:0,0:0:0:0:
308,344,20746,1,2,0:0:0:0:
216,188,20896,1,0,0:0:0:0:
448,316,21046,1,8,0:0:0:0:
360,164,21196,1,0,0:0:0:0:
229,313,21346,1,0,0:0:0:0:
229,313,21496,6,0,P|144:332|64:284,1,180,6|0,0:0|0:0,0:0:0:0:
52,140,21946,2,0,L|144:132,1,90,8|0,0:0|0:0,0:0:0:0:
320,72,22246,1,2,0:0:0:0:
222,217,22396,1,2,0:0:0:0:
422,228,22546,1,8,0:0:0:0:
320,72,22696,6,0,B|260:76|260:76|212:48|212:48|128:60,1,180,2|2,0:0|0:0,0:0:0:0:
52,140,23146,2,0,L|60:232,1,90,8|0,0:0|0:0,0:0:0:0:
229,313,23446,1,2,0:0:0:0:
318,164,23596,1,2,0:0:0:0:
144,112,23746,1,8,0:0:0:0:
229,313,23896,6,0,B|320:328|320:328|416:312,1,180,2|2,0:0|0:0,0:0:0:0:
460,168,24346,2,0,L|360:164,1,90,8|0,0:0|0:0,0:0:0:0:
224,48,24646,1,2,0:0:0:0:
181,218,24796,1,2,0:0:0:0:
370,164,24946,1,8,0:0:0:0:
224,48,25096,6,0,P|128:52|64:120,1,180,2|2,0:0|0:0,0:0:0:0:
48,148,25471,1,2,0:0:0:0:
44,192,25546,1,8,0:0:0:0:
64,312,25696,1,0,0:0:0:0:
104,331,25771,1,0,0:0:0:0:
148,325,25846,5,2,0:0:0:0:
181,296,25921,1,0,0:0:0:0:
220,274,25996,1,2,0:0:0:0:
264,267,26071,1,0,0:0:0:0:
308,276,26146,1,8,0:0:0:0:
345,301,26221,1,0,0:0:0:0:
388,313,26296,1,0,0:0:0:0:
431,303,26371,1,0,0:0:0:0:
463,272,26446,6,0,L|458:183,1,90,8|2,0:0|0:0,0:0:0:0:
328,76,26746,2,0,L|333:165,1,90,8|2,0:0|0:0,0:0:0:0:
236,316,27046,2,0,L|230:226,1,90,8|2,0:0|0:0,0:0:0:0:
120,52,27346,1,8,0:0:0:0:
120,52,27496,6,0,L|125:141,1,90,8|0,0:0|0:0,0:0:0:0:
112,336,27796,1,2,0:0:0:0:
230,226,27946,1,2,0:0:0:0:
356,335,28096,2,0,P|404:331|444:307,1,90,8|0,0:0|0:0,0:0:0:0:
440,124,28396,1,2,0:0:0:0:
230,226,28546,2,0,P|182:222|142:198,1,90,8|0,0:0|0:0,0:0:0:0:
64,56,28846,6,0,L|60:160,1,90,2|2,0:0|0:0,0:0:0:0:
48,288,29146,1,8,0:0:0:0:
208,136,29296,1,2,0:0:0:0:
252,352,29446,1,8,0:0:0:0:
300,136,29596,1,2,0:0:0:0:
459,286,29746,1,8,0:0:0:0:
344,56,29896,6,0,P|256:32|164:60,1,180,0|2,0:0|0:0,0:0:0:0:
172,54,30271,1,2,0:0:0:0:
172,54,30346,1,8,0:0:0:0:
65,163,30496,1,0,0:0:0:0:
63,207,30571,1,0,0:0:0:0:
80,248,30646,5,2,0:0:0:0:
112,279,30721,1,2,0:0:0:0:
154,294,30796,1,2,0:0:0:0:
194,272,30871,1,2,0:0:0:0:
237,260,30946,1,8,0:0:0:0:
282,259,31021,1,8,0:0:0:0:
326,269,31096,1,8,0:0:0:0:
366,288,31171,1,8,0:0:0:0:
401,317,31246,5,6,0:0:0:0:
256,192,31321,12,2,33346,0:0:0:0:
256,192,33646,6,0,L|253:141,3,45,2|0|0|0,0:0|0:0|0:0|0:0,0:0:0:0:
348,264,33946,2,0,L|350:308,3,45,2|0|0|0,0:0|0:0|0:0|0:0,0:0:0:0:
208,332,34246,2,0,L|205:281,3,45,2|0|0|0,0:0|0:0|0:0|0:0,0:0:0:0:
96,224,34546,1,2,0:0:0:0:
99,201,34621,1,0,0:0:0:0:
103,179,34696,1,0,0:0:0:0:
107,157,34771,1,0,0:0:0:0:
100,112,34846,5,2,0:0:0:0:
132,81,34921,1,0,0:0:0:0:
175,71,34996,1,0,0:0:0:0:
218,82,35071,1,0,0:0:0:0:
256,107,35146,1,2,0:0:0:0:
292,134,35221,1,0,0:0:0:0:
335,145,35296,1,0,0:0:0:0:
379,136,35371,1,0,0:0:0:0:
412,104,35446,6,0,P|408:84|384:40,1,45,2|0,0:0|0:0,0:0:0:0:
256,107,35596,2,0,P|247:127|242:149,1,45
348,264,35746,2,0,P|362:247|373:227,1,45,2|0,0:0|0:0,0:0:0:0:
412,104,35896,1,0,0:0:0:0:
412,104,35971,1,0,0:0:0:0:
412,104,36046,1,4,0:0:0:0:
412,104,36346,5,0,0:0:0:0:
256,107,36646,2,0,P|244:144|252:208,1,90,2|0,0:0|0:0,0:0:0:0:
380,324,37096,2,0,P|384:252|340:196,1,135,2|0,0:0|0:0,0:0:0:0:
148,184,37846,1,2,0:0:0:0:
288,324,38146,1,0,0:0:0:0:
384,136,38446,6,0,P|320:132|272:192,2,135,2|0|2,0:0|0:0|0:0,0:0:0:0:
455,167,39496,1,0,0:0:0:0:
456,240,39646,2,0,P|451:283|435:335,1,90
220,256,40246,1,2,0:0:0:0:
316,51,40546,1,0,0:0:0:0:
400,32,40696,1,0,0:0:0:0:
381,115,40846,6,0,P|374:164|373:215,1,90,2|0,0:0|0:0,0:0:0:0:
228,335,41446,2,0,P|226:290|219:245,1,90,2|0,0:0|0:0,0:0:0:0:
220,136,41896,2,0,P|156:160|88:152,1,135,2|0,0:0|0:0,0:0:0:0:
312,45,42646,1,2,0:0:0:0:
142,72,42946,1,0,0:0:0:0:
232,244,43246,6,0,P|296:268|360:252,2,135,2|0|2,0:0|0:0|0:0,0:0:0:0:
195,175,44296,1,0,0:0:0:0:
120,165,44446,2,0,P|76:184|44:216,1,90
208,80,45046,1,2,0:0:0:0:
193,336,45346,1,0,0:0:0:0:
160,256,45496,1,0,0:0:0:0:
106,324,45646,6,0,P|148:340|193:336,1,90,2|0,0:0|0:0,0:0:0:0:
288,220,46246,2,0,L|296:324,1,90,2|0,0:0|0:0,0:0:0:0:
400,332,46696,2,0,B|392:236|392:236|400:188,1,135,2|0,0:0|0:0,0:0:0:0:
428,68,47446,1,2,0:0:0:0:
480,244,47746,1,0,0:0:0:0:
256,148,48046,6,0,P|200:156|140:216,2,135,2|0|2,0:0|0:0|0:0,0:0:0:0:
344,152,49096,1,0,0:0:0:0:
401,212,49246,2,0,P|408:260|408:312,1,90
232,236,49846,1,2,0:0:0:0:
428,72,50146,1,0,0:0:0:0:
428,72,50296,1,0,0:0:0:0:
428,72,50446,6,0,L|348:76,1,67.5000025749208,2|0,0:0|0:0,0:0:0:0:
308,152,50746,2,0,L|228:156,1,67.5000025749208,2|0,0:0|0:0,0:0:0:0:
196,236,51046,2,0,L|116:240,1,67.5000025749208,2|0,0:0|0:0,0:0:0:0:
56,164,51346,1,2,0:0:0:0:
112,76,51496,1,0,0:0:0:0:
228,327,51646,6,0,P|260:329|295:323,1,67.5000025749208,2|0,0:0|0:0,0:0:0:0:
468,248,51946,2,0,L|400:244,1,67.5000025749208,2|0,0:0|0:0,0:0:0:0:
240,155,52246,2,0,L|307:151,1,67.5000025749208,2|0,0:0|0:0,0:0:0:0:
424,56,52546,2,0,P|434:91|440:132,1,67.5000025749208,2|0,0:0|0:0,0:0:0:0:
315,236,52846,5,10,0:0:0:0:
222,74,52996,1,2,0:0:0:0:
129,223,53146,1,10,0:0:0:0:
289,257,53296,5,10,0:0:0:0:
277,71,53446,1,2,0:0:0:0:
128,164,53596,1,10,0:0:0:0:
265,283,53746,5,8,0:0:0:0:
325,72,53896,1,0,0:0:0:0:
127,119,54046,5,12,0:0:0:0:
363,250,54196,1,2,0:0:0:0:
363,250,54346,1,2,0:0:0:0:
325,72,54496,1,12,0:0:0:0:
192,256,54646,1,2,0:0:0:0:
192,256,54796,1,2,0:0:0:0:
325,72,54946,1,12,0:0:0:0:
363,250,55096,1,2,0:0:0:0:
166,79,55246,6,0,P|98:123|80:223,1,180,6|8,0:0|0:0,0:0:0:0:
148,332,55696,1,0,0:0:0:0:
268,264,55846,2,0,P|313:260|368:271,1,90,0|2,0:0|0:0,0:0:0:0:
464,340,56146,1,8,0:0:0:0:
268,264,56296,6,0,P|264:212|272:172,1,90,0|2,0:0|0:0,0:0:0:0:
348,56,56596,1,2,0:0:0:0:
432,172,56746,2,0,P|439:216|435:260,1,90,8|2,0:0|0:0,0:0:0:0:
322,354,57046,1,2,0:0:0:0:
184,176,57196,1,2,0:0:0:0:
348,192,57346,1,8,0:0:0:0:
168,332,57496,1,8,0:0:0:0:
168,332,57571,1,8,0:0:0:0:
168,332,57646,6,0,L|68:324,1,90,2|2,0:0|0:0,0:0:0:0:
268,264,57946,2,0,L|368:256,1,90,8|0,0:0|0:0,0:0:0:0:
452,128,58246,2,0,P|372:92|272:128,1,180,2|8,0:0|0:0,0:0:0:0:
168,248,58696,6,0,P|108:208|120:108,1,180,2|2,0:0|0:0,0:0:0:0:
278,26,59146,2,0,P|286:72|286:122,1,90,8|0,0:0|0:0,0:0:0:0:
268,264,59446,1,2,0:0:0:0:
452,128,59596,1,2,0:0:0:0:
452,128,59671,1,2,0:0:0:0:
452,128,59746,2,0,P|459:174|452:220,1,90,8|0,0:0|0:0,0:0:0:0:
400,332,60046,5,2,0:0:0:0:
268,264,60196,1,2,0:0:0:0:
152,336,60346,2,0,P|104:344|56:332,1,90,8|0,0:0|0:0,0:0:0:0:
268,264,60646,2,0,P|276:168|232:88,1,180,2|8,0:0|0:0,0:0:0:0:
96,32,61096,6,0,P|88:128|132:208,1,180,2|2,0:0|0:0,0:0:0:0:
240,340,61546,2,0,P|288:340|332:312,1,90,8|0,0:0|0:0,0:0:0:0:
448,224,61846,1,2,0:0:0:0:
256,104,61996,1,2,0:0:0:0:
256,104,62071,1,2,0:0:0:0:
256,104,62146,2,0,P|300:92|344:96,1,90,8|0,0:0|0:0,0:0:0:0:
448,224,62446,5,12,0:0:0:0:
240,340,62596,1,2,0:0:0:0:
240,340,62746,1,2,0:0:0:0:
256,104,62896,5,12,0:0:0:0:
64,204,63046,1,2,0:0:0:0:
64,204,63196,1,2,0:0:0:0:
240,340,63346,5,12,0:0:0:0:
256,104,63496,1,2,0:0:0:0:
448,224,63646,5,8,0:0:0:0:
441,268,63721,1,8,0:0:0:0:
415,304,63796,1,2,0:0:0:0:
375,324,63871,1,2,0:0:0:0:
331,324,63946,2,0,L|304:280,1,45,2|0,0:0|0:0,0:0:0:0:
204,244,64096,2,0,L|220:196,1,45,8|8,0:0|0:0,0:0:0:0:
256,104,64246,5,2,0:0:0:0:
228,75,64321,1,2,0:0:0:0:
193,59,64396,1,2,0:0:0:0:
154,56,64471,1,2,0:0:0:0:
116,67,64546,1,8,0:0:0:0:
85,91,64621,1,8,0:0:0:0:
65,124,64696,1,8,0:0:0:0:
58,163,64771,1,8,0:0:0:0:
65,201,64846,6,0,L|76:304,1,90,6|0,0:0|0:0,0:0:0:0:
194,333,65146,2,0,L|203:243,1,90,2|0,0:0|0:0,0:0:0:0:
256,104,65446,2,0,L|368:96,1,90,2|0,0:0|0:0,0:0:0:0:
460,200,65746,1,2,0:0:0:0:
364,312,65896,1,0,0:0:0:0:
248,216,66046,6,0,L|148:224,1,90,2|0,0:0|0:0,0:0:0:0:
104,341,66346,2,0,L|193:333,1,90,2|0,0:0|0:0,0:0:0:0:
364,312,66646,2,0,L|360:208,1,90,8|0,0:0|0:0,0:0:0:0:
388,100,66946,1,2,0:0:0:0:
474,274,67096,1,0,0:0:0:0:
248,216,67246,6,0,L|148:224,1,90,2|0,0:0|0:0,0:0:0:0:
56,124,67546,2,0,L|145:116,1,90,2|0,0:0|0:0,0:0:0:0:
292,44,67846,2,0,L|300:140,1,90,2|0,0:0|0:0,0:0:0:0:
364,312,68146,1,2,0:0:0:0:
416,188,68296,1,0,0:0:0:0:
244,260,68446,6,0,L|152:296,1,90,2|0,0:0|0:0,0:0:0:0:
64,196,68746,2,0,L|147:163,1,90,2|0,0:0|0:0,0:0:0:0:
292,44,69046,1,8,0:0:0:0:
216,208,69196,1,0,0:0:0:0:
376,116,69346,1,2,0:0:0:0:
196,100,69496,1,0,0:0:0:0:
328,224,69646,6,0,L|360:308,1,90,2|0,0:0|0:0,0:0:0:0:
464,224,69946,2,0,L|456:132,1,90,2|0,0:0|0:0,0:0:0:0:
292,44,70246,2,0,P|272:88|272:140,1,90,2|0,0:0|0:0,0:0:0:0:
360,308,70546,1,2,0:0:0:0:
216,208,70696,1,0,0:0:0:0:
132,336,70846,2,0,P|80:328|40:304,1,90,2|0,0:0|0:0,0:0:0:0:
48,144,71146,6,0,P|87:123|132:118,1,90,2|0,0:0|0:0,0:0:0:0:
324,134,71446,2,0,L|328:238,1,90,8|0,0:0|0:0,0:0:0:0:
448,332,71746,1,2,0:0:0:0:
452,200,71896,1,0,0:0:0:0:
324,134,72046,6,0,L|232:146,1,90,2|0,0:0|0:0,0:0:0:0:
144,288,72346,2,0,L|233:276,1,90,2|0,0:0|0:0,0:0:0:0:
452,200,72646,1,2,0:0:0:0:
234,145,72796,1,0,0:0:0:0:
340,320,72946,1,2,0:0:0:0:
400,112,73096,1,0,0:0:0:0:
392,68,73171,1,0,0:0:0:0:
384,24,73246,1,0,0:0:0:0:
256,192,73321,12,0,74146,0:0:0:0:
392,100,74446,5,6,0:0:0:0:
256,192,74596,1,2,0:0:0:0:
388,312,74746,2,0,P|392:268|372:212,1,90,8|0,0:0|0:0,0:0:0:0:
292,108,75046,1,0,0:0:0:0:
152,264,75196,1,2,0:0:0:0:
388,312,75346,2,0,L|484:304,1,90,8|0,0:0|0:0,0:0:0:0:
256,192,75646,6,0,L|166:199,1,90,2|2,0:0|0:0,0:0:0:0:
68,296,75946,1,8,0:0:0:0:
298,319,76096,2,0,L|394:311,1,90,2|0,0:0|0:0,0:0:0:0:
456,220,76396,1,2,0:0:0:0:
373,75,76546,2,0,P|329:83|289:111,1,90,8|0,0:0|0:0,0:0:0:0:
208,276,76846,5,2,0:0:0:0:
164,152,76996,1,2,0:0:0:0:
344,232,77146,2,0,P|376:260|400:320,1,90,8|0,0:0|0:0,0:0:0:0:
168,360,77446,2,0,P|136:332|112:272,1,90,0|2,0:0|0:0,0:0:0:0:
56,144,77746,2,0,L|160:136,1,90,8|0,0:0|0:0,0:0:0:0:
276,48,78046,6,0,L|284:148,1,90,2|2,0:0|0:0,0:0:0:0:
436,268,78346,2,0,L|428:178,1,90,8|0,0:0|0:0,0:0:0:0:
420,68,78646,1,2,0:0:0:0:
164,152,78796,1,2,0:0:0:0:
164,152,78871,1,2,0:0:0:0:
164,152,78946,2,0,L|156:252,1,90,8|0,0:0|0:0,0:0:0:0:
256,336,79246,6,0,L|360:332,1,90,12|2,0:0|0:0,0:0:0:0:
476,236,79546,2,0,L|386:239,1,90,8|2,0:0|0:0,0:0:0:0:
248,152,79846,2,0,L|352:148,1,90,8|2,0:0|0:0,0:0:0:0:
432,64,80146,1,8,0:0:0:0:
432,64,80296,1,2,0:0:0:0:
244,62,80446,6,0,L|248:158,1,90,8|2,0:0|0:0,0:0:0:0:
144,256,80746,2,0,L|140:166,1,90,8|2,0:0|0:0,0:0:0:0:
36,84,81046,2,0,L|39:173,1,90,8|2,0:0|0:0,0:0:0:0:
72,328,81346,1,8,0:0:0:0:
113,344,81421,1,8,0:0:0:0:
158,344,81496,1,2,0:0:0:0:
199,327,81571,1,2,0:0:0:0:
232,297,81646,6,0,L|236:204,1,90,8|2,0:0|0:0,0:0:0:0:
340,116,81946,2,0,L|343:205,1,90,8|2,0:0|0:0,0:0:0:0:
448,324,82246,2,0,L|451:234,1,90,8|2,0:0|0:0,0:0:0:0:
460,112,82546,1,8,0:0:0:0:
352,28,82696,1,2,0:0:0:0:
252,124,82846,5,8,0:0:0:0:
209,139,82921,1,8,0:0:0:0:
165,137,82996,1,2,0:0:0:0:
124,118,83071,1,2,0:0:0:0:
93,86,83146,2,0,L|88:36,3,45,2|2|8|8,0:0|0:0|0:0|0:0,0:0:0:0:
52,212,83446,2,0,L|57:256,3,45,2|2|2|2,0:0|0:0|0:0|0:0,0:0:0:0:
144,332,83746,1,8,0:0:0:0:
187,342,83821,1,8,0:0:0:0:
231,336,83896,1,8,0:0:0:0:
271,314,83971,1,8,0:0:0:0:
299,280,84046,6,4,P|328:240|376:216,1,90,6|0,0:0|0:0,0:0:0:0:
460,192,84646,1,0,0:0:0:0:
360,40,84946,2,0,L|264:48,1,90,2|0,0:0|0:0,0:0:0:0:
168,56,85546,1,0,0:0:0:0:
83,187,85846,6,0,P|165:220|247:188,1,180,2|0,0:0|0:0,0:0:0:0:
304,100,86746,1,2,0:0:0:0:
440,324,87346,1,0,0:0:0:0:
348,268,87646,6,0,L|248:276,1,90,2|0,0:0|0:0,0:0:0:0:
96,336,88246,1,0,0:0:0:0:
156,256,88546,2,0,L|152:156,1,90,2|0,0:0|0:0,0:0:0:0:
92,90,89146,1,0,0:0:0:0:
256,36,89446,6,0,P|292:64|340:76,1,80.9999975280763,6|0,0:0|0:0,0:0:0:0:
480,124,89746,2,0,P|444:152|396:164,1,80.9999975280763,2|0,0:0|0:0,0:0:0:0:
256,212,90046,2,0,P|292:240|340:252,1,80.9999975280763,2|0,0:0|0:0,0:0:0:0:
480,296,90346,2,0,P|444:324|396:336,1,80.9999975280763,2|0,0:0|0:0,0:0:0:0:
256,212,90646,6,0,P|204:207|156:220,1,80.9999975280763,2|0,0:0|0:0,0:0:0:0:
84,284,90946,1,2,0:0:0:0:
288,324,91096,2,0,P|328:304|356:264,1,80.9999975280763,0|2,0:0|0:0,0:0:0:0:
392,164,91396,1,0,0:0:0:0:
228,44,91546,2,0,P|220:92|232:140,1,80.9999975280763,2|0,0:0|0:0,0:0:0:0:
350,276,91846,6,0,P|324:306|288:324,1,80.9999975280763,2|0,0:0|0:0,0:0:0:0:
84,284,92146,2,0,P|111:248|150:228,1,80.9999975280763,2|0,0:0|0:0,0:0:0:0:
320,88,92446,1,2,0:0:0:0:
350,276,92596,1,0,0:0:0:0:
172,180,92746,1,2,0:0:0:0:
404,44,92896,1,2,0:0:0:0:
404,44,92971,1,2,0:0:0:0:
404,44,93046,6,0,P|412:92|404:140,1,90,12|2,0:0|0:0,0:0:0:0:
354,268,93346,1,2,0:0:0:0:
102,126,93496,2,0,P|136:97|180:88,1,90,12|2,0:0|0:0,0:0:0:0:
320,88,93796,1,2,0:0:0:0:
269,321,93946,1,12,0:0:0:0:
269,321,94246,5,12,0:0:0:0:
332,67,94396,1,2,0:0:0:0:
132,236,94546,1,8,0:0:0:0:
393,217,94696,1,8,0:0:0:0:
393,217,95146,5,12,0:0:0:0:
171,78,95296,1,2,0:0:0:0:
269,321,95446,1,8,0:0:0:0:
332,67,95596,1,8,0:0:0:0:
132,236,95746,5,0,0:0:0:0:
96,272,96046,5,0,0:0:0:0:
64,308,96346,5,0,0:0:0:0:
360,320,96646,5,6,0:0:0:0:
431,113,96796,1,0,0:0:0:0:
216,155,96946,1,8,0:0:0:0:
455,237,97096,1,0,0:0:0:0:
311,72,97246,1,2,0:0:0:0:
240,278,97396,1,2,0:0:0:0:
431,113,97546,2,0,P|429:65|416:20,1,90,8|0,0:0|0:0,0:0:0:0:
216,155,97846,6,0,P|209:200|213:244,1,90,2|2,0:0|0:0,0:0:0:0:
284,352,98146,1,8,0:0:0:0:
120,248,98296,1,0,0:0:0:0:
308,188,98446,1,2,0:0:0:0:
144,88,98596,2,0,L|44:96,1,90,2|8,0:0|0:0,0:0:0:0:
32,272,98896,6,0,P|96:332|184:316,1,180,2|2,0:0|0:0,0:0:0:0:
308,188,99346,2,0,L|312:288,1,90,8|0,0:0|0:0,0:0:0:0:
448,328,99646,2,0,L|451:238,1,90,2|2,0:0|0:0,0:0:0:0:
460,100,99946,2,0,P|424:68|380:56,1,90,8|0,0:0|0:0,0:0:0:0:
178,73,100246,5,2,0:0:0:0:
216,288,100396,1,2,0:0:0:0:
383,147,100546,1,8,0:0:0:0:
135,191,100696,1,0,0:0:0:0:
340,266,100846,1,2,0:0:0:0:
302,51,100996,1,2,0:0:0:0:
216,288,101146,1,8,0:0:0:0:
52,128,101296,1,8,0:0:0:0:
52,128,101371,1,8,0:0:0:0:
52,128,101446,6,0,P|92:100|144:88,1,90,6|0,0:0|0:0,0:0:0:0:
302,51,101746,2,0,P|296:100|304:144,1,90,8|0,0:0|0:0,0:0:0:0:
340,266,102046,1,2,0:0:0:0:
420,172,102196,1,2,0:0:0:0:
224,228,102346,2,0,L|128:256,1,90,8|0,0:0|0:0,0:0:0:0:
380,340,102646,6,0,P|412:308|420:256,1,90,2|0,0:0|0:0,0:0:0:0:
400,88,102946,2,0,P|356:112|336:148,1,90,8|0,0:0|0:0,0:0:0:0:
340,266,103246,1,2,0:0:0:0:
248,144,103396,1,2,0:0:0:0:
128,224,103546,2,0,P|135:267|163:302,1,90,8|0,0:0|0:0,0:0:0:0:
380,340,103846,6,0,P|412:308|420:256,1,90,2|2,0:0|0:0,0:0:0:0:
472,168,104146,2,0,L|368:164,1,90,8|2,0:0|0:0,0:0:0:0:
428,72,104446,2,0,L|324:68,1,90,8|2,0:0|0:0,0:0:0:0:
218,55,104746,1,8,0:0:0:0:
340,264,104896,1,2,0:0:0:0:
340,264,104971,1,2,0:0:0:0:
340,264,105046,6,0,P|296:292|244:296,1,90,12|2,0:0|0:0,0:0:0:0:
132,340,105346,2,0,P|108:300|104:252,1,90,2|8,0:0|0:0,0:0:0:0:
52,120,105646,1,2,0:0:0:0:
84,89,105721,1,0,0:0:0:0:
126,75,105796,1,2,0:0:0:0:
170,80,105871,1,2,0:0:0:0:
205,107,105946,1,8,0:0:0:0:
247,122,106021,1,0,0:0:0:0:
292,121,106096,1,0,0:0:0:0:
334,107,106171,1,0,0:0:0:0:
369,78,106246,6,0,P|448:96|476:184,1,180,6|8,0:0|0:0,0:0:0:0:
448,308,106696,1,0,0:0:0:0:
340,264,106846,2,0,P|292:256|248:264,1,90,2|2,0:0|0:0,0:0:0:0:
72,324,107146,2,0,P|120:332|164:324,1,90,8|0,0:0|0:0,0:0:0:0:
340,264,107446,6,0,P|348:224|336:164,1,90,2|0,0:0|0:0,0:0:0:0:
224,48,107746,2,0,P|216:92|224:136,1,90,8|0,0:0|0:0,0:0:0:0:
340,264,108046,2,0,P|312:304|272:324,1,90,2|2,0:0|0:0,0:0:0:0:
72,324,108346,2,0,P|100:284|140:264,1,90,8|0,0:0|0:0,0:0:0:0:
340,264,108646,6,0,P|384:272|432:264,1,90,2|0,0:0|0:0,0:0:0:0:
496,176,108946,1,8,0:0:0:0:
312,44,109096,2,0,P|272:64|240:108,1,90,0|2,0:0|0:0,0:0:0:0:
172,192,109396,1,2,0:0:0:0:
420,220,109546,2,0,P|428:267|420:319,1,90,8|0,0:0|0:0,0:0:0:0:
212,328,109846,5,2,0:0:0:0:
304,124,109996,1,2,0:0:0:0:
76,144,110146,2,0,P|68:188|76:240,1,90,8|0,0:0|0:0,0:0:0:0:
212,328,110446,1,2,0:0:0:0:
256,333,110521,1,2,0:0:0:0:
299,322,110596,1,2,0:0:0:0:
335,295,110671,1,2,0:0:0:0:
359,257,110746,2,0,L|364:200,1,45,8|8,0:0|0:0,0:0:0:0:
435,80,110896,2,0,L|438:124,1,45,8|8,0:0|0:0,0:0:0:0:
452,272,111046,6,0,P|432:320|404:344,1,90,6|0,0:0|0:0,0:0:0:0:
256,240,111346,2,0,P|212:232|160:244,1,90,8|0,0:0|0:0,0:0:0:0:
53,330,111646,1,2,0:0:0:0:
256,240,111796,1,2,0:0:0:0:
76,112,111946,2,0,P|108:76|148:52,1,90,8|0,0:0|0:0,0:0:0:0:
424,64,112246,6,0,P|394:97|356:121,1,90,2|0,0:0|0:0,0:0:0:0:
168,144,112546,1,8,0:0:0:0:
300,328,112696,2,0,P|336:296|352:252,1,90,2|0,0:0|0:0,0:0:0:0:
355,121,112996,1,2,0:0:0:0:
148,244,113146,2,0,P|108:228|72:188,1,90,8|8,0:0|0:0,0:0:0:0:
184,40,113446,6,0,P|225:56|256:89,1,90,6|0,0:0|0:0,0:0:0:0:
320,252,113746,1,8,0:0:0:0:
368,68,113896,1,0,0:0:0:0:
172,136,114046,2,0,P|124:168|96:236,1,90,2|0,0:0|0:0,0:0:0:0:
164,336,114346,2,0,P|212:304|240:236,1,90,8|0,0:0|0:0,0:0:0:0:
286,100,114646,5,8,0:0:0:0:
324,76,114721,1,8,0:0:0:0:
368,68,114796,1,2,0:0:0:0:
411,77,114871,1,2,0:0:0:0:
448,102,114946,2,0,L|452:160,1,45,2|2,0:0|0:0,0:0:0:0:
436,328,115096,1,8,0:0:0:0:
436,328,115171,1,8,0:0:0:0:
436,328,115246,6,0,L|428:284,1,45,2|2,0:0|0:0,0:0:0:0:
323,207,115396,2,0,L|319:265,1,45,2|2,0:0|0:0,0:0:0:0:
208,329,115546,1,8,0:0:0:0:
164,336,115621,1,8,0:0:0:0:
121,323,115696,1,8,0:0:0:0:
87,294,115771,1,8,0:0:0:0:
68,254,115846,6,0,P|64:208|72:152,1,90,6|0,0:0|0:0,0:0:0:0:
148,72,116146,2,0,P|192:84|240:80,1,90,8|0,0:0|0:0,0:0:0:0:
383,71,116446,1,2,0:0:0:0:
224,219,116596,1,2,0:0:0:0:
432,283,116746,1,8,0:0:0:0:
324,72,116896,1,0,0:0:0:0:
248,264,117046,5,2,0:0:0:0:
456,240,117196,1,0,0:0:0:0:
324,72,117346,2,0,P|280:72|220:84,1,90,8|0,0:0|0:0,0:0:0:0:
80,136,117646,1,2,0:0:0:0:
248,264,117796,2,0,P|292:264|352:252,1,90,2|8,0:0|0:0,0:0:0:0:
426,69,118096,6,0,P|462:149|454:245,1,180,2|2,0:0|0:0,0:0:0:0:
296,336,118546,2,0,P|264:304|247:260,1,90,8|0,0:0|0:0,0:0:0:0:
214,31,118846,1,2,0:0:0:0:
138,219,118996,1,2,0:0:0:0:
339,190,119146,1,8,0:0:0:0:
122,103,119296,1,0,0:0:0:0:
247,263,119446,5,2,0:0:0:0:
322,75,119596,1,2,0:0:0:0:
122,103,119746,2,0,P|80:116|40:152,1,90,8|0,0:0|0:0,0:0:0:0:
84,316,120046,1,2,0:0:0:0:
220,152,120196,1,2,0:0:0:0:
348,320,120346,1,8,0:0:0:0:
138,219,120496,1,8,0:0:0:0:
138,219,120571,1,8,0:0:0:0:
138,219,120646,6,0,P|108:148|160:68,1,180,6|8,0:0|0:0,0:0:0:0:
276,32,121096,1,0,0:0:0:0:
424,148,121246,2,0,L|412:240,1,90,2|2,0:0|0:0,0:0:0:0:
248,324,121546,2,0,L|236:234,1,90,8|0,0:0|0:0,0:0:0:0:
176,60,121846,6,0,P|136:88|120:124,1,90,2|0,0:0|0:0,0:0:0:0:
64,292,122146,2,0,P|104:320|152:324,1,90,8|0,0:0|0:0,0:0:0:0:
328,224,122446,1,2,0:0:0:0:
119,124,122596,1,2,0:0:0:0:
248,324,122746,1,8,0:0:0:0:
456,240,122896,1,2,0:0:0:0:
456,240,122971,1,2,0:0:0:0:
456,240,123046,6,0,L|460:144,1,90,12|2,0:0|0:0,0:0:0:0:
468,36,123346,1,2,0:0:0:0:
256,92,123496,2,0,L|259:181,1,90,12|2,0:0|0:0,0:0:0:0:
248,324,123796,1,2,0:0:0:0:
248,324,123871,1,2,0:0:0:0:
248,324,123946,2,0,L|148:320,1,90,12|0,0:0|0:0,0:0:0:0:
68,280,124246,5,8,0:0:0:0:
91,241,124321,1,8,0:0:0:0:
103,198,124396,1,2,0:0:0:0:
102,153,124471,1,2,0:0:0:0:
89,111,124546,2,0,L|68:60,1,45,2|2,0:0|0:0,0:0:0:0:
208,52,124696,1,8,0:0:0:0:
208,52,124771,1,8,0:0:0:0:
208,52,124846,6,0,L|225:93,1,45,2|2,0:0|0:0,0:0:0:0:
296,240,124996,2,0,L|312:180,1,45,2|2,0:0|0:0,0:0:0:0:
352,52,125146,1,8,0:0:0:0:
394,65,125221,1,8,0:0:0:0:
429,93,125296,1,8,0:0:0:0:
451,132,125371,1,8,0:0:0:0:
457,177,125446,6,0,B|454:240|454:240|425:276|425:276|422:347,1,180,6|8,0:0|0:0,0:0:0:0:
280,336,125896,1,0,0:0:0:0:
231,169,126046,2,0,P|271:149|316:148,1,90,2|2,0:0|0:0,0:0:0:0:
280,336,126346,2,0,P|235:334|195:314,1,90,8|0,0:0|0:0,0:0:0:0:
84,224,126646,6,0,P|79:266|80:320,1,90,2|0,0:0|0:0,0:0:0:0:
280,336,126946,2,0,P|280:291|275:246,1,90,8|0,0:0|0:0,0:0:0:0:
244,76,127246,2,0,P|188:84|152:112,1,90,2|2,0:0|0:0,0:0:0:0:
84,224,127546,1,8,0:0:0:0:
275,246,127696,6,0,B|339:208|311:132|311:132|311:100|331:72,1,180,2|2,0:0|0:0,0:0:0:0:
448,56,128146,2,0,L|452:156,1,90,8|0,0:0|0:0,0:0:0:0:
460,280,128446,1,2,0:0:0:0:
336,172,128596,1,2,0:0:0:0:
320,324,128746,2,0,P|272:332|224:324,1,90,8|0,0:0|0:0,0:0:0:0:
104,292,129046,5,2,0:0:0:0:
236,132,129196,1,2,0:0:0:0:
236,132,129271,1,2,0:0:0:0:
236,132,129346,2,0,L|240:228,1,90,8|0,0:0|0:0,0:0:0:0:
320,324,129646,1,2,0:0:0:0:
363,332,129721,1,0,0:0:0:0:
406,320,129796,1,2,0:0:0:0:
438,289,129871,1,0,0:0:0:0:
452,247,129946,1,8,0:0:0:0:
427,210,130021,1,0,0:0:0:0:
416,164,130096,1,0,0:0:0:0:
420,122,130171,1,0,0:0:0:0:
440,81,130246,6,0,P|400:48|264:60,1,180,6|8,0:0|0:0,0:0:0:0:
252,220,130696,2,0,P|176:208|144:112,1,180,2|2,0:0|0:0,0:0:0:0:
152,76,131071,1,2,0:0:0:0:
152,76,131146,2,0,P|99:64|48:68,1,90,8|0,0:0|0:0,0:0:0:0:
56,244,131446,6,0,P|104:244|145:233,1,90,2|2,0:0|0:0,0:0:0:0:
248,120,131746,1,8,0:0:0:0:
308,296,131896,2,0,P|336:204|288:132,1,180,2|2,0:0|0:0,0:0:0:0:
248,120,132271,1,2,0:0:0:0:
248,120,132346,2,0,L|256:20,1,90,8|0,0:0|0:0,0:0:0:0:
421,59,132646,5,12,0:0:0:0:
471,182,132796,1,8,0:0:0:0:
471,182,132871,1,8,0:0:0:0:
471,182,132946,1,8,0:0:0:0:
262,325,133096,5,4,0:0:0:0:
386,302,133246,1,8,0:0:0:0:
386,302,133321,1,8,0:0:0:0:
386,302,133396,1,8,0:0:0:0:
300,204,133546,5,12,0:0:0:0:
286,161,133621,1,8,0:0:0:0:
258,126,133696,1,8,0:0:0:0:
219,104,133771,1,8,0:0:0:0:
175,99,133846,6,0,L|112:96,3,45,12|8|8|8,0:0|0:0|0:0|0:0,0:0:0:0:
64,212,134146,2,0,L|108:209,3,45,2|2|2|2,0:0|0:0|0:0|0:0,0:0:0:0:
152,312,134446,1,12,0:0:0:0:
191,333,134521,1,8,0:0:0:0:
235,344,134596,1,8,0:0:0:0:
279,345,134671,1,8,0:0:0:0:
323,336,134746,1,2,0:0:0:0:
364,317,134821,1,2,0:0:0:0:
399,289,134896,1,2,0:0:0:0:
427,254,134971,1,2,0:0:0:0:
446,213,135046,6,0,P|448:163|444:120,1,90,12|2,0:0|0:0,0:0:0:0:
312,52,135346,2,0,L|310:141,1,90,8|2,0:0|0:0,0:0:0:0:
188,208,135646,2,0,P|182:160|186:118,1,90,8|2,0:0|0:0,0:0:0:0:
192,76,135871,1,2,0:0:0:0:
192,76,135946,2,0,P|144:68|88:72,1,90,8|2,0:0|0:0,0:0:0:0:
68,260,136246,6,0,P|115:263|157:256,1,90,8|2,0:0|0:0,0:0:0:0:
288,200,136546,2,0,L|292:304,1,90,8|2,0:0|0:0,0:0:0:0:
424,328,136846,2,0,L|420:238,1,90,8|2,0:0|0:0,0:0:0:0:
416,192,137071,1,2,0:0:0:0:
416,192,137146,2,0,P|408:140|396:96,1,90,8|2,0:0|0:0,0:0:0:0:
176,76,137446,5,12,0:0:0:0:
112,240,137596,1,2,0:0:0:0:
112,240,137746,1,2,0:0:0:0:
335,163,137896,5,12,0:0:0:0:
80,137,138046,1,2,0:0:0:0:
80,137,138196,1,2,0:0:0:0:
256,294,138346,5,12,0:0:0:0:
295,53,138496,1,2,0:0:0:0:
295,53,138646,1,2,0:0:0:0:
80,137,138796,5,12,0:0:0:0:
148,324,138946,1,8,0:0:0:0:
80,137,139846,6,0,P|66:184|70:232,1,90,12|2,0:0|0:0,0:0:0:0:
178,305,140146,1,2,0:0:0:0:
183,112,140296,6,0,P|155:64|115:40,1,90,12|2,0:0|0:0,0:0:0:0:
80,137,140596,1,2,0:0:0:0:
214,193,140746,6,0,P|253:162|269:107,1,90,12|2,0:0|0:0,0:0:0:0:
351,52,141046,1,2,0:0:0:0:
429,134,141196,6,0,L|425:238,1,90,12|2,0:0|0:0,0:0:0:0:
354,322,141496,1,2,0:0:0:0:
354,322,141571,1,2,0:0:0:0:
354,322,141646,6,0,L|254:314,1,90,12|2,0:0|0:0,0:0:0:0:
125,213,141946,2,0,L|214:220,1,90,12|2,0:0|0:0,0:0:0:0:
314,133,142246,5,4,0:0:0:0:
256,192,142321,12,0,147046,0:0:0:0:
