osu file format v14

[General]
AudioFilename: Towa yori Towa ni.mp3
AudioLeadIn: 0
PreviewTime: 97293
Countdown: 0
SampleSet: Normal
StackLeniency: 0.7
Mode: 1
LetterboxInBreaks: 0
WidescreenStoryboard: 0

[Editor]
DistanceSpacing: 1.2
BeatDivisor: 4
GridSize: 32
TimelineZoom: 1.4

[Metadata]
Title:Towa yori Towa ni
TitleUnicode:永久より永遠に
Artist:marina
ArtistUnicode:marina
Creator:Nardoxyribonucleic
Version:qoot8123's Muzukashii
Source:少女神域∽少女天獄 -The Garden of Fifth Zoa-
Tags:Taiko Lass Visual Novel Shoujo Shiniki Tengoku qoot8123 mingmichael
BeatmapID:1170444
BeatmapSetID:552695

[Difficulty]
HPDrainRate:5
CircleSize:5
OverallDifficulty:5
ApproachRate:5
SliderMultiplier:1.4
SliderTickRate:1

[Events]
//Background and Video events
0,0,"Sana.jpg",0,65
//Break Periods
//Storyboard Layer 0 (Background)
//Storyboard Layer 1 (Fail)
//Storyboard Layer 2 (Pass)
//Storyboard Layer 3 (Foreground)
//Storyboard Sound Samples

[TimingPoints]
1593,300,4,1,0,50,1,0
13593,-100,4,1,0,60,0,0
23043,-100,4,1,0,70,0,0
37593,-100,4,1,0,50,0,0
51993,-100,4,1,0,60,0,0
56793,-100,4,1,0,70,0,0
66393,-100,4,1,0,60,0,0
75993,-100,4,1,0,70,0,0
85593,300,3,1,0,55,1,0
90993,300,4,1,0,70,1,0
98193,-100,4,1,0,80,0,1
141393,-100,4,1,0,60,0,0
143793,-100,4,1,0,70,0,0
153393,-100,4,1,0,60,0,0
172593,-100,4,1,0,70,0,0
182193,-100,4,1,0,60,0,0
191793,-100,4,1,0,65,0,0
196593,-100,4,1,0,75,0,0
201393,300,3,1,0,55,1,0
206793,300,4,1,0,70,1,8
206803,300,4,1,0,70,1,0
214003,300,7,1,0,65,1,0
217903,300,7,1,0,65,1,0
220003,300,4,1,0,65,1,0
226003,300,4,1,0,65,1,8
226153,300,3,1,0,65,1,0
227953,300,5,1,0,65,1,0
229453,300,3,1,0,55,1,0
234853,300,4,1,0,70,1,0
244453,-100,4,1,0,65,0,0
255253,-100,4,1,0,80,0,1
288853,-100,4,1,0,60,0,0
291253,-100,4,1,0,65,0,0
300703,-100,4,1,0,70,0,0
310453,-100,4,1,0,50,0,0
311053,-100,4,1,0,45,0,0
311653,-100,4,1,0,40,0,0
312253,-100,4,1,0,35,0,0
312853,-100,4,1,0,30,0,0
313453,-100,4,1,0,25,0,0
314053,-100,4,1,0,20,0,0
314653,-100,4,1,0,15,0,0
315253,-100,4,1,0,10,0,0

[HitObjects]
256,192,12393,5,0,0:0:0:0:
256,160,12843,1,0,0:0:0:0:
256,160,13293,1,8,0:0:0:0:
256,160,13593,1,4,0:0:0:0:
256,160,14193,1,0,0:0:0:0:
256,160,14493,1,8,0:0:0:0:
256,160,14643,1,0,0:0:0:0:
256,160,15093,1,8,0:0:0:0:
256,160,15393,1,0,0:0:0:0:
256,160,15693,1,8,0:0:0:0:
256,160,15843,1,0,0:0:0:0:
256,160,16293,1,8,0:0:0:0:
256,160,16593,1,0,0:0:0:0:
256,160,16893,1,0,0:0:0:0:
256,160,17043,1,8,0:0:0:0:
256,160,17343,1,8,0:0:0:0:
256,160,17493,1,0,0:0:0:0:
256,160,17793,1,8,0:0:0:0:
256,160,17943,1,8,0:0:0:0:
256,160,18093,1,0,0:0:0:0:
256,160,18393,1,0,0:0:0:0:
256,160,18693,1,8,0:0:0:0:
256,160,18993,1,0,0:0:0:0:
256,160,19293,1,8,0:0:0:0:
256,160,19443,1,0,0:0:0:0:
256,160,19893,1,8,0:0:0:0:
256,160,20193,1,0,0:0:0:0:
256,160,20493,1,8,0:0:0:0:
256,160,20643,1,0,0:0:0:0:
256,160,21093,1,8,0:0:0:0:
256,160,21393,1,0,0:0:0:0:
256,160,21693,1,0,0:0:0:0:
256,160,21843,1,8,0:0:0:0:
256,160,22143,1,8,0:0:0:0:
256,160,22293,1,8,0:0:0:0:
256,160,22593,1,8,0:0:0:0:
256,160,22743,1,0,0:0:0:0:
256,160,22893,1,0,0:0:0:0:
256,160,23043,1,4,0:0:0:0:
256,160,23493,1,8,0:0:0:0:
256,192,23793,1,0,0:0:0:0:
256,192,23943,1,0,0:0:0:0:
256,192,24093,1,8,0:0:0:0:
256,192,24243,1,0,0:0:0:0:
256,192,24693,1,8,0:0:0:0:
256,192,24993,1,0,0:0:0:0:
256,192,25143,1,0,0:0:0:0:
256,192,25293,1,8,0:0:0:0:
256,192,25443,1,0,0:0:0:0:
256,192,25893,1,8,0:0:0:0:
256,192,26193,1,0,0:0:0:0:
256,192,26343,1,0,0:0:0:0:
256,192,26493,1,8,0:0:0:0:
256,192,26643,1,8,0:0:0:0:
256,192,26943,1,0,0:0:0:0:
256,192,27093,1,8,0:0:0:0:
256,192,27393,1,8,0:0:0:0:
256,192,27543,1,0,0:0:0:0:
256,192,27693,1,8,0:0:0:0:
256,192,27768,1,8,0:0:0:0:
256,192,27843,1,8,0:0:0:0:
256,192,27993,1,4,0:0:0:0:
256,192,28293,1,8,0:0:0:0:
256,192,28593,1,8,0:0:0:0:
256,192,28743,1,0,0:0:0:0:
256,192,28893,1,8,0:0:0:0:
256,192,29043,1,8,0:0:0:0:
256,192,29343,1,0,0:0:0:0:
256,192,29493,1,8,0:0:0:0:
256,192,29643,1,8,0:0:0:0:
256,192,29793,1,0,0:0:0:0:
256,192,29943,1,0,0:0:0:0:
256,192,30093,1,8,0:0:0:0:
256,192,30243,1,8,0:0:0:0:
256,192,30543,1,0,0:0:0:0:
256,192,30693,1,8,0:0:0:0:
256,192,30993,1,8,0:0:0:0:
256,192,31143,1,0,0:0:0:0:
256,192,31293,1,8,0:0:0:0:
256,192,31443,1,0,0:0:0:0:
256,192,31743,1,0,0:0:0:0:
256,192,31893,1,8,0:0:0:0:
256,192,32043,1,8,0:0:0:0:
128,128,32193,2,0,L|416:160,1,280
256,192,33093,1,0,0:0:0:0:
256,192,33393,1,0,0:0:0:0:
256,192,33693,1,0,0:0:0:0:
256,192,33843,1,0,0:0:0:0:
256,192,33993,1,0,0:0:0:0:
256,192,34293,1,0,0:0:0:0:
256,192,34593,1,0,0:0:0:0:
256,192,34893,1,0,0:0:0:0:
256,192,35043,1,0,0:0:0:0:
256,192,35193,1,0,0:0:0:0:
256,192,35493,1,0,0:0:0:0:
256,192,35793,1,0,0:0:0:0:
256,192,36093,1,0,0:0:0:0:
256,192,36243,1,0,0:0:0:0:
256,192,36393,1,0,0:0:0:0:
256,192,36693,1,0,0:0:0:0:
256,192,37143,1,0,0:0:0:0:
256,192,37593,1,0,0:0:0:0:
256,192,38793,1,8,0:0:0:0:
256,192,39393,1,8,0:0:0:0:
256,192,39693,1,8,0:0:0:0:
256,192,39993,1,0,0:0:0:0:
256,192,40443,1,8,0:0:0:0:
256,192,40893,1,0,0:0:0:0:
256,192,41793,1,8,0:0:0:0:
256,192,43593,1,8,0:0:0:0:
256,192,44193,1,0,0:0:0:0:
256,192,44493,1,8,0:0:0:0:
256,192,44793,1,0,0:0:0:0:
256,192,45243,1,0,0:0:0:0:
256,192,45693,1,8,0:0:0:0:
256,192,46293,1,8,0:0:0:0:
256,192,46893,1,8,0:0:0:0:
256,192,47793,1,8,0:0:0:0:
256,192,48393,1,0,0:0:0:0:
256,192,48993,1,8,0:0:0:0:
256,192,49293,1,8,0:0:0:0:
256,192,49593,1,0,0:0:0:0:
256,192,50043,1,8,0:0:0:0:
256,192,50493,1,0,0:0:0:0:
256,192,51393,1,8,0:0:0:0:
256,192,51993,1,0,0:0:0:0:
256,192,52293,1,0,0:0:0:0:
256,192,52593,1,0,0:0:0:0:
256,192,52893,1,0,0:0:0:0:
256,192,53043,1,0,0:0:0:0:
256,192,53193,1,0,0:0:0:0:
256,192,53493,1,0,0:0:0:0:
256,192,53793,1,0,0:0:0:0:
256,192,53943,1,0,0:0:0:0:
256,192,54093,1,0,0:0:0:0:
256,192,54243,1,0,0:0:0:0:
256,192,54393,1,0,0:0:0:0:
256,192,54693,1,0,0:0:0:0:
256,192,54843,1,0,0:0:0:0:
256,192,54993,1,8,0:0:0:0:
256,192,55143,1,0,0:0:0:0:
256,192,55293,1,8,0:0:0:0:
256,192,55593,1,8,0:0:0:0:
256,192,55743,1,0,0:0:0:0:
256,192,55893,1,0,0:0:0:0:
256,192,56043,1,8,0:0:0:0:
256,192,56193,1,0,0:0:0:0:
256,192,56343,1,0,0:0:0:0:
256,192,56493,1,8,0:0:0:0:
256,192,56793,1,4,0:0:0:0:
256,192,57093,1,8,0:0:0:0:
256,192,57393,1,0,0:0:0:0:
256,192,57543,1,0,0:0:0:0:
256,192,57693,1,8,0:0:0:0:
256,192,57843,1,0,0:0:0:0:
256,192,58143,1,0,0:0:0:0:
256,192,58293,1,8,0:0:0:0:
256,192,58593,1,0,0:0:0:0:
256,192,58743,1,0,0:0:0:0:
256,192,58893,1,8,0:0:0:0:
256,192,59043,1,8,0:0:0:0:
256,192,59193,1,0,0:0:0:0:
256,192,59493,1,8,0:0:0:0:
256,192,59793,1,0,0:0:0:0:
256,192,59943,1,0,0:0:0:0:
256,192,60093,1,8,0:0:0:0:
256,192,60243,1,0,0:0:0:0:
256,192,60543,1,0,0:0:0:0:
256,192,60693,1,8,0:0:0:0:
256,192,60993,1,8,0:0:0:0:
256,192,61143,1,0,0:0:0:0:
256,192,61293,1,8,0:0:0:0:
256,192,61443,1,8,0:0:0:0:
256,192,61593,1,0,0:0:0:0:
256,192,61893,1,8,0:0:0:0:
256,192,62193,1,0,0:0:0:0:
256,192,62493,1,8,0:0:0:0:
256,192,62643,1,0,0:0:0:0:
256,192,62943,1,0,0:0:0:0:
256,192,63093,1,8,0:0:0:0:
256,192,63393,1,0,0:0:0:0:
256,192,63543,1,0,0:0:0:0:
256,192,63693,1,8,0:0:0:0:
256,192,63843,1,0,0:0:0:0:
256,192,63993,1,8,0:0:0:0:
256,192,64293,1,0,0:0:0:0:
256,192,64443,1,8,0:0:0:0:
256,192,64593,1,0,0:0:0:0:
256,192,64743,1,0,0:0:0:0:
256,192,64893,1,8,0:0:0:0:
256,192,65193,1,8,0:0:0:0:
256,192,65343,1,8,0:0:0:0:
256,192,65493,1,0,0:0:0:0:
256,192,65643,1,0,0:0:0:0:
256,192,65793,1,8,0:0:0:0:
256,192,66093,1,8,0:0:0:0:
256,192,66168,1,8,0:0:0:0:
256,192,66243,1,8,0:0:0:0:
256,192,66393,1,0,0:0:0:0:
256,160,66993,1,0,0:0:0:0:
256,160,67293,1,0,0:0:0:0:
256,160,67593,1,8,0:0:0:0:
256,160,68193,1,8,0:0:0:0:
256,160,68493,1,0,0:0:0:0:
256,160,68643,1,0,0:0:0:0:
256,160,68793,1,8,0:0:0:0:
256,160,69393,1,0,0:0:0:0:
256,160,69693,1,0,0:0:0:0:
256,160,69993,1,0,0:0:0:0:
256,160,70143,1,0,0:0:0:0:
256,160,70293,1,0,0:0:0:0:
256,160,70593,1,8,0:0:0:0:
256,160,70743,1,8,0:0:0:0:
256,160,70893,1,0,0:0:0:0:
256,160,71043,1,0,0:0:0:0:
256,160,71193,1,0,0:0:0:0:
256,160,71793,1,0,0:0:0:0:
256,160,72093,1,0,0:0:0:0:
256,160,72393,1,8,0:0:0:0:
256,160,72993,1,8,0:0:0:0:
256,160,73293,1,0,0:0:0:0:
256,160,73443,1,0,0:0:0:0:
256,160,73593,1,8,0:0:0:0:
256,160,73893,1,0,0:0:0:0:
256,160,74043,1,0,0:0:0:0:
256,160,74193,1,0,0:0:0:0:
256,160,74493,1,0,0:0:0:0:
256,160,74643,1,8,0:0:0:0:
256,160,74718,1,8,0:0:0:0:
256,160,74793,1,8,0:0:0:0:
256,160,75993,1,0,0:0:0:0:
256,160,76143,1,0,0:0:0:0:
256,160,76293,1,8,0:0:0:0:
256,160,76743,1,0,0:0:0:0:
256,160,76893,1,8,0:0:0:0:
256,160,77193,1,0,0:0:0:0:
256,160,77343,1,0,0:0:0:0:
256,160,77493,1,8,0:0:0:0:
256,160,77643,1,0,0:0:0:0:
256,160,77943,1,0,0:0:0:0:
256,160,78093,1,8,0:0:0:0:
256,160,78393,1,0,0:0:0:0:
256,160,78543,1,0,0:0:0:0:
256,160,78693,1,8,0:0:0:0:
256,160,79143,1,0,0:0:0:0:
256,160,79293,1,8,0:0:0:0:
256,160,79593,1,0,0:0:0:0:
256,160,79743,1,0,0:0:0:0:
256,160,79893,1,8,0:0:0:0:
256,160,80193,1,0,0:0:0:0:
256,160,80343,1,0,0:0:0:0:
256,160,80493,1,8,0:0:0:0:
256,160,80643,1,0,0:0:0:0:
256,160,80793,1,8,0:0:0:0:
256,160,81093,1,8,0:0:0:0:
256,160,81243,1,0,0:0:0:0:
256,160,81393,1,8,0:0:0:0:
256,160,81693,1,8,0:0:0:0:
256,160,81843,1,0,0:0:0:0:
256,160,81993,1,8,0:0:0:0:
256,160,82293,1,8,0:0:0:0:
256,160,82593,1,8,0:0:0:0:
256,160,82743,1,0,0:0:0:0:
256,160,82893,1,8,0:0:0:0:
256,160,83043,1,0,0:0:0:0:
256,160,83193,1,8,0:0:0:0:
256,160,83493,1,8,0:0:0:0:
256,160,83793,1,8,0:0:0:0:
256,160,84093,1,8,0:0:0:0:
256,160,84243,1,0,0:0:0:0:
256,160,84393,1,8,0:0:0:0:
256,160,84693,1,8,0:0:0:0:
256,160,84843,1,0,0:0:0:0:
256,160,85143,1,0,0:0:0:0:
256,160,85293,1,8,0:0:0:0:
256,160,85593,1,8,0:0:0:0:
256,192,86193,1,8,0:0:0:0:
256,192,86493,1,8,0:0:0:0:
256,192,87093,1,8,0:0:0:0:
256,192,87393,1,8,0:0:0:0:
256,192,87693,1,0,0:0:0:0:
256,192,87993,1,8,0:0:0:0:
256,192,88293,1,8,0:0:0:0:
256,192,88893,1,0,0:0:0:0:
256,192,89193,1,8,0:0:0:0:
256,192,89493,1,0,0:0:0:0:
256,192,89793,1,8,0:0:0:0:
256,192,90093,1,8,0:0:0:0:
256,192,90393,1,0,0:0:0:0:
256,192,90693,1,8,0:0:0:0:
256,192,90993,1,4,0:0:0:0:
256,192,91293,1,0,0:0:0:0:
256,192,91593,1,0,0:0:0:0:
256,192,91743,1,0,0:0:0:0:
256,192,92043,1,0,0:0:0:0:
256,192,92193,1,8,0:0:0:0:
256,192,92493,1,0,0:0:0:0:
256,192,92793,1,0,0:0:0:0:
256,192,92943,1,0,0:0:0:0:
256,192,93093,1,8,0:0:0:0:
256,192,93243,1,0,0:0:0:0:
256,192,93393,1,8,0:0:0:0:
256,192,93693,1,8,0:0:0:0:
256,192,93993,1,0,0:0:0:0:
256,192,94143,1,0,0:0:0:0:
256,192,94293,1,8,0:0:0:0:
256,192,94443,1,8,0:0:0:0:
256,192,94518,1,8,0:0:0:0:
256,192,94593,5,8,0:0:0:0:
256,192,94743,1,0,0:0:0:0:
256,192,94893,1,0,0:0:0:0:
256,192,95043,1,8,0:0:0:0:
256,192,95343,1,0,0:0:0:0:
256,192,95493,1,8,0:0:0:0:
256,192,95643,1,0,0:0:0:0:
256,192,95793,5,8,0:0:0:0:
256,192,95943,5,0,0:0:0:0:
256,192,96093,1,8,0:0:0:0:
256,192,96243,1,8,0:0:0:0:
256,192,96693,1,8,0:0:0:0:
256,192,96843,1,0,0:0:0:0:
256,192,96993,1,8,0:0:0:0:
256,192,97143,1,8,0:0:0:0:
256,192,97293,12,0,97893,0:0:0:0:
256,192,98193,5,4,0:0:0:0:
256,192,98493,1,8,0:0:0:0:
256,192,98793,1,0,0:0:0:0:
256,192,98943,1,0,0:0:0:0:
256,192,99093,1,8,0:0:0:0:
256,192,99393,1,0,0:0:0:0:
256,192,99693,1,8,0:0:0:0:
256,192,99843,1,0,0:0:0:0:
256,192,99993,1,0,0:0:0:0:
256,192,100143,1,8,0:0:0:0:
256,192,100443,1,8,0:0:0:0:
256,192,100743,1,0,0:0:0:0:
256,192,100893,1,8,0:0:0:0:
256,192,101193,1,0,0:0:0:0:
256,192,101343,1,0,0:0:0:0:
256,192,101493,1,8,0:0:0:0:
256,192,101643,1,0,0:0:0:0:
256,192,101793,1,8,0:0:0:0:
256,192,102093,1,8,0:0:0:0:
256,192,102243,1,8,0:0:0:0:
256,192,102393,1,0,0:0:0:0:
256,192,102468,1,0,0:0:0:0:
256,192,102543,1,0,0:0:0:0:
256,192,102693,1,8,0:0:0:0:
256,192,102843,1,0,0:0:0:0:
256,192,102993,1,0,0:0:0:0:
256,192,103293,1,8,0:0:0:0:
256,192,103593,1,0,0:0:0:0:
256,192,103743,1,0,0:0:0:0:
256,192,103893,1,8,0:0:0:0:
256,192,104043,1,0,0:0:0:0:
256,192,104193,1,0,0:0:0:0:
256,192,104493,1,8,0:0:0:0:
256,192,104793,1,8,0:0:0:0:
256,192,104943,1,0,0:0:0:0:
256,192,105093,1,8,0:0:0:0:
256,192,105243,1,8,0:0:0:0:
256,192,105393,1,0,0:0:0:0:
256,192,105693,1,8,0:0:0:0:
256,192,105993,1,0,0:0:0:0:
256,192,106143,1,8,0:0:0:0:
256,192,106293,1,0,0:0:0:0:
256,192,106443,1,0,0:0:0:0:
256,192,106593,1,8,0:0:0:0:
256,192,106893,1,0,0:0:0:0:
256,192,107043,1,8,0:0:0:0:
256,192,107193,1,0,0:0:0:0:
256,192,107268,1,0,0:0:0:0:
256,192,107343,1,0,0:0:0:0:
256,192,107493,1,8,0:0:0:0:
256,192,107643,1,8,0:0:0:0:
256,192,107793,1,4,0:0:0:0:
256,192,108093,1,8,0:0:0:0:
256,192,108393,1,0,0:0:0:0:
256,192,108543,1,0,0:0:0:0:
256,192,108693,1,8,0:0:0:0:
256,192,108993,1,0,0:0:0:0:
256,192,109293,1,8,0:0:0:0:
256,192,109443,1,0,0:0:0:0:
256,192,109593,1,8,0:0:0:0:
256,192,109893,1,8,0:0:0:0:
256,192,110193,1,0,0:0:0:0:
256,192,110493,1,8,0:0:0:0:
256,192,110643,1,0,0:0:0:0:
256,192,110943,1,0,0:0:0:0:
256,192,111093,1,8,0:0:0:0:
256,192,111393,1,8,0:0:0:0:
256,192,111543,1,0,0:0:0:0:
256,192,111843,1,8,0:0:0:0:
256,192,111993,1,8,0:0:0:0:
256,192,112143,1,0,0:0:0:0:
256,192,112293,1,8,0:0:0:0:
256,192,112443,1,8,0:0:0:0:
256,192,112593,1,0,0:0:0:0:
256,192,112743,1,0,0:0:0:0:
256,192,112893,1,8,0:0:0:0:
256,192,113193,1,0,0:0:0:0:
256,192,113343,1,0,0:0:0:0:
256,192,113493,1,8,0:0:0:0:
256,192,113793,1,0,0:0:0:0:
256,192,113943,1,0,0:0:0:0:
256,192,114093,1,8,0:0:0:0:
256,192,114243,1,0,0:0:0:0:
256,192,114393,1,0,0:0:0:0:
256,192,114543,1,0,0:0:0:0:
256,192,114693,1,8,0:0:0:0:
256,192,114993,1,0,0:0:0:0:
256,192,115143,1,0,0:0:0:0:
256,192,115293,1,8,0:0:0:0:
256,192,115593,1,0,0:0:0:0:
256,192,115743,1,0,0:0:0:0:
256,192,115893,1,8,0:0:0:0:
256,192,116043,1,0,0:0:0:0:
256,192,116193,1,8,0:0:0:0:
256,192,116268,1,8,0:0:0:0:
256,192,116343,1,8,0:0:0:0:
256,192,116493,1,8,0:0:0:0:
256,192,116643,1,0,0:0:0:0:
256,192,116793,1,8,0:0:0:0:
256,192,117393,1,4,0:0:0:0:
256,192,117693,1,8,0:0:0:0:
256,192,117993,1,0,0:0:0:0:
256,192,118143,1,0,0:0:0:0:
256,192,118293,1,8,0:0:0:0:
256,192,118593,1,0,0:0:0:0:
256,192,118893,1,8,0:0:0:0:
256,192,119043,1,8,0:0:0:0:
256,192,119193,1,0,0:0:0:0:
256,192,119343,1,8,0:0:0:0:
256,192,119643,1,0,0:0:0:0:
256,192,119943,1,0,0:0:0:0:
256,192,120093,1,8,0:0:0:0:
256,192,120393,1,0,0:0:0:0:
256,192,120543,1,0,0:0:0:0:
256,192,120693,1,8,0:0:0:0:
256,192,120843,1,0,0:0:0:0:
256,192,120993,1,8,0:0:0:0:
256,192,121293,1,8,0:0:0:0:
256,192,121443,1,8,0:0:0:0:
256,192,121593,1,0,0:0:0:0:
256,192,121668,1,0,0:0:0:0:
256,192,121743,1,0,0:0:0:0:
256,192,121893,1,8,0:0:0:0:
256,192,122043,1,8,0:0:0:0:
256,192,122193,1,0,0:0:0:0:
256,192,122493,1,8,0:0:0:0:
256,192,122793,1,0,0:0:0:0:
256,192,122943,1,0,0:0:0:0:
256,192,123093,1,8,0:0:0:0:
256,192,123243,1,0,0:0:0:0:
256,192,123393,1,0,0:0:0:0:
256,192,123693,1,8,0:0:0:0:
256,192,123993,1,8,0:0:0:0:
256,192,124143,1,0,0:0:0:0:
256,192,124293,1,8,0:0:0:0:
256,192,124443,1,8,0:0:0:0:
256,192,124593,1,0,0:0:0:0:
256,192,124893,1,0,0:0:0:0:
256,192,125043,1,8,0:0:0:0:
256,192,125193,1,0,0:0:0:0:
256,192,125343,1,0,0:0:0:0:
256,192,125493,1,8,0:0:0:0:
256,192,125793,1,8,0:0:0:0:
256,192,126093,1,0,0:0:0:0:
256,192,126243,1,8,0:0:0:0:
256,192,126393,1,0,0:0:0:0:
256,192,126468,1,0,0:0:0:0:
256,192,126543,1,0,0:0:0:0:
256,192,126693,1,8,0:0:0:0:
256,192,126843,1,8,0:0:0:0:
256,192,126993,1,4,0:0:0:0:
256,192,127293,1,8,0:0:0:0:
256,192,127593,1,0,0:0:0:0:
256,192,127743,1,0,0:0:0:0:
256,192,127893,1,8,0:0:0:0:
256,192,128193,1,0,0:0:0:0:
256,192,128493,1,8,0:0:0:0:
256,192,128643,1,8,0:0:0:0:
256,192,128793,1,0,0:0:0:0:
256,192,128943,1,0,0:0:0:0:
256,192,129093,1,8,0:0:0:0:
256,192,129393,1,0,0:0:0:0:
256,192,129693,1,8,0:0:0:0:
256,192,129843,1,0,0:0:0:0:
256,192,129993,1,0,0:0:0:0:
256,192,130143,1,0,0:0:0:0:
256,192,130293,1,8,0:0:0:0:
256,192,130593,1,0,0:0:0:0:
256,192,130893,1,8,0:0:0:0:
256,192,131043,1,8,0:0:0:0:
256,192,131193,1,8,0:0:0:0:
256,192,131343,1,0,0:0:0:0:
256,192,131493,1,8,0:0:0:0:
256,192,131793,1,0,0:0:0:0:
256,192,132093,1,8,0:0:0:0:
256,192,132243,1,0,0:0:0:0:
256,192,132543,1,0,0:0:0:0:
256,160,132693,1,8,0:0:0:0:
256,192,132993,1,0,0:0:0:0:
256,192,133293,1,8,0:0:0:0:
256,192,133443,1,0,0:0:0:0:
256,192,133743,1,0,0:0:0:0:
256,192,133893,1,8,0:0:0:0:
256,192,134193,1,0,0:0:0:0:
256,192,134493,1,8,0:0:0:0:
256,192,134643,1,0,0:0:0:0:
256,192,134793,1,0,0:0:0:0:
256,192,134943,1,0,0:0:0:0:
256,192,135093,1,8,0:0:0:0:
256,192,135393,1,0,0:0:0:0:
256,192,135543,1,0,0:0:0:0:
256,192,135693,1,8,0:0:0:0:
256,192,135843,1,8,0:0:0:0:
256,192,135918,1,8,0:0:0:0:
256,192,135993,1,8,0:0:0:0:
256,192,136143,1,0,0:0:0:0:
258,199,136293,1,8,0:0:0:0:
256,192,136593,1,12,0:0:0:0:
256,192,136893,1,8,0:0:0:0:
256,192,137043,1,0,0:0:0:0:
256,192,137193,1,8,0:0:0:0:
256,192,137493,1,8,0:0:0:0:
256,192,137643,1,0,0:0:0:0:
256,192,137793,1,8,0:0:0:0:
256,192,138093,1,8,0:0:0:0:
256,192,138243,1,0,0:0:0:0:
256,192,138393,1,8,0:0:0:0:
256,192,138543,1,0,0:0:0:0:
256,192,138693,1,8,0:0:0:0:
256,192,138993,1,12,0:0:0:0:
256,192,139143,1,12,0:0:0:0:
256,192,139443,1,12,0:0:0:0:
256,192,139593,1,12,0:0:0:0:
256,192,139893,1,12,0:0:0:0:
256,192,140043,1,12,0:0:0:0:
256,192,140343,1,12,0:0:0:0:
256,192,140493,1,12,0:0:0:0:
256,192,141393,1,4,0:0:0:0:
256,192,141843,1,8,0:0:0:0:
256,192,142143,1,0,0:0:0:0:
256,192,142293,1,8,0:0:0:0:
256,192,142593,1,0,0:0:0:0:
256,192,142743,1,8,0:0:0:0:
256,192,143043,1,8,0:0:0:0:
256,192,143118,1,8,0:0:0:0:
256,192,143193,1,8,0:0:0:0:
256,192,143343,1,0,0:0:0:0:
256,192,143493,1,8,0:0:0:0:
256,192,143793,1,4,0:0:0:0:
256,160,144093,1,8,0:0:0:0:
256,192,144393,1,0,0:0:0:0:
256,192,144543,1,0,0:0:0:0:
256,192,144693,1,8,0:0:0:0:
256,192,144843,1,0,0:0:0:0:
256,192,145293,1,8,0:0:0:0:
256,192,145593,1,0,0:0:0:0:
256,192,145743,1,0,0:0:0:0:
256,192,145893,1,8,0:0:0:0:
256,192,146043,1,0,0:0:0:0:
256,192,146493,1,8,0:0:0:0:
256,192,146793,1,0,0:0:0:0:
256,192,146943,1,0,0:0:0:0:
256,192,147093,1,8,0:0:0:0:
256,192,147243,1,8,0:0:0:0:
256,192,147543,1,0,0:0:0:0:
256,192,147693,1,8,0:0:0:0:
256,192,147993,1,8,0:0:0:0:
256,192,148143,1,0,0:0:0:0:
256,192,148293,1,8,0:0:0:0:
256,192,148368,1,8,0:0:0:0:
256,192,148443,1,8,0:0:0:0:
256,192,148593,1,4,0:0:0:0:
256,192,148893,1,8,0:0:0:0:
256,192,149193,1,8,0:0:0:0:
256,192,149343,1,0,0:0:0:0:
256,192,149493,1,8,0:0:0:0:
256,192,149643,1,8,0:0:0:0:
256,192,149943,1,0,0:0:0:0:
256,192,150093,1,8,0:0:0:0:
256,192,150243,1,8,0:0:0:0:
256,192,150393,1,0,0:0:0:0:
256,192,150543,1,0,0:0:0:0:
256,192,150693,1,8,0:0:0:0:
256,192,150843,1,8,0:0:0:0:
256,192,151143,1,0,0:0:0:0:
256,192,151293,1,8,0:0:0:0:
256,192,151593,1,8,0:0:0:0:
256,192,151743,1,0,0:0:0:0:
256,192,151893,1,8,0:0:0:0:
256,192,152043,1,0,0:0:0:0:
256,192,152343,1,0,0:0:0:0:
256,192,152493,1,8,0:0:0:0:
256,192,152643,1,8,0:0:0:0:
256,192,152793,1,0,0:0:0:0:
256,192,152868,1,0,0:0:0:0:
256,192,152943,1,0,0:0:0:0:
224,192,153093,1,8,0:0:0:0:
256,192,153393,1,0,0:0:0:0:
256,192,153543,1,0,0:0:0:0:
256,192,153993,1,8,0:0:0:0:
256,192,154293,1,0,0:0:0:0:
256,192,154443,1,0,0:0:0:0:
256,192,154743,1,0,0:0:0:0:
256,192,154893,1,0,0:0:0:0:
256,192,155193,1,8,0:0:0:0:
256,192,155793,1,0,0:0:0:0:
256,192,155943,1,0,0:0:0:0:
256,192,156393,1,8,0:0:0:0:
256,192,156693,1,0,0:0:0:0:
256,192,156843,1,0,0:0:0:0:
256,192,157143,1,0,0:0:0:0:
256,192,157293,1,0,0:0:0:0:
256,192,157593,1,8,0:0:0:0:
256,192,158193,1,0,0:0:0:0:
256,192,158343,1,0,0:0:0:0:
256,192,158793,1,8,0:0:0:0:
256,192,159093,1,0,0:0:0:0:
256,192,159243,1,0,0:0:0:0:
256,192,159543,1,0,0:0:0:0:
256,192,159693,1,0,0:0:0:0:
256,192,159993,1,8,0:0:0:0:
256,192,160593,1,0,0:0:0:0:
256,192,160743,1,0,0:0:0:0:
256,192,161043,1,0,0:0:0:0:
256,192,161193,1,8,0:0:0:0:
256,192,161493,1,0,0:0:0:0:
256,192,161643,1,0,0:0:0:0:
256,192,161943,1,8,0:0:0:0:
256,192,162093,1,0,0:0:0:0:
256,192,162393,1,8,0:0:0:0:
256,192,162693,1,8,0:0:0:0:
256,192,162843,1,8,0:0:0:0:
256,192,162993,1,0,0:0:0:0:
256,192,163143,1,0,0:0:0:0:
256,192,163593,1,8,0:0:0:0:
256,192,163893,1,0,0:0:0:0:
256,192,164043,1,0,0:0:0:0:
256,192,164343,1,0,0:0:0:0:
256,192,164493,1,0,0:0:0:0:
256,192,164793,1,8,0:0:0:0:
256,192,165393,1,0,0:0:0:0:
256,192,165543,1,0,0:0:0:0:
256,192,165993,1,8,0:0:0:0:
256,192,166293,1,0,0:0:0:0:
256,192,166443,1,0,0:0:0:0:
256,192,166743,1,0,0:0:0:0:
256,192,166893,1,0,0:0:0:0:
256,192,167193,1,8,0:0:0:0:
256,192,167343,1,0,0:0:0:0:
256,192,167493,1,8,0:0:0:0:
256,192,167793,1,0,0:0:0:0:
256,192,167943,1,0,0:0:0:0:
256,192,168393,1,8,0:0:0:0:
256,192,168693,1,0,0:0:0:0:
256,192,168843,1,0,0:0:0:0:
256,192,169143,1,0,0:0:0:0:
256,192,169293,1,0,0:0:0:0:
256,192,169593,1,8,0:0:0:0:
256,192,169743,1,0,0:0:0:0:
256,192,169893,1,8,0:0:0:0:
256,192,170043,1,8,0:0:0:0:
256,192,170193,1,4,0:0:0:0:
256,192,170643,1,4,0:0:0:0:
256,192,171093,1,12,0:0:0:0:
256,192,172593,1,4,0:0:0:0:
256,192,172893,1,8,0:0:0:0:
256,192,173043,1,8,0:0:0:0:
256,192,173193,1,0,0:0:0:0:
256,192,173493,1,8,0:0:0:0:
256,192,173643,1,0,0:0:0:0:
256,192,173943,1,8,0:0:0:0:
256,192,174093,1,8,0:0:0:0:
256,192,174393,1,0,0:0:0:0:
256,192,174543,1,0,0:0:0:0:
256,192,174693,1,8,0:0:0:0:
256,192,174843,1,8,0:0:0:0:
256,192,174993,1,0,0:0:0:0:
256,192,175293,1,8,0:0:0:0:
256,192,175593,1,0,0:0:0:0:
256,192,175743,1,0,0:0:0:0:
256,192,175893,1,8,0:0:0:0:
256,192,176043,1,0,0:0:0:0:
256,192,176343,1,0,0:0:0:0:
256,192,176493,1,8,0:0:0:0:
256,192,176793,1,8,0:0:0:0:
256,192,176943,1,0,0:0:0:0:
256,192,177093,1,8,0:0:0:0:
256,192,177243,1,8,0:0:0:0:
256,192,177393,1,0,0:0:0:0:
256,192,177693,1,8,0:0:0:0:
256,192,177993,1,0,0:0:0:0:
256,192,178293,1,8,0:0:0:0:
256,192,178443,1,0,0:0:0:0:
256,192,178743,1,0,0:0:0:0:
256,192,178893,1,8,0:0:0:0:
256,192,179193,1,0,0:0:0:0:
256,192,179343,1,0,0:0:0:0:
256,192,179493,1,8,0:0:0:0:
256,192,179793,1,8,0:0:0:0:
256,192,180093,1,0,0:0:0:0:
256,192,180243,1,8,0:0:0:0:
256,192,180393,1,0,0:0:0:0:
256,192,180543,1,0,0:0:0:0:
256,192,180693,1,8,0:0:0:0:
256,192,180993,1,8,0:0:0:0:
256,192,181143,1,8,0:0:0:0:
256,192,181293,1,0,0:0:0:0:
256,192,181443,1,0,0:0:0:0:
256,192,181593,1,8,0:0:0:0:
256,192,181893,1,8,0:0:0:0:
256,192,181968,1,8,0:0:0:0:
256,192,182043,1,8,0:0:0:0:
256,192,182193,1,0,0:0:0:0:
256,192,182793,1,0,0:0:0:0:
256,192,183093,1,0,0:0:0:0:
256,192,183393,1,0,0:0:0:0:
256,192,183993,1,8,0:0:0:0:
256,192,184293,1,0,0:0:0:0:
256,192,184443,1,0,0:0:0:0:
256,192,184593,1,0,0:0:0:0:
256,192,185193,1,0,0:0:0:0:
256,192,185493,1,0,0:0:0:0:
256,192,185793,1,0,0:0:0:0:
256,192,185943,1,0,0:0:0:0:
256,192,186093,1,0,0:0:0:0:
256,192,186393,1,8,0:0:0:0:
256,192,186543,1,8,0:0:0:0:
256,192,186693,1,0,0:0:0:0:
256,192,186843,1,0,0:0:0:0:
256,192,186993,1,0,0:0:0:0:
256,192,187593,1,0,0:0:0:0:
256,192,187893,1,0,0:0:0:0:
256,192,188193,1,0,0:0:0:0:
256,192,188793,1,8,0:0:0:0:
256,192,189093,1,0,0:0:0:0:
256,192,189243,1,0,0:0:0:0:
256,192,189393,1,8,0:0:0:0:
256,192,189693,1,0,0:0:0:0:
256,192,189843,1,0,0:0:0:0:
256,192,189993,1,8,0:0:0:0:
256,192,190293,1,8,0:0:0:0:
256,192,190593,1,0,0:0:0:0:
256,192,190743,1,0,0:0:0:0:
256,192,190893,1,8,0:0:0:0:
256,192,191043,1,8,0:0:0:0:
256,192,191118,1,8,0:0:0:0:
256,192,191193,1,8,0:0:0:0:
256,192,191793,1,4,0:0:0:0:
256,192,192393,1,0,0:0:0:0:
256,192,192693,1,0,0:0:0:0:
256,192,192993,1,8,0:0:0:0:
256,192,193143,1,0,0:0:0:0:
256,192,193593,1,0,0:0:0:0:
256,192,193893,1,0,0:0:0:0:
256,192,194193,1,0,0:0:0:0:
256,192,194343,1,0,0:0:0:0:
256,192,194643,1,0,0:0:0:0:
256,192,194943,1,0,0:0:0:0:
256,192,195093,1,0,0:0:0:0:
256,192,195243,1,0,0:0:0:0:
256,192,195393,1,8,0:0:0:0:
256,192,195693,1,0,0:0:0:0:
256,192,195993,1,8,0:0:0:0:
256,192,196143,1,0,0:0:0:0:
256,192,196293,1,8,0:0:0:0:
256,192,196368,1,8,0:0:0:0:
256,192,196443,1,8,0:0:0:0:
256,160,196593,1,8,0:0:0:0:
256,160,196743,1,0,0:0:0:0:
256,160,196893,1,8,0:0:0:0:
256,160,197193,1,8,0:0:0:0:
256,160,197343,1,0,0:0:0:0:
256,160,197493,1,8,0:0:0:0:
256,160,197793,1,8,0:0:0:0:
256,160,198093,1,8,0:0:0:0:
256,160,198393,1,8,0:0:0:0:
256,160,198543,1,0,0:0:0:0:
256,160,198693,1,8,0:0:0:0:
256,160,198843,1,0,0:0:0:0:
256,160,198993,1,8,0:0:0:0:
256,160,199293,1,8,0:0:0:0:
256,160,199593,1,8,0:0:0:0:
256,160,199893,1,8,0:0:0:0:
256,160,200043,1,0,0:0:0:0:
256,160,200193,1,8,0:0:0:0:
256,160,200493,1,0,0:0:0:0:
256,160,200643,1,8,0:0:0:0:
256,160,200943,1,0,0:0:0:0:
256,160,201093,1,8,0:0:0:0:
256,160,201243,1,8,0:0:0:0:
256,160,201393,1,0,0:0:0:0:
256,192,201993,1,8,0:0:0:0:
256,192,202293,1,8,0:0:0:0:
256,192,202893,1,8,0:0:0:0:
256,192,203193,1,8,0:0:0:0:
256,192,203493,1,0,0:0:0:0:
256,192,203793,1,8,0:0:0:0:
256,192,204093,1,8,0:0:0:0:
256,192,204693,1,8,0:0:0:0:
256,192,204993,1,0,0:0:0:0:
256,192,205293,1,0,0:0:0:0:
256,192,205593,1,8,0:0:0:0:
256,192,205893,1,8,0:0:0:0:
256,192,206193,1,0,0:0:0:0:
256,192,206493,1,8,0:0:0:0:
256,192,206803,1,4,0:0:0:0:
256,192,207103,1,0,0:0:0:0:
256,192,207403,1,0,0:0:0:0:
256,192,207553,1,0,0:0:0:0:
256,192,207853,1,0,0:0:0:0:
256,192,208003,1,8,0:0:0:0:
256,192,208303,1,0,0:0:0:0:
256,192,208603,1,0,0:0:0:0:
256,192,208753,1,0,0:0:0:0:
256,192,208903,1,8,0:0:0:0:
256,192,209053,1,8,0:0:0:0:
256,192,209203,1,0,0:0:0:0:
256,192,209503,1,0,0:0:0:0:
256,192,209803,1,0,0:0:0:0:
256,192,209953,1,0,0:0:0:0:
256,192,210103,1,8,0:0:0:0:
256,192,210253,1,8,0:0:0:0:
256,192,210328,1,8,0:0:0:0:
256,192,210403,5,8,0:0:0:0:
256,192,210553,1,0,0:0:0:0:
256,192,210703,1,0,0:0:0:0:
256,192,210853,1,8,0:0:0:0:
256,192,211153,1,0,0:0:0:0:
256,192,211303,1,8,0:0:0:0:
256,192,211453,1,0,0:0:0:0:
256,192,211603,5,8,0:0:0:0:
256,192,211753,5,0,0:0:0:0:
256,192,211903,1,8,0:0:0:0:
256,192,212053,1,8,0:0:0:0:
256,192,212503,1,8,0:0:0:0:
256,192,212653,1,0,0:0:0:0:
256,192,212803,1,8,0:0:0:0:
256,192,212953,1,8,0:0:0:0:
256,192,213403,1,8,0:0:0:0:
256,192,213553,1,8,0:0:0:0:
256,192,214003,1,4,0:0:0:0:
256,192,214303,1,0,0:0:0:0:
256,192,214603,1,8,0:0:0:0:
256,192,214903,1,0,0:0:0:0:
256,192,215053,1,0,0:0:0:0:
256,192,215353,1,0,0:0:0:0:
256,192,215653,1,0,0:0:0:0:
256,192,215803,1,8,0:0:0:0:
256,192,216103,1,0,0:0:0:0:
256,192,216403,1,0,0:0:0:0:
256,192,216553,1,0,0:0:0:0:
256,192,216703,1,8,0:0:0:0:
256,192,216853,1,0,0:0:0:0:
256,192,217153,1,0,0:0:0:0:
288,192,217453,1,8,0:0:0:0:
256,192,217603,1,0,0:0:0:0:
288,192,217753,1,8,0:0:0:0:
256,192,217903,1,0,0:0:0:0:
256,192,218203,1,0,0:0:0:0:
256,192,218503,1,8,0:0:0:0:
256,192,218803,1,0,0:0:0:0:
256,192,218953,1,0,0:0:0:0:
256,192,219103,1,8,0:0:0:0:
256,192,219403,1,8,0:0:0:0:
256,192,219703,1,8,0:0:0:0:
256,192,219853,1,8,0:0:0:0:
256,192,220003,1,0,0:0:0:0:
256,192,220303,1,0,0:0:0:0:
256,192,220603,1,8,0:0:0:0:
256,192,220903,1,0,0:0:0:0:
256,192,221053,1,8,0:0:0:0:
256,192,221503,1,8,0:0:0:0:
256,192,221803,1,8,0:0:0:0:
256,192,221953,1,0,0:0:0:0:
256,192,222103,1,8,0:0:0:0:
256,192,222403,1,4,0:0:0:0:
256,192,222703,1,8,0:0:0:0:
256,192,222853,1,8,0:0:0:0:
256,192,223153,1,0,0:0:0:0:
256,192,223303,1,8,0:0:0:0:
256,192,223453,1,0,0:0:0:0:
256,192,223753,1,8,0:0:0:0:
256,192,223903,1,0,0:0:0:0:
256,192,224053,1,8,0:0:0:0:
256,192,224353,1,8,0:0:0:0:
256,192,224503,1,0,0:0:0:0:
256,192,224653,1,0,0:0:0:0:
256,192,224803,1,8,0:0:0:0:
256,192,224953,1,0,0:0:0:0:
256,192,225253,1,8,0:0:0:0:
256,192,225403,1,0,0:0:0:0:
256,192,225703,1,8,0:0:0:0:
256,192,225853,1,0,0:0:0:0:
256,192,226153,1,8,0:0:0:0:
256,192,226453,1,8,0:0:0:0:
256,192,226753,1,8,0:0:0:0:
256,192,227053,1,8,0:0:0:0:
256,192,227203,1,0,0:0:0:0:
256,192,227353,1,0,0:0:0:0:
256,192,227503,1,8,0:0:0:0:
256,192,227653,1,0,0:0:0:0:
256,192,227803,1,0,0:0:0:0:
256,192,227953,1,12,0:0:0:0:
256,192,229453,5,8,0:0:0:0:
256,192,230353,1,0,0:0:0:0:
256,192,231253,1,8,0:0:0:0:
256,192,231853,1,8,0:0:0:0:
256,192,232153,1,8,0:0:0:0:
256,192,232753,1,0,0:0:0:0:
256,192,233053,1,0,0:0:0:0:
256,192,233353,1,8,0:0:0:0:
256,192,233653,1,8,0:0:0:0:
256,192,233953,1,8,0:0:0:0:
256,192,234253,1,0,0:0:0:0:
256,192,234553,1,8,0:0:0:0:
256,192,234853,1,4,0:0:0:0:
256,192,235153,1,0,0:0:0:0:
256,192,235453,1,0,0:0:0:0:
256,192,235753,1,0,0:0:0:0:
256,192,235903,1,0,0:0:0:0:
256,192,236053,1,8,0:0:0:0:
256,192,236353,1,0,0:0:0:0:
256,192,236653,1,0,0:0:0:0:
256,192,236803,1,0,0:0:0:0:
256,192,236953,1,8,0:0:0:0:
256,192,237103,1,0,0:0:0:0:
256,192,237253,1,8,0:0:0:0:
256,192,237553,1,8,0:0:0:0:
256,192,237853,1,0,0:0:0:0:
256,192,238003,1,0,0:0:0:0:
256,192,238153,1,8,0:0:0:0:
256,192,238303,1,8,0:0:0:0:
256,192,238378,1,8,0:0:0:0:
256,192,238453,5,8,0:0:0:0:
256,192,238603,1,0,0:0:0:0:
256,192,238753,1,0,0:0:0:0:
256,192,238903,1,8,0:0:0:0:
256,192,239053,1,0,0:0:0:0:
256,192,239203,1,0,0:0:0:0:
256,192,239353,1,8,0:0:0:0:
256,192,239653,5,8,0:0:0:0:
256,192,239803,5,0,0:0:0:0:
256,192,239953,1,8,0:0:0:0:
256,192,240103,1,8,0:0:0:0:
256,192,240553,1,8,0:0:0:0:
256,192,240703,1,0,0:0:0:0:
256,192,240853,1,8,0:0:0:0:
256,192,241003,1,8,0:0:0:0:
256,192,241453,1,8,0:0:0:0:
256,192,241603,1,8,0:0:0:0:
256,192,242053,1,12,0:0:0:0:
256,192,242203,1,0,0:0:0:0:
256,192,242353,1,8,0:0:0:0:
256,192,242503,1,0,0:0:0:0:
256,192,242653,1,8,0:0:0:0:
256,192,242803,1,0,0:0:0:0:
256,192,242953,1,8,0:0:0:0:
256,192,243103,1,0,0:0:0:0:
256,192,243253,1,12,0:0:0:0:
256,192,243403,1,12,0:0:0:0:
256,192,243703,1,12,0:0:0:0:
256,192,243853,1,12,0:0:0:0:
256,192,244003,1,12,0:0:0:0:
256,192,245653,1,4,0:0:0:0:
256,192,245803,1,4,0:0:0:0:
256,192,245953,1,4,0:0:0:0:
256,192,247903,1,4,0:0:0:0:
256,192,248203,1,4,0:0:0:0:
256,192,248353,1,4,0:0:0:0:
256,192,249853,1,4,0:0:0:0:
256,192,250003,1,12,0:0:0:0:
256,192,250453,1,4,0:0:0:0:
256,192,250603,1,4,0:0:0:0:
256,192,250753,1,4,0:0:0:0:
256,192,251653,1,12,0:0:0:0:
256,192,251803,1,0,0:0:0:0:
256,192,251953,1,0,0:0:0:0:
256,192,252103,1,12,0:0:0:0:
256,192,252253,1,0,0:0:0:0:
256,192,252403,1,0,0:0:0:0:
256,192,252553,1,12,0:0:0:0:
256,192,252853,1,0,0:0:0:0:
256,192,253003,1,0,0:0:0:0:
256,192,253153,1,0,0:0:0:0:
256,192,253303,1,0,0:0:0:0:
256,192,253453,1,8,0:0:0:0:
256,192,253603,1,8,0:0:0:0:
256,192,253753,1,8,0:0:0:0:
256,192,254053,1,12,0:0:0:0:
256,192,254203,1,0,0:0:0:0:
256,192,254353,1,0,0:0:0:0:
256,192,254503,1,12,0:0:0:0:
256,192,254653,1,0,0:0:0:0:
256,192,254728,1,0,0:0:0:0:
256,192,254803,1,0,0:0:0:0:
256,192,254953,1,8,0:0:0:0:
256,192,255103,1,8,0:0:0:0:
256,192,255253,1,4,0:0:0:0:
256,192,255403,1,0,0:0:0:0:
256,192,255553,1,8,0:0:0:0:
256,192,255853,1,0,0:0:0:0:
256,192,256153,1,8,0:0:0:0:
256,192,256303,1,8,0:0:0:0:
256,192,256453,1,0,0:0:0:0:
256,192,256753,1,8,0:0:0:0:
256,192,256903,1,0,0:0:0:0:
256,192,257053,1,8,0:0:0:0:
256,192,257353,1,8,0:0:0:0:
256,192,257653,1,0,0:0:0:0:
256,192,257953,1,8,0:0:0:0:
256,192,258103,1,0,0:0:0:0:
256,192,258403,1,0,0:0:0:0:
256,192,258553,1,8,0:0:0:0:
256,192,258853,1,8,0:0:0:0:
256,192,259003,1,0,0:0:0:0:
256,192,259153,1,8,0:0:0:0:
256,192,259453,1,8,0:0:0:0:
256,192,259603,1,0,0:0:0:0:
256,192,259753,1,8,0:0:0:0:
256,192,259903,1,8,0:0:0:0:
256,192,260053,1,0,0:0:0:0:
256,192,260203,1,0,0:0:0:0:
256,192,260353,1,8,0:0:0:0:
256,192,260653,1,0,0:0:0:0:
256,192,260803,1,0,0:0:0:0:
256,192,260953,1,8,0:0:0:0:
256,192,261253,1,0,0:0:0:0:
256,192,261403,1,0,0:0:0:0:
256,192,261553,1,8,0:0:0:0:
256,192,261703,1,0,0:0:0:0:
256,192,261853,1,0,0:0:0:0:
256,192,262003,1,0,0:0:0:0:
256,192,262153,1,8,0:0:0:0:
256,192,262453,1,0,0:0:0:0:
256,192,262603,1,0,0:0:0:0:
256,192,262753,1,8,0:0:0:0:
256,192,263053,1,0,0:0:0:0:
256,192,263203,1,0,0:0:0:0:
256,192,263353,1,8,0:0:0:0:
256,192,263503,1,0,0:0:0:0:
256,192,263653,1,8,0:0:0:0:
256,192,263728,1,8,0:0:0:0:
256,192,263803,1,8,0:0:0:0:
256,192,263953,1,8,0:0:0:0:
256,192,264103,1,0,0:0:0:0:
256,192,264253,1,8,0:0:0:0:
256,192,264853,1,4,0:0:0:0:
256,192,265153,1,8,0:0:0:0:
256,192,265453,1,0,0:0:0:0:
256,192,265603,1,0,0:0:0:0:
256,192,265753,1,8,0:0:0:0:
256,192,266053,1,0,0:0:0:0:
256,192,266353,1,8,0:0:0:0:
256,192,266503,1,8,0:0:0:0:
256,192,266653,1,0,0:0:0:0:
256,192,266803,1,8,0:0:0:0:
256,192,267103,1,0,0:0:0:0:
256,192,267403,1,0,0:0:0:0:
256,192,267553,1,8,0:0:0:0:
256,192,267853,1,0,0:0:0:0:
256,192,268003,1,0,0:0:0:0:
256,192,268153,1,8,0:0:0:0:
256,192,268303,1,0,0:0:0:0:
256,192,268453,1,8,0:0:0:0:
256,192,268753,1,8,0:0:0:0:
256,192,268903,1,8,0:0:0:0:
256,192,269053,1,0,0:0:0:0:
256,192,269128,1,0,0:0:0:0:
256,192,269203,1,0,0:0:0:0:
256,192,269353,1,8,0:0:0:0:
256,192,269503,1,8,0:0:0:0:
256,192,269653,1,0,0:0:0:0:
256,192,269953,1,8,0:0:0:0:
256,192,270253,1,0,0:0:0:0:
256,192,270403,1,0,0:0:0:0:
256,192,270553,1,8,0:0:0:0:
256,192,270703,1,0,0:0:0:0:
256,192,270853,1,0,0:0:0:0:
256,192,271153,1,8,0:0:0:0:
256,192,271453,1,8,0:0:0:0:
256,192,271603,1,0,0:0:0:0:
256,192,271753,1,8,0:0:0:0:
256,192,271903,1,8,0:0:0:0:
256,192,272053,1,0,0:0:0:0:
256,192,272353,1,0,0:0:0:0:
256,192,272503,1,8,0:0:0:0:
256,192,272653,1,0,0:0:0:0:
256,192,272803,1,0,0:0:0:0:
256,192,272953,1,8,0:0:0:0:
256,192,273253,1,8,0:0:0:0:
256,192,273553,1,0,0:0:0:0:
256,192,273703,1,8,0:0:0:0:
256,192,273853,1,0,0:0:0:0:
256,192,273928,1,0,0:0:0:0:
256,192,274003,1,0,0:0:0:0:
256,192,274153,1,8,0:0:0:0:
256,192,274303,1,8,0:0:0:0:
256,192,274453,1,4,0:0:0:0:
256,192,274753,1,8,0:0:0:0:
256,192,275053,1,0,0:0:0:0:
256,192,275203,1,0,0:0:0:0:
256,192,275353,1,8,0:0:0:0:
256,192,275653,1,0,0:0:0:0:
256,192,275953,1,8,0:0:0:0:
256,192,276103,1,8,0:0:0:0:
256,192,276253,1,0,0:0:0:0:
256,192,276403,1,0,0:0:0:0:
256,192,276553,1,8,0:0:0:0:
256,192,276853,1,0,0:0:0:0:
256,192,277153,1,8,0:0:0:0:
256,192,277303,1,0,0:0:0:0:
256,192,277453,1,0,0:0:0:0:
256,192,277603,1,0,0:0:0:0:
256,192,277753,1,8,0:0:0:0:
256,192,278053,1,0,0:0:0:0:
256,192,278353,1,8,0:0:0:0:
256,192,278503,1,8,0:0:0:0:
256,192,278653,1,8,0:0:0:0:
256,192,278803,1,0,0:0:0:0:
256,192,278953,1,8,0:0:0:0:
256,192,279253,1,0,0:0:0:0:
256,192,279553,1,8,0:0:0:0:
256,192,279853,1,8,0:0:0:0:
256,192,280003,1,0,0:0:0:0:
256,160,280153,1,8,0:0:0:0:
256,192,280303,1,8,0:0:0:0:
256,192,280453,1,0,0:0:0:0:
256,192,280753,1,8,0:0:0:0:
256,192,281053,1,8,0:0:0:0:
256,192,281203,1,0,0:0:0:0:
256,192,281353,1,8,0:0:0:0:
256,192,281503,1,8,0:0:0:0:
256,192,281653,1,0,0:0:0:0:
256,192,281953,1,8,0:0:0:0:
256,192,282103,1,0,0:0:0:0:
256,192,282253,1,8,0:0:0:0:
256,192,282553,1,8,0:0:0:0:
256,192,282703,1,0,0:0:0:0:
256,192,282853,1,8,0:0:0:0:
256,192,283003,1,8,0:0:0:0:
256,192,283153,1,0,0:0:0:0:
256,192,283303,1,8,0:0:0:0:
256,192,283378,1,8,0:0:0:0:
256,192,283453,1,8,0:0:0:0:
256,192,283603,1,0,0:0:0:0:
258,199,283753,1,8,0:0:0:0:
256,192,284053,1,12,0:0:0:0:
256,192,284353,1,8,0:0:0:0:
256,192,284503,1,0,0:0:0:0:
256,192,284653,1,8,0:0:0:0:
256,192,284953,1,8,0:0:0:0:
256,192,285103,1,0,0:0:0:0:
256,192,285253,1,8,0:0:0:0:
256,192,285553,1,8,0:0:0:0:
256,192,285703,1,0,0:0:0:0:
256,192,285853,1,8,0:0:0:0:
256,192,286003,1,0,0:0:0:0:
256,192,286153,1,8,0:0:0:0:
256,192,286453,1,12,0:0:0:0:
256,192,286603,1,12,0:0:0:0:
256,192,286903,1,12,0:0:0:0:
256,192,287053,1,12,0:0:0:0:
256,192,287353,1,12,0:0:0:0:
256,192,287503,1,12,0:0:0:0:
256,192,287803,1,12,0:0:0:0:
256,192,287953,1,12,0:0:0:0:
256,192,288853,1,4,0:0:0:0:
256,192,289303,1,8,0:0:0:0:
256,192,289603,1,0,0:0:0:0:
256,192,289753,1,8,0:0:0:0:
256,192,290053,1,0,0:0:0:0:
256,192,290203,1,8,0:0:0:0:
256,192,290503,1,8,0:0:0:0:
256,192,290578,1,8,0:0:0:0:
256,192,290653,1,8,0:0:0:0:
256,192,290803,1,0,0:0:0:0:
256,192,290953,1,8,0:0:0:0:
256,160,291253,1,4,0:0:0:0:
256,160,291853,1,0,0:0:0:0:
256,160,292153,1,8,0:0:0:0:
256,160,292303,1,0,0:0:0:0:
256,160,292753,1,8,0:0:0:0:
256,160,293053,1,0,0:0:0:0:
256,160,293353,1,8,0:0:0:0:
256,160,293503,1,0,0:0:0:0:
256,160,293953,1,8,0:0:0:0:
256,160,294253,1,0,0:0:0:0:
256,160,294553,1,0,0:0:0:0:
256,160,294703,1,8,0:0:0:0:
256,160,295003,1,8,0:0:0:0:
256,160,295153,1,0,0:0:0:0:
256,160,295453,1,0,0:0:0:0:
256,160,295603,1,0,0:0:0:0:
256,160,295753,1,8,0:0:0:0:
256,160,296053,1,0,0:0:0:0:
256,160,296353,1,8,0:0:0:0:
256,160,296653,1,0,0:0:0:0:
256,160,296953,1,8,0:0:0:0:
256,160,297103,1,0,0:0:0:0:
256,160,297553,1,8,0:0:0:0:
256,160,297853,1,0,0:0:0:0:
256,160,298153,1,8,0:0:0:0:
256,160,298303,1,0,0:0:0:0:
256,160,298753,1,8,0:0:0:0:
256,160,299053,1,0,0:0:0:0:
256,160,299353,1,0,0:0:0:0:
256,160,299503,1,8,0:0:0:0:
256,160,299803,1,8,0:0:0:0:
256,160,299953,1,8,0:0:0:0:
256,160,300253,1,8,0:0:0:0:
256,160,300403,1,0,0:0:0:0:
256,160,300553,1,0,0:0:0:0:
256,160,300703,1,4,0:0:0:0:
256,160,301153,1,8,0:0:0:0:
256,192,301453,1,0,0:0:0:0:
256,192,301603,1,0,0:0:0:0:
256,192,301753,1,8,0:0:0:0:
256,192,301903,1,0,0:0:0:0:
256,192,302353,1,8,0:0:0:0:
256,192,302653,1,0,0:0:0:0:
256,192,302803,1,0,0:0:0:0:
256,192,302953,1,8,0:0:0:0:
256,192,303103,1,0,0:0:0:0:
256,192,303553,1,8,0:0:0:0:
256,192,303853,1,0,0:0:0:0:
256,192,304003,1,0,0:0:0:0:
256,192,304153,1,8,0:0:0:0:
256,192,304303,1,8,0:0:0:0:
256,192,304603,1,0,0:0:0:0:
256,192,304753,1,8,0:0:0:0:
256,192,305053,1,8,0:0:0:0:
256,192,305203,1,0,0:0:0:0:
256,192,305353,1,8,0:0:0:0:
256,192,305428,1,8,0:0:0:0:
256,192,305503,1,8,0:0:0:0:
256,192,305653,1,4,0:0:0:0:
256,192,305953,1,8,0:0:0:0:
256,192,306253,1,8,0:0:0:0:
256,192,306403,1,0,0:0:0:0:
256,192,306553,1,8,0:0:0:0:
256,192,306703,1,8,0:0:0:0:
256,192,307003,1,0,0:0:0:0:
256,192,307153,1,8,0:0:0:0:
256,192,307303,1,8,0:0:0:0:
256,192,307453,1,0,0:0:0:0:
256,192,307603,1,0,0:0:0:0:
256,192,307753,1,8,0:0:0:0:
256,192,307903,1,8,0:0:0:0:
256,192,308203,1,0,0:0:0:0:
256,192,308353,1,8,0:0:0:0:
256,192,308653,1,8,0:0:0:0:
256,192,308803,1,0,0:0:0:0:
256,192,308953,1,8,0:0:0:0:
256,192,309103,1,0,0:0:0:0:
256,192,309403,1,0,0:0:0:0:
256,192,309553,1,8,0:0:0:0:
256,192,309703,1,0,0:0:0:0:
256,192,309853,1,0,0:0:0:0:
256,192,309928,1,0,0:0:0:0:
256,192,310003,1,0,0:0:0:0:
256,192,310153,1,8,0:0:0:0:
256,192,310453,12,0,315253,0:0:0:0:
