osu file format v14

[General]
AudioFilename: Towa yori Towa ni.mp3
AudioLeadIn: 0
PreviewTime: 97293
Countdown: 0
SampleSet: Normal
StackLeniency: 0.7
Mode: 1
LetterboxInBreaks: 0
WidescreenStoryboard: 0

[Editor]
DistanceSpacing: 1.2
BeatDivisor: 4
GridSize: 32
TimelineZoom: 1

[Metadata]
Title:Towa yori Towa ni
TitleUnicode:永久より永遠に
Artist:marina
ArtistUnicode:marina
Creator:Nardoxyribonucleic
Version:Futsuu
Source:少女神域∽少女天獄 -The Garden of Fifth Zoa-
Tags:Taiko Lass Visual Novel Shoujo Shiniki Tengoku qoot8123 mingmichael
BeatmapID:1170441
BeatmapSetID:552695

[Difficulty]
HPDrainRate:5
CircleSize:5
OverallDifficulty:4.5
ApproachRate:4
SliderMultiplier:1.4
SliderTickRate:1

[Events]
//Background and Video events
0,0,"Miori.jpg",0,0
//Break Periods
//Storyboard Layer 0 (Background)
//Storyboard Layer 1 (Fail)
//Storyboard Layer 2 (Pass)
//Storyboard Layer 3 (Foreground)
//Storyboard Sound Samples

[TimingPoints]
1593,300,4,1,0,50,1,0
13593,-100,4,1,0,60,0,0
23043,-100,4,1,0,70,0,0
37593,-100,4,1,0,50,0,0
51993,-100,4,1,0,60,0,0
56793,-100,4,1,0,70,0,0
66393,-100,4,1,0,60,0,0
75993,-100,4,1,0,70,0,0
85593,300,3,1,0,55,1,0
90993,300,4,1,0,70,1,0
98193,-100,4,1,0,80,0,1
141393,-100,4,1,0,60,0,0
143793,-100,4,1,0,70,0,0
153393,-100,4,1,0,60,0,0
172593,-100,4,1,0,70,0,0
182193,-100,4,1,0,60,0,0
191793,-100,4,1,0,65,0,0
196593,-100,4,1,0,75,0,0
201393,300,3,1,0,55,1,0
206793,300,4,1,0,70,1,8
206803,300,4,1,0,70,1,0
214003,300,7,1,0,65,1,0
217903,300,7,1,0,65,1,0
220003,300,4,1,0,65,1,0
226003,300,4,1,0,65,1,8
226153,300,3,1,0,65,1,0
227953,300,5,1,0,65,1,0
229453,300,3,1,0,55,1,0
234853,300,4,1,0,70,1,0
244453,-100,4,1,0,65,0,0
255253,-100,4,1,0,80,0,1
288853,-100,4,1,0,60,0,0
291253,-100,4,1,0,65,0,0
300703,-100,4,1,0,70,0,0
310453,-100,4,1,0,50,0,0
311053,-100,4,1,0,45,0,0
311653,-100,4,1,0,40,0,0
312253,-100,4,1,0,35,0,0
312853,-100,4,1,0,30,0,0
313453,-100,4,1,0,25,0,0
314053,-100,4,1,0,20,0,0
314653,-100,4,1,0,15,0,0
315253,-100,4,1,0,10,0,0

[HitObjects]
256,192,12393,5,8,0:0:0:0:
256,192,12693,1,0,0:0:0:0:
256,192,12843,1,8,0:0:0:0:
256,192,13143,1,0,0:0:0:0:
256,192,13293,1,8,0:0:0:0:
256,192,13593,1,4,0:0:0:0:
256,192,13893,1,8,0:0:0:0:
256,192,14643,1,0,0:0:0:0:
256,192,15093,1,8,0:0:0:0:
256,192,15843,1,0,0:0:0:0:
256,192,16293,1,8,0:0:0:0:
256,192,17043,1,8,0:0:0:0:
256,192,17343,1,8,0:0:0:0:
256,192,17493,1,0,0:0:0:0:
256,192,17793,1,8,0:0:0:0:
256,192,18393,1,0,0:0:0:0:
256,192,18693,1,8,0:0:0:0:
256,192,19443,1,0,0:0:0:0:
256,192,19893,1,8,0:0:0:0:
256,192,20643,1,0,0:0:0:0:
256,192,21093,1,8,0:0:0:0:
256,192,21843,1,8,0:0:0:0:
256,192,22143,1,8,0:0:0:0:
256,192,22293,1,8,0:0:0:0:
256,192,22593,1,8,0:0:0:0:
256,192,23043,1,4,0:0:0:0:
256,192,23493,1,8,0:0:0:0:
256,192,23793,1,0,0:0:0:0:
256,192,23943,1,8,0:0:0:0:
256,192,24243,1,0,0:0:0:0:
256,192,24693,1,8,0:0:0:0:
256,192,25443,1,0,0:0:0:0:
256,192,25893,1,8,0:0:0:0:
256,192,26193,1,0,0:0:0:0:
256,192,26343,1,8,0:0:0:0:
256,192,26643,1,8,0:0:0:0:
256,192,26943,1,8,0:0:0:0:
256,192,27093,1,0,0:0:0:0:
256,192,27393,1,8,0:0:0:0:
256,192,27693,1,8,0:0:0:0:
256,192,27993,1,0,0:0:0:0:
256,192,28593,1,8,0:0:0:0:
256,192,28893,1,8,0:0:0:0:
256,192,29043,1,0,0:0:0:0:
256,192,29343,1,0,0:0:0:0:
256,192,29493,1,8,0:0:0:0:
256,192,29793,1,0,0:0:0:0:
256,192,30243,1,8,0:0:0:0:
256,192,30693,1,8,0:0:0:0:
256,192,30993,1,8,0:0:0:0:
256,192,31293,1,0,0:0:0:0:
256,192,31443,1,8,0:0:0:0:
256,192,31743,1,0,0:0:0:0:
256,192,31893,1,8,0:0:0:0:
256,192,32193,1,8,0:0:0:0:
256,192,32493,1,8,0:0:0:0:
256,192,32793,1,0,0:0:0:0:
256,192,33393,1,0,0:0:0:0:
256,192,33993,1,0,0:0:0:0:
256,192,34293,1,0,0:0:0:0:
256,192,34593,1,0,0:0:0:0:
256,192,35193,1,0,0:0:0:0:
256,192,35793,1,0,0:0:0:0:
256,192,36243,1,0,0:0:0:0:
256,192,36693,1,0,0:0:0:0:
256,192,37143,1,0,0:0:0:0:
256,192,37593,1,0,0:0:0:0:
256,192,38793,1,0,0:0:0:0:
256,192,39393,1,8,0:0:0:0:
256,192,39693,1,8,0:0:0:0:
256,192,39993,1,0,0:0:0:0:
256,192,40893,1,0,0:0:0:0:
256,192,41793,1,8,0:0:0:0:
256,192,42393,1,0,0:0:0:0:
256,192,43593,1,8,0:0:0:0:
256,192,44193,1,0,0:0:0:0:
256,192,44493,1,8,0:0:0:0:
256,192,44793,1,0,0:0:0:0:
256,192,45693,1,8,0:0:0:0:
256,192,46293,1,8,0:0:0:0:
256,192,46893,1,8,0:0:0:0:
256,192,47193,1,0,0:0:0:0:
256,192,48393,1,0,0:0:0:0:
256,192,48993,1,8,0:0:0:0:
256,192,49293,1,8,0:0:0:0:
256,192,49593,1,0,0:0:0:0:
256,192,50493,1,0,0:0:0:0:
256,192,51393,1,8,0:0:0:0:
256,192,51993,1,0,0:0:0:0:
256,192,52593,1,8,0:0:0:0:
256,192,53193,1,0,0:0:0:0:
256,192,53493,1,0,0:0:0:0:
256,192,53793,1,0,0:0:0:0:
256,192,54093,1,0,0:0:0:0:
256,192,54393,1,8,0:0:0:0:
256,192,54993,1,0,0:0:0:0:
256,192,55593,1,8,0:0:0:0:
256,192,56043,1,8,0:0:0:0:
256,192,56493,1,8,0:0:0:0:
256,192,56793,1,4,0:0:0:0:
256,192,57093,1,8,0:0:0:0:
256,192,57243,1,0,0:0:0:0:
256,192,57393,1,8,0:0:0:0:
256,192,57993,1,0,0:0:0:0:
256,192,58293,1,8,0:0:0:0:
256,192,58443,1,0,0:0:0:0:
256,192,58743,1,0,0:0:0:0:
256,192,58893,1,8,0:0:0:0:
256,192,59193,1,0,0:0:0:0:
256,192,59493,1,8,0:0:0:0:
256,192,59643,1,0,0:0:0:0:
256,192,59793,1,8,0:0:0:0:
256,192,60393,1,0,0:0:0:0:
256,192,60543,1,0,0:0:0:0:
256,192,60693,1,8,0:0:0:0:
256,192,60993,1,8,0:0:0:0:
256,192,61293,1,8,0:0:0:0:
256,192,61593,1,0,0:0:0:0:
256,192,61893,1,8,0:0:0:0:
256,192,62043,1,0,0:0:0:0:
256,192,62193,1,8,0:0:0:0:
256,192,62793,1,0,0:0:0:0:
256,192,63093,1,8,0:0:0:0:
256,192,63243,1,0,0:0:0:0:
256,192,63543,1,0,0:0:0:0:
256,192,63693,1,8,0:0:0:0:
256,192,63993,1,8,0:0:0:0:
256,192,64443,1,8,0:0:0:0:
256,192,64893,1,8,0:0:0:0:
256,192,65343,1,8,0:0:0:0:
256,192,65793,1,8,0:0:0:0:
256,192,66093,1,8,0:0:0:0:
256,192,66243,1,8,0:0:0:0:
256,192,66393,1,0,0:0:0:0:
256,192,66993,1,0,0:0:0:0:
256,192,67593,1,8,0:0:0:0:
256,192,68193,1,8,0:0:0:0:
256,192,68493,1,0,0:0:0:0:
256,192,68793,1,8,0:0:0:0:
256,192,69243,1,0,0:0:0:0:
256,192,69693,1,8,0:0:0:0:
256,192,70593,1,8,0:0:0:0:
256,192,70893,1,8,0:0:0:0:
256,192,71193,1,0,0:0:0:0:
256,192,71793,1,0,0:0:0:0:
256,192,72393,1,8,0:0:0:0:
256,192,72993,1,8,0:0:0:0:
256,192,73293,1,0,0:0:0:0:
256,192,73593,1,8,0:0:0:0:
256,192,74043,1,0,0:0:0:0:
256,192,74493,1,8,0:0:0:0:
256,192,74643,1,8,0:0:0:0:
256,192,74793,1,8,0:0:0:0:
256,192,75393,1,8,0:0:0:0:
256,192,75693,1,8,0:0:0:0:
256,192,75993,1,4,0:0:0:0:
256,192,76593,1,0,0:0:0:0:
256,192,76893,1,8,0:0:0:0:
256,192,77193,1,0,0:0:0:0:
256,192,77493,1,8,0:0:0:0:
256,192,77643,1,0,0:0:0:0:
256,192,77943,1,0,0:0:0:0:
256,192,78093,1,8,0:0:0:0:
256,192,78393,1,0,0:0:0:0:
256,192,78993,1,0,0:0:0:0:
256,192,79293,1,8,0:0:0:0:
256,192,79443,1,8,0:0:0:0:
256,192,79593,1,0,0:0:0:0:
256,192,79893,1,8,0:0:0:0:
256,192,80193,1,0,0:0:0:0:
256,192,80493,1,8,0:0:0:0:
256,192,80793,1,4,0:0:0:0:
256,192,81393,1,8,0:0:0:0:
256,192,81693,1,0,0:0:0:0:
256,192,81843,1,0,0:0:0:0:
256,192,81993,1,8,0:0:0:0:
256,192,82293,1,0,0:0:0:0:
256,192,82593,1,8,0:0:0:0:
256,192,83193,1,0,0:0:0:0:
256,192,83493,1,8,0:0:0:0:
256,192,83793,1,0,0:0:0:0:
256,192,83943,1,0,0:0:0:0:
256,192,84093,1,8,0:0:0:0:
256,192,84393,1,8,0:0:0:0:
256,192,84693,1,0,0:0:0:0:
256,192,84843,1,8,0:0:0:0:
256,192,85143,1,0,0:0:0:0:
256,192,85293,1,8,0:0:0:0:
256,192,85593,1,0,0:0:0:0:
256,192,86193,1,8,0:0:0:0:
256,192,86493,1,8,0:0:0:0:
256,192,87393,1,8,0:0:0:0:
256,192,87993,1,0,0:0:0:0:
256,192,88293,1,0,0:0:0:0:
256,192,89193,1,0,0:0:0:0:
256,192,89793,1,8,0:0:0:0:
256,192,90093,1,0,0:0:0:0:
256,192,90693,1,8,0:0:0:0:
256,192,90993,1,4,0:0:0:0:
256,192,91593,1,0,0:0:0:0:
256,192,91893,1,0,0:0:0:0:
256,192,92193,1,8,0:0:0:0:
256,192,92493,1,8,0:0:0:0:
256,192,92643,1,8,0:0:0:0:
256,192,92793,1,0,0:0:0:0:
256,192,93093,1,8,0:0:0:0:
256,192,93393,1,0,0:0:0:0:
256,192,93993,1,8,0:0:0:0:
256,192,94293,1,0,0:0:0:0:
256,192,94593,1,8,0:0:0:0:
256,192,94893,1,0,0:0:0:0:
256,192,95043,1,8,0:0:0:0:
256,192,95343,1,0,0:0:0:0:
256,192,95493,1,8,0:0:0:0:
256,192,95793,1,12,0:0:0:0:
256,192,96243,1,12,0:0:0:0:
256,192,96693,1,12,0:0:0:0:
256,192,97143,1,12,0:0:0:0:
256,192,98193,1,4,0:0:0:0:
256,192,98493,1,8,0:0:0:0:
256,192,98793,1,8,0:0:0:0:
256,192,98943,1,8,0:0:0:0:
256,192,99093,1,8,0:0:0:0:
256,192,99393,1,0,0:0:0:0:
256,192,99693,1,8,0:0:0:0:
256,192,99993,1,0,0:0:0:0:
256,192,100593,1,8,0:0:0:0:
256,192,100893,1,0,0:0:0:0:
256,192,101043,1,0,0:0:0:0:
256,192,101193,1,0,0:0:0:0:
256,192,101493,1,8,0:0:0:0:
256,192,101793,1,0,0:0:0:0:
256,192,102093,1,8,0:0:0:0:
256,192,102393,1,0,0:0:0:0:
256,192,102543,1,0,0:0:0:0:
256,192,102693,1,8,0:0:0:0:
256,192,102993,1,0,0:0:0:0:
256,192,103593,1,0,0:0:0:0:
256,192,103893,1,8,0:0:0:0:
256,192,104193,1,0,0:0:0:0:
256,192,104493,1,8,0:0:0:0:
256,192,104643,1,0,0:0:0:0:
256,192,104793,1,8,0:0:0:0:
256,192,105093,1,8,0:0:0:0:
256,192,105393,1,0,0:0:0:0:
256,192,105993,1,8,0:0:0:0:
256,192,106293,1,0,0:0:0:0:
256,192,106593,1,8,0:0:0:0:
256,192,106893,1,0,0:0:0:0:
256,192,107043,1,8,0:0:0:0:
256,192,107343,1,0,0:0:0:0:
256,192,107493,1,8,0:0:0:0:
256,192,107793,1,4,0:0:0:0:
256,192,108393,1,0,0:0:0:0:
256,192,108693,1,8,0:0:0:0:
256,192,108993,1,0,0:0:0:0:
256,192,109293,1,8,0:0:0:0:
256,192,109443,1,0,0:0:0:0:
256,192,109593,1,8,0:0:0:0:
256,192,109893,1,0,0:0:0:0:
256,192,110193,1,8,0:0:0:0:
256,192,110493,1,0,0:0:0:0:
256,192,110643,1,8,0:0:0:0:
256,192,110943,1,0,0:0:0:0:
256,192,111093,1,8,0:0:0:0:
256,192,111393,1,8,0:0:0:0:
256,192,111993,1,0,0:0:0:0:
256,192,112143,1,0,0:0:0:0:
256,192,112293,1,8,0:0:0:0:
256,192,112593,1,0,0:0:0:0:
256,192,113193,1,0,0:0:0:0:
256,192,113343,1,0,0:0:0:0:
256,192,113493,1,8,0:0:0:0:
256,192,113793,1,0,0:0:0:0:
256,192,114093,1,8,0:0:0:0:
256,192,114243,1,0,0:0:0:0:
256,192,114543,1,0,0:0:0:0:
256,192,114693,1,8,0:0:0:0:
256,192,114993,1,0,0:0:0:0:
256,192,115293,1,8,0:0:0:0:
256,192,115593,1,0,0:0:0:0:
256,192,116193,1,8,0:0:0:0:
256,192,116493,1,0,0:0:0:0:
256,192,116643,1,0,0:0:0:0:
256,192,116793,1,0,0:0:0:0:
256,192,117093,1,8,0:0:0:0:
256,192,117393,1,4,0:0:0:0:
256,192,117693,1,8,0:0:0:0:
256,192,117993,1,8,0:0:0:0:
256,192,118143,1,8,0:0:0:0:
256,192,118293,1,8,0:0:0:0:
256,192,118593,1,0,0:0:0:0:
256,192,118893,1,8,0:0:0:0:
256,192,119193,1,0,0:0:0:0:
256,192,119793,1,8,0:0:0:0:
256,192,120093,1,0,0:0:0:0:
256,192,120243,1,0,0:0:0:0:
256,192,120393,1,0,0:0:0:0:
256,192,120693,1,8,0:0:0:0:
256,192,120993,1,0,0:0:0:0:
256,192,121293,1,8,0:0:0:0:
256,192,121593,1,0,0:0:0:0:
256,192,121743,1,0,0:0:0:0:
256,192,121893,1,8,0:0:0:0:
256,192,122193,1,0,0:0:0:0:
256,192,122793,1,0,0:0:0:0:
256,192,123093,1,8,0:0:0:0:
256,192,123393,1,0,0:0:0:0:
256,192,123693,1,8,0:0:0:0:
256,192,123843,1,0,0:0:0:0:
256,192,123993,1,8,0:0:0:0:
256,192,124293,1,8,0:0:0:0:
256,192,124593,1,8,0:0:0:0:
256,192,124893,1,0,0:0:0:0:
256,192,125043,1,8,0:0:0:0:
256,192,125343,1,0,0:0:0:0:
256,192,125493,1,8,0:0:0:0:
256,192,125793,1,0,0:0:0:0:
256,192,126243,1,8,0:0:0:0:
256,192,126693,1,8,0:0:0:0:
256,192,126993,1,4,0:0:0:0:
256,192,127593,1,0,0:0:0:0:
256,192,127893,1,8,0:0:0:0:
256,192,128193,1,0,0:0:0:0:
256,192,128493,1,8,0:0:0:0:
256,192,128643,1,0,0:0:0:0:
256,192,128793,1,8,0:0:0:0:
256,192,129093,1,8,0:0:0:0:
256,192,129393,1,0,0:0:0:0:
256,192,129993,1,0,0:0:0:0:
256,192,130293,1,8,0:0:0:0:
256,192,130593,1,0,0:0:0:0:
256,192,130893,1,8,0:0:0:0:
256,192,131043,1,0,0:0:0:0:
256,192,131343,1,0,0:0:0:0:
256,192,131493,1,8,0:0:0:0:
256,192,131793,1,0,0:0:0:0:
256,192,132393,1,8,0:0:0:0:
256,192,132693,1,8,0:0:0:0:
256,192,132993,1,0,0:0:0:0:
256,192,133293,1,8,0:0:0:0:
256,192,133443,1,0,0:0:0:0:
256,192,133893,1,8,0:0:0:0:
256,192,134193,1,8,0:0:0:0:
256,192,134493,1,0,0:0:0:0:
256,192,134643,1,8,0:0:0:0:
256,192,134943,1,0,0:0:0:0:
256,192,135093,1,8,0:0:0:0:
256,192,135393,1,0,0:0:0:0:
256,192,135543,1,0,0:0:0:0:
256,192,135693,1,0,0:0:0:0:
256,192,135993,1,8,0:0:0:0:
256,192,136143,1,8,0:0:0:0:
256,192,136293,1,8,0:0:0:0:
256,192,136593,1,4,0:0:0:0:
256,192,137193,1,8,0:0:0:0:
256,192,137493,1,0,0:0:0:0:
256,192,137793,1,8,0:0:0:0:
256,192,138093,1,0,0:0:0:0:
256,192,138243,1,0,0:0:0:0:
256,192,138393,1,8,0:0:0:0:
256,192,138693,1,0,0:0:0:0:
256,192,138993,1,12,0:0:0:0:
256,192,139143,1,12,0:0:0:0:
256,192,139443,1,12,0:0:0:0:
256,192,139593,1,12,0:0:0:0:
256,192,139893,1,12,0:0:0:0:
256,192,140043,1,12,0:0:0:0:
256,192,140343,1,12,0:0:0:0:
256,192,140493,1,12,0:0:0:0:
256,192,141393,1,12,0:0:0:0:
256,192,141843,1,8,0:0:0:0:
256,192,142293,1,12,0:0:0:0:
256,192,142743,1,8,0:0:0:0:
256,192,143043,1,8,0:0:0:0:
256,192,143193,1,8,0:0:0:0:
256,192,143493,1,8,0:0:0:0:
256,192,143793,1,4,0:0:0:0:
256,192,144093,1,8,0:0:0:0:
256,192,144393,1,0,0:0:0:0:
256,192,144543,1,8,0:0:0:0:
256,192,144843,1,0,0:0:0:0:
256,192,145293,1,8,0:0:0:0:
256,192,146043,1,0,0:0:0:0:
256,192,146493,1,8,0:0:0:0:
256,192,146793,1,0,0:0:0:0:
256,192,146943,1,8,0:0:0:0:
256,192,147243,1,8,0:0:0:0:
256,192,147543,1,8,0:0:0:0:
256,192,147693,1,0,0:0:0:0:
256,192,147993,1,8,0:0:0:0:
256,192,148293,1,8,0:0:0:0:
256,192,148593,1,0,0:0:0:0:
256,192,149193,1,8,0:0:0:0:
256,192,149493,1,8,0:0:0:0:
256,192,149643,1,0,0:0:0:0:
256,192,149943,1,0,0:0:0:0:
256,192,150093,1,8,0:0:0:0:
256,192,150393,1,0,0:0:0:0:
256,192,150843,1,8,0:0:0:0:
256,192,151293,1,8,0:0:0:0:
256,192,151593,1,8,0:0:0:0:
256,192,151893,1,0,0:0:0:0:
256,192,152043,1,8,0:0:0:0:
256,192,152343,1,0,0:0:0:0:
256,192,152493,1,8,0:0:0:0:
256,192,152793,1,8,0:0:0:0:
256,192,153093,1,8,0:0:0:0:
256,192,153393,1,0,0:0:0:0:
256,192,153993,1,8,0:0:0:0:
256,192,154443,1,0,0:0:0:0:
256,192,154893,1,0,0:0:0:0:
256,192,155193,1,8,0:0:0:0:
256,192,155793,1,0,0:0:0:0:
256,192,156393,1,8,0:0:0:0:
256,192,156693,1,0,0:0:0:0:
256,192,157143,1,0,0:0:0:0:
256,192,157593,1,8,0:0:0:0:
256,192,158193,1,0,0:0:0:0:
256,192,158793,1,8,0:0:0:0:
256,192,159093,1,0,0:0:0:0:
256,192,159243,1,8,0:0:0:0:
256,192,159543,1,0,0:0:0:0:
256,192,159693,1,0,0:0:0:0:
256,192,159993,1,8,0:0:0:0:
256,192,160593,1,0,0:0:0:0:
256,192,161193,1,8,0:0:0:0:
256,192,161493,1,0,0:0:0:0:
256,192,161643,1,0,0:0:0:0:
256,192,161943,1,0,0:0:0:0:
256,192,162093,1,0,0:0:0:0:
256,192,162393,1,8,0:0:0:0:
256,192,162693,1,8,0:0:0:0:
256,192,162993,1,0,0:0:0:0:
256,192,163593,1,8,0:0:0:0:
256,192,164043,1,0,0:0:0:0:
256,192,164493,1,0,0:0:0:0:
256,192,164793,1,8,0:0:0:0:
256,192,165393,1,0,0:0:0:0:
256,192,165993,1,8,0:0:0:0:
256,192,166293,1,0,0:0:0:0:
256,192,166743,1,0,0:0:0:0:
256,192,167193,1,8,0:0:0:0:
256,192,167493,1,8,0:0:0:0:
256,192,167793,1,0,0:0:0:0:
256,192,168393,1,8,0:0:0:0:
256,192,168693,1,0,0:0:0:0:
256,192,168843,1,8,0:0:0:0:
256,192,169143,1,0,0:0:0:0:
256,192,169293,1,0,0:0:0:0:
256,192,169593,1,8,0:0:0:0:
256,192,169893,1,8,0:0:0:0:
256,192,170193,1,4,0:0:0:0:
256,192,170643,1,4,0:0:0:0:
256,192,171093,1,12,0:0:0:0:
256,192,172593,1,4,0:0:0:0:
256,192,172893,1,8,0:0:0:0:
256,192,173043,1,0,0:0:0:0:
256,192,173493,1,8,0:0:0:0:
256,192,173793,1,0,0:0:0:0:
256,192,174093,1,8,0:0:0:0:
256,192,174243,1,0,0:0:0:0:
256,192,174693,1,8,0:0:0:0:
256,192,174993,1,0,0:0:0:0:
256,192,175293,1,8,0:0:0:0:
256,192,175443,1,0,0:0:0:0:
256,192,175593,1,8,0:0:0:0:
256,192,176193,1,0,0:0:0:0:
256,192,176343,1,0,0:0:0:0:
256,192,176493,1,8,0:0:0:0:
256,192,176793,1,8,0:0:0:0:
256,192,177093,1,8,0:0:0:0:
256,192,177393,1,0,0:0:0:0:
256,192,177693,1,8,0:0:0:0:
256,192,177843,1,0,0:0:0:0:
256,192,177993,1,8,0:0:0:0:
256,192,178593,1,0,0:0:0:0:
256,192,178893,1,8,0:0:0:0:
256,192,179043,1,0,0:0:0:0:
256,192,179343,1,0,0:0:0:0:
256,192,179493,1,8,0:0:0:0:
256,192,179793,1,8,0:0:0:0:
256,192,180243,1,8,0:0:0:0:
256,192,180693,1,8,0:0:0:0:
256,192,181143,1,8,0:0:0:0:
256,192,181593,1,8,0:0:0:0:
256,192,181893,1,8,0:0:0:0:
256,192,182043,1,8,0:0:0:0:
256,192,182193,1,4,0:0:0:0:
256,192,182793,1,8,0:0:0:0:
256,192,183393,1,0,0:0:0:0:
256,192,183993,1,8,0:0:0:0:
256,192,184293,1,0,0:0:0:0:
256,192,184593,1,8,0:0:0:0:
256,192,185043,1,0,0:0:0:0:
256,192,185493,1,8,0:0:0:0:
256,192,186393,1,8,0:0:0:0:
256,192,186693,1,8,0:0:0:0:
256,192,186993,1,4,0:0:0:0:
256,192,187593,1,8,0:0:0:0:
256,192,188193,1,0,0:0:0:0:
256,192,188793,1,8,0:0:0:0:
256,192,189093,1,0,0:0:0:0:
256,192,189393,1,8,0:0:0:0:
256,192,189843,1,0,0:0:0:0:
256,192,190293,1,8,0:0:0:0:
256,192,190593,1,0,0:0:0:0:
256,192,190743,1,0,0:0:0:0:
256,192,190893,1,0,0:0:0:0:
256,192,191193,1,8,0:0:0:0:
256,192,191493,1,8,0:0:0:0:
256,192,191793,1,4,0:0:0:0:
256,192,192393,1,0,0:0:0:0:
256,192,192693,1,0,0:0:0:0:
256,192,192993,1,8,0:0:0:0:
256,192,193443,1,8,0:0:0:0:
256,192,193893,1,0,0:0:0:0:
256,192,194193,1,0,0:0:0:0:
256,192,194643,1,0,0:0:0:0:
256,192,195093,1,8,0:0:0:0:
256,192,195393,1,0,0:0:0:0:
256,192,195993,1,8,0:0:0:0:
256,192,196143,1,8,0:0:0:0:
256,192,196293,1,8,0:0:0:0:
256,192,196593,1,4,0:0:0:0:
256,192,197193,1,8,0:0:0:0:
256,192,197493,1,0,0:0:0:0:
256,192,197643,1,0,0:0:0:0:
256,192,197793,1,8,0:0:0:0:
256,192,198093,1,0,0:0:0:0:
256,192,198393,1,8,0:0:0:0:
256,192,198693,1,8,0:0:0:0:
256,192,198993,1,0,0:0:0:0:
256,192,199593,1,0,0:0:0:0:
256,192,199893,1,8,0:0:0:0:
256,192,200043,1,0,0:0:0:0:
256,192,200193,1,8,0:0:0:0:
256,192,200493,1,0,0:0:0:0:
256,192,200643,1,8,0:0:0:0:
256,192,200943,1,0,0:0:0:0:
256,192,201093,1,8,0:0:0:0:
256,192,201393,1,0,0:0:0:0:
256,192,201993,1,8,0:0:0:0:
256,192,202293,1,8,0:0:0:0:
256,192,203193,1,8,0:0:0:0:
256,192,203793,1,0,0:0:0:0:
256,192,204093,1,0,0:0:0:0:
256,192,204993,1,0,0:0:0:0:
256,192,205593,1,8,0:0:0:0:
256,192,205893,1,0,0:0:0:0:
256,192,206493,1,8,0:0:0:0:
256,192,206803,1,4,0:0:0:0:
256,192,207403,1,0,0:0:0:0:
256,192,207703,1,0,0:0:0:0:
256,192,208003,1,8,0:0:0:0:
256,192,208303,1,8,0:0:0:0:
256,192,208453,1,8,0:0:0:0:
256,192,208603,1,0,0:0:0:0:
256,192,208903,1,8,0:0:0:0:
256,192,209203,1,0,0:0:0:0:
256,192,209803,1,8,0:0:0:0:
256,192,210103,1,0,0:0:0:0:
256,192,210403,1,8,0:0:0:0:
256,192,210703,1,0,0:0:0:0:
256,192,210853,1,8,0:0:0:0:
256,192,211153,1,0,0:0:0:0:
256,192,211303,1,8,0:0:0:0:
256,192,211603,1,12,0:0:0:0:
256,192,212053,1,12,0:0:0:0:
256,192,212503,1,12,0:0:0:0:
256,192,212953,1,12,0:0:0:0:
256,192,214003,1,4,0:0:0:0:
256,192,214303,1,0,0:0:0:0:
256,192,214603,1,8,0:0:0:0:
256,192,214903,1,0,0:0:0:0:
256,192,215053,1,0,0:0:0:0:
256,192,215353,1,0,0:0:0:0:
256,192,215503,1,0,0:0:0:0:
256,192,215803,1,8,0:0:0:0:
256,192,216103,1,8,0:0:0:0:
256,192,216703,1,8,0:0:0:0:
256,192,216853,1,0,0:0:0:0:
256,192,217153,1,0,0:0:0:0:
256,192,217453,1,8,0:0:0:0:
256,192,217753,1,8,0:0:0:0:
256,192,217903,1,0,0:0:0:0:
256,192,218203,1,8,0:0:0:0:
256,192,218503,1,0,0:0:0:0:
256,192,218803,1,8,0:0:0:0:
256,192,218953,1,0,0:0:0:0:
256,192,219103,1,8,0:0:0:0:
256,192,219403,1,0,0:0:0:0:
256,192,219703,1,8,0:0:0:0:
256,192,220003,1,0,0:0:0:0:
256,192,220603,1,8,0:0:0:0:
256,192,220903,1,0,0:0:0:0:
256,192,221053,1,0,0:0:0:0:
256,192,221503,1,8,0:0:0:0:
256,192,221803,1,8,0:0:0:0:
256,192,222103,1,8,0:0:0:0:
256,192,222403,1,4,0:0:0:0:
256,192,222703,1,8,0:0:0:0:
256,192,223003,1,0,0:0:0:0:
256,192,223153,1,8,0:0:0:0:
256,192,223453,1,0,0:0:0:0:
256,192,223753,1,8,0:0:0:0:
256,192,223903,1,0,0:0:0:0:
256,192,224203,1,8,0:0:0:0:
256,192,224803,1,4,0:0:0:0:
256,192,225253,1,4,0:0:0:0:
256,192,225703,1,4,0:0:0:0:
256,192,226153,1,12,0:0:0:0:
256,192,226453,1,12,0:0:0:0:
256,192,226753,1,12,0:0:0:0:
256,192,227053,1,4,0:0:0:0:
256,192,227503,1,4,0:0:0:0:
256,192,227953,1,4,0:0:0:0:
256,192,228103,12,0,229153,0:0:0:0:
256,192,229453,5,0,0:0:0:0:
256,192,230353,1,8,0:0:0:0:
256,192,231253,1,0,0:0:0:0:
256,192,232153,1,8,0:0:0:0:
256,192,233053,1,0,0:0:0:0:
256,192,233653,1,8,0:0:0:0:
256,192,233953,1,0,0:0:0:0:
256,192,234553,1,8,0:0:0:0:
256,192,234853,1,4,0:0:0:0:
256,192,235453,1,0,0:0:0:0:
256,192,235753,1,0,0:0:0:0:
256,192,236053,1,8,0:0:0:0:
256,192,236353,1,8,0:0:0:0:
256,192,236503,1,8,0:0:0:0:
256,192,236653,1,0,0:0:0:0:
256,192,236953,1,8,0:0:0:0:
256,192,237253,1,0,0:0:0:0:
256,192,237853,1,8,0:0:0:0:
256,192,238153,1,0,0:0:0:0:
256,192,238453,1,8,0:0:0:0:
256,192,238753,1,0,0:0:0:0:
256,192,238903,1,8,0:0:0:0:
256,192,239203,1,0,0:0:0:0:
256,192,239353,1,8,0:0:0:0:
256,192,239653,1,12,0:0:0:0:
256,192,240103,1,12,0:0:0:0:
256,192,240553,1,12,0:0:0:0:
256,192,241003,1,12,0:0:0:0:
256,192,242053,1,8,0:0:0:0:
256,192,242353,1,8,0:0:0:0:
256,192,242653,1,8,0:0:0:0:
256,192,242803,1,0,0:0:0:0:
256,192,242953,1,8,0:0:0:0:
256,192,243253,1,12,0:0:0:0:
256,192,243403,1,12,0:0:0:0:
256,192,243703,12,0,244453,0:0:0:0:
256,192,245653,5,4,0:0:0:0:
256,192,245953,1,4,0:0:0:0:
256,192,247903,1,12,0:0:0:0:
256,192,248353,1,12,0:0:0:0:
256,192,250453,1,4,0:0:0:0:
256,192,250753,1,4,0:0:0:0:
256,192,251653,1,8,0:0:0:0:
256,192,251953,1,0,0:0:0:0:
256,192,252103,1,8,0:0:0:0:
256,192,252403,1,0,0:0:0:0:
256,192,252553,1,8,0:0:0:0:
256,192,252853,1,0,0:0:0:0:
256,192,253153,1,0,0:0:0:0:
256,192,253303,1,0,0:0:0:0:
256,192,253453,1,0,0:0:0:0:
256,192,253753,1,0,0:0:0:0:
256,192,254053,1,8,0:0:0:0:
256,192,254203,1,8,0:0:0:0:
256,192,254503,1,8,0:0:0:0:
256,192,254803,1,0,0:0:0:0:
256,192,254953,1,8,0:0:0:0:
256,192,255253,1,4,0:0:0:0:
256,192,255853,1,0,0:0:0:0:
256,192,256153,1,8,0:0:0:0:
256,192,256453,1,0,0:0:0:0:
256,192,256753,1,8,0:0:0:0:
256,192,256903,1,0,0:0:0:0:
256,192,257053,1,8,0:0:0:0:
256,192,257353,1,0,0:0:0:0:
256,192,257653,1,8,0:0:0:0:
256,192,257953,1,0,0:0:0:0:
256,192,258103,1,8,0:0:0:0:
256,192,258403,1,0,0:0:0:0:
256,192,258553,1,8,0:0:0:0:
256,192,258853,1,8,0:0:0:0:
256,192,259453,1,0,0:0:0:0:
256,192,259603,1,0,0:0:0:0:
256,192,259753,1,8,0:0:0:0:
256,192,260053,1,0,0:0:0:0:
256,192,260653,1,0,0:0:0:0:
256,192,260803,1,0,0:0:0:0:
256,192,260953,1,8,0:0:0:0:
256,192,261253,1,0,0:0:0:0:
256,192,261553,1,8,0:0:0:0:
256,192,261853,1,8,0:0:0:0:
256,192,262003,1,8,0:0:0:0:
256,192,262153,1,8,0:0:0:0:
256,192,262453,1,0,0:0:0:0:
256,192,262753,1,8,0:0:0:0:
256,192,263053,1,0,0:0:0:0:
256,192,263653,1,8,0:0:0:0:
256,192,263953,1,0,0:0:0:0:
256,192,264103,1,0,0:0:0:0:
256,192,264253,1,0,0:0:0:0:
256,192,264553,1,8,0:0:0:0:
256,192,264853,1,4,0:0:0:0:
256,192,265153,1,8,0:0:0:0:
256,192,265453,1,8,0:0:0:0:
256,192,265603,1,8,0:0:0:0:
256,192,265753,1,8,0:0:0:0:
256,192,266053,1,0,0:0:0:0:
256,192,266353,1,8,0:0:0:0:
256,192,266653,1,0,0:0:0:0:
256,192,267253,1,8,0:0:0:0:
256,192,267553,1,0,0:0:0:0:
256,192,267703,1,0,0:0:0:0:
256,192,267853,1,0,0:0:0:0:
256,192,268153,1,8,0:0:0:0:
256,192,268453,1,0,0:0:0:0:
256,192,268753,1,8,0:0:0:0:
256,192,269053,1,0,0:0:0:0:
256,192,269203,1,0,0:0:0:0:
256,192,269353,1,8,0:0:0:0:
256,192,269653,1,0,0:0:0:0:
256,192,270253,1,0,0:0:0:0:
256,192,270553,1,8,0:0:0:0:
256,192,270853,1,0,0:0:0:0:
256,192,271153,1,8,0:0:0:0:
256,192,271303,1,0,0:0:0:0:
256,192,271453,1,8,0:0:0:0:
256,192,271753,1,8,0:0:0:0:
256,192,272053,1,8,0:0:0:0:
256,192,272353,1,0,0:0:0:0:
256,192,272503,1,8,0:0:0:0:
256,192,272803,1,0,0:0:0:0:
256,192,272953,1,8,0:0:0:0:
256,192,273253,1,0,0:0:0:0:
256,192,273703,1,8,0:0:0:0:
256,192,274153,1,8,0:0:0:0:
256,192,274453,1,4,0:0:0:0:
256,192,275053,1,0,0:0:0:0:
256,192,275353,1,8,0:0:0:0:
256,192,275653,1,0,0:0:0:0:
256,192,275953,1,8,0:0:0:0:
256,192,276103,1,0,0:0:0:0:
256,192,276253,1,8,0:0:0:0:
256,192,276553,1,8,0:0:0:0:
256,192,276853,1,0,0:0:0:0:
256,192,277453,1,0,0:0:0:0:
256,192,277753,1,8,0:0:0:0:
256,192,278053,1,0,0:0:0:0:
256,192,278353,1,8,0:0:0:0:
256,192,278503,1,0,0:0:0:0:
256,192,278803,1,0,0:0:0:0:
256,192,278953,1,8,0:0:0:0:
256,192,279253,1,0,0:0:0:0:
256,192,279853,1,0,0:0:0:0:
256,192,280153,1,8,0:0:0:0:
256,192,280453,1,0,0:0:0:0:
256,192,280753,1,8,0:0:0:0:
256,192,280903,1,0,0:0:0:0:
256,192,281203,1,0,0:0:0:0:
256,192,281353,1,8,0:0:0:0:
256,192,281653,1,0,0:0:0:0:
256,192,281953,1,8,0:0:0:0:
256,192,282253,1,0,0:0:0:0:
256,192,282553,1,8,0:0:0:0:
256,192,282853,1,0,0:0:0:0:
256,192,283003,1,0,0:0:0:0:
256,192,283153,1,0,0:0:0:0:
256,192,283453,1,8,0:0:0:0:
256,192,283603,1,8,0:0:0:0:
256,192,283753,1,8,0:0:0:0:
256,192,284053,1,4,0:0:0:0:
256,192,284653,1,8,0:0:0:0:
256,192,284953,1,0,0:0:0:0:
256,192,285253,1,8,0:0:0:0:
256,192,285553,1,0,0:0:0:0:
256,192,285703,1,0,0:0:0:0:
256,192,285853,1,8,0:0:0:0:
256,192,286153,1,0,0:0:0:0:
256,192,286453,1,12,0:0:0:0:
256,192,286603,1,12,0:0:0:0:
256,192,286903,1,12,0:0:0:0:
256,192,287053,1,12,0:0:0:0:
256,192,287353,1,12,0:0:0:0:
256,192,287503,1,12,0:0:0:0:
256,192,287803,1,12,0:0:0:0:
256,192,287953,1,12,0:0:0:0:
256,192,288853,1,12,0:0:0:0:
256,192,289303,1,8,0:0:0:0:
256,192,289753,1,12,0:0:0:0:
256,192,290203,1,8,0:0:0:0:
256,192,290503,1,8,0:0:0:0:
256,192,290653,1,8,0:0:0:0:
256,192,290953,1,8,0:0:0:0:
256,192,291253,1,4,0:0:0:0:
256,192,291553,1,8,0:0:0:0:
256,192,292303,1,0,0:0:0:0:
256,192,292753,1,8,0:0:0:0:
256,192,293503,1,0,0:0:0:0:
256,192,293953,1,8,0:0:0:0:
256,192,294703,1,8,0:0:0:0:
256,192,295003,1,8,0:0:0:0:
256,192,295153,1,0,0:0:0:0:
256,192,295453,1,8,0:0:0:0:
256,192,296053,1,0,0:0:0:0:
256,192,296353,1,8,0:0:0:0:
256,192,297103,1,4,0:0:0:0:
256,192,297553,1,8,0:0:0:0:
256,192,298303,1,4,0:0:0:0:
256,192,298753,1,8,0:0:0:0:
256,192,299503,1,12,0:0:0:0:
256,192,299803,1,8,0:0:0:0:
256,192,299953,1,8,0:0:0:0:
256,192,300253,1,8,0:0:0:0:
256,192,300703,1,4,0:0:0:0:
256,192,301153,1,8,0:0:0:0:
256,192,301453,1,0,0:0:0:0:
256,192,301603,1,8,0:0:0:0:
256,192,301903,1,0,0:0:0:0:
256,192,302353,1,8,0:0:0:0:
256,192,303103,1,0,0:0:0:0:
256,192,303553,1,8,0:0:0:0:
256,192,303853,1,0,0:0:0:0:
256,192,304003,1,8,0:0:0:0:
256,192,304303,1,8,0:0:0:0:
256,192,304603,1,8,0:0:0:0:
256,192,304753,1,0,0:0:0:0:
256,192,305053,1,8,0:0:0:0:
256,192,305353,1,8,0:0:0:0:
256,192,305653,1,0,0:0:0:0:
256,192,306253,1,8,0:0:0:0:
256,192,306553,1,8,0:0:0:0:
256,192,306703,1,0,0:0:0:0:
256,192,307003,1,0,0:0:0:0:
256,192,307153,1,8,0:0:0:0:
256,192,307453,1,0,0:0:0:0:
256,192,307903,1,8,0:0:0:0:
256,192,308353,1,8,0:0:0:0:
256,192,308653,1,8,0:0:0:0:
256,192,308953,1,0,0:0:0:0:
256,192,309103,1,8,0:0:0:0:
256,192,309403,1,0,0:0:0:0:
256,192,309553,1,8,0:0:0:0:
256,192,309853,1,8,0:0:0:0:
256,192,310153,1,8,0:0:0:0:
256,192,310453,1,0,0:0:0:0:
256,192,310603,12,0,315253,0:0:0:0:
