osu file format v9

[General]
AudioFilename: ED.mp3
AudioLeadIn: 1000
PreviewTime: 51125
Countdown: 0
SampleSet: Normal
StackLeniency: 0.7
Mode: 1
LetterboxInBreaks: 0

[Editor]
Bookmarks: 1230,4584,18001,24710,37498,51125,64332,83410
DistanceSpacing: 0.9
BeatDivisor: 4
GridSize: 8

[Metadata]
Title:Suisai Candy (TV Size)
Artist:marble
Creator:frost-b-spec
Version:Taiko DS
Source:Mashiro Iro Symphony - The color of lovers -
Tags:ending palette keimntn biwako KDS

[Difficulty]
HPDrainRate:5
CircleSize:5
OverallDifficulty:5
ApproachRate:5
SliderMultiplier:1.4
SliderTickRate:1

[Events]
//Background and Video events
0,0,"mashiroiro_symphony-21.jpg"
Video,0,"Marble - Suisai Candy.avi"
//Break Periods
//Storyboard Layer 0 (Background)
//Storyboard Layer 1 (Fail)
//Storyboard Layer 2 (Pass)
//Storyboard Layer 3 (Foreground)
//Storyboard Sound Samples
//Background Colour Transformations
3,100,163,162,255

[TimingPoints]
1210,419.58041958042,4,1,0,100,1,0
51559,-100,4,1,0,100,0,1
83028,-100,4,1,0,100,0,0

[Colours]
Combo1 : 214,129,254
Combo2 : 134,253,172
Combo3 : 125,157,240
Combo4 : 219,167,104

[HitObjects]
264,192,1210,21,0
264,192,1629,1,0
264,192,2049,1,0
264,192,2468,1,0
264,192,2888,1,0
264,192,3098,1,0
264,192,3307,1,0
264,192,3517,1,0
264,192,3727,1,0
264,192,3832,1,0
264,192,3937,1,0
264,192,4042,1,0
264,192,4147,1,0
264,192,4566,1,4
264,192,4776,1,0
264,192,4881,1,0
264,192,4986,1,8
264,192,5196,1,0
264,192,5615,1,0
264,192,5825,1,8
264,192,6035,1,0
264,192,6454,1,0
264,192,6664,1,8
264,192,6874,1,0
264,192,7084,1,8
264,192,7189,1,8
264,192,7293,1,0
264,192,7503,1,8
264,192,7923,1,0
264,192,8028,1,0
264,192,8133,1,0
264,192,8342,1,8
264,192,8552,1,0
264,192,8972,1,0
264,192,9182,1,8
264,192,9391,1,0
264,192,9811,1,0
264,192,10021,1,8
264,192,10230,1,8
264,192,10440,1,0
264,192,10545,1,8
264,192,10650,1,0
264,192,10860,1,8
264,192,11070,1,8
264,192,11175,1,8
264,192,11279,1,0
264,192,11489,1,0
264,192,11594,1,0
264,192,11699,1,8
264,192,11909,1,0
264,192,12328,1,0
264,192,12433,1,8
264,192,12538,1,8
264,192,12748,1,0
264,192,13168,1,8
264,192,13272,1,8
264,192,13377,1,8
264,192,13587,1,0
264,192,13797,1,8
264,192,13902,1,8
264,192,14007,1,0
264,192,14216,1,8
256,192,14426,1,4
256,192,14846,1,0
256,192,14951,1,0
256,192,15056,1,8
256,192,15265,1,0
256,192,15475,1,0
256,192,15580,1,0
256,192,15685,1,0
256,192,15895,1,8
256,192,16105,8,0,17573
256,192,17993,5,0
256,192,18098,1,0
256,192,18203,1,0
256,192,18412,1,0
256,192,18517,1,0
256,192,18622,1,0
256,192,18832,1,8
256,192,19251,1,0
256,192,19356,1,0
256,192,19461,1,0
256,192,19671,1,0
256,192,19776,1,0
256,192,19881,1,0
256,192,20091,1,0
256,192,21349,1,0
256,192,21454,1,0
256,192,21559,1,0
256,192,21769,1,0
256,192,21874,1,0
256,192,21979,1,0
256,192,22189,1,8
256,192,22608,1,0
256,192,22713,1,0
256,192,22818,1,0
256,192,23028,1,0
256,192,23133,1,0
256,192,23237,1,0
256,192,23447,1,12
256,192,24077,1,0
256,192,24286,1,8
256,192,24391,1,8
256,192,24496,1,8
256,192,24601,1,8
256,192,24706,1,0
256,192,24916,1,0
256,192,25126,1,8
256,192,25545,1,0
256,192,25755,1,8
256,192,26175,1,0
256,192,26594,1,0
256,192,26804,1,8
256,192,27119,1,8
256,192,27223,1,0
256,192,27328,1,8
256,192,27433,1,0
256,192,27643,1,8
256,192,27853,1,8
256,192,27958,1,8
256,192,28063,1,0
256,192,28272,1,0
256,192,28482,1,8
256,192,28902,1,0
256,192,29112,1,8
256,192,29531,1,0
256,192,29951,1,0
256,192,30056,1,0
256,192,30161,1,8
256,192,30475,1,8
256,192,30579,1,0
256,192,30684,1,8
256,192,30789,1,0
256,192,30895,1,0
256,192,30999,1,8
256,192,31210,1,8
256,192,31314,1,8
256,192,31419,1,0
256,192,31629,1,0
256,192,31839,1,8
256,192,32258,1,0
256,192,32468,1,8
256,192,32678,1,8
256,192,32888,1,0
256,192,33307,1,8
256,192,33412,1,8
256,192,33517,1,8
256,192,33937,1,8
256,192,34042,1,8
256,192,34147,1,8
256,192,34356,1,8
256,192,34566,1,4
256,192,34986,1,0
256,192,35091,1,8
256,192,35196,1,8
256,192,35405,1,4
256,192,35825,1,4
256,192,36244,1,4
256,192,36664,1,0
256,192,36874,1,0
256,192,36979,1,0
256,192,37084,1,0
256,192,37189,1,0
256,192,37293,1,8
256,192,37398,1,8
256,192,37503,1,8
256,192,37608,1,8
256,192,37713,1,8
256,192,37923,1,8
256,192,38029,1,8
256,192,38133,1,0
256,192,38342,1,0
256,192,38447,1,0
256,192,38552,1,8
256,192,38762,1,0
256,192,38972,1,0
256,192,39077,1,8
256,192,39182,1,0
256,192,39286,1,0
256,192,39391,1,8
256,192,39601,1,4
256,192,40021,1,0
256,192,40230,1,8
256,184,40440,1,0
256,184,40545,1,8
256,184,40755,1,8
256,184,40860,1,0
256,184,41070,1,8
256,192,41279,1,8
256,192,41384,1,8
256,192,41489,1,0
256,192,41699,1,0
256,192,41804,1,0
256,192,41909,1,8
256,192,42119,1,0
256,192,42329,1,0
256,192,42434,1,8
256,192,42539,1,8
256,192,42643,1,8
256,192,42748,1,0
256,192,42958,1,4
256,192,43377,1,0
256,192,43587,1,8
256,192,43797,1,0
256,192,43902,1,0
256,192,44007,1,8
256,192,44112,1,8
256,192,44216,1,0
256,192,44426,1,8
256,192,44636,1,4
256,192,45056,1,0
256,192,45161,1,0
256,192,45265,1,0
256,192,45475,1,8
256,192,45685,1,0
256,192,45790,1,0
256,192,45895,1,0
256,192,46105,1,8
256,192,46314,1,0
256,192,46524,1,0
256,192,46629,1,0
256,192,46734,1,8
256,192,46944,1,8
256,192,47154,1,0
256,192,47258,1,0
256,192,47363,1,8
256,192,47573,1,0
256,192,47783,1,8
256,192,47993,1,4
256,192,48412,1,0
256,192,48517,1,0
256,192,48622,1,8
256,192,48832,1,0
256,192,49042,1,8
256,192,49147,1,8
256,192,49251,1,0
256,192,49356,1,0
256,192,49461,1,8
256,192,49671,1,0
256,192,49881,1,4
256,192,50091,1,4
256,192,50300,1,4
256,192,50510,1,12
256,192,50720,1,12
256,192,51140,1,8
256,192,51349,1,8
256,192,51559,1,4
256,192,51769,1,0
256,192,51979,1,8
256,192,52189,1,0
256,192,52293,1,8
256,192,52503,1,8
256,192,52608,1,0
256,192,52818,1,8
256,192,53028,1,8
256,192,53133,1,8
256,192,53237,1,0
256,192,53447,1,0
256,192,53657,1,8
256,192,53867,1,0
256,192,53972,1,8
256,192,54182,1,8
256,192,54286,1,0
256,192,54496,1,8
256,192,54601,1,8
256,192,54706,1,8
256,192,54811,1,8
256,192,54916,1,0
256,192,55126,1,0
224,184,55230,1,0
256,192,55335,1,8
256,192,55545,1,0
256,192,55755,1,0
256,192,55860,1,8
256,192,55965,1,0
256,192,56175,1,8
256,192,56384,1,0
256,192,56594,1,0
256,192,56699,1,0
256,192,56804,1,8
256,192,57014,1,0
256,192,57119,1,0
256,192,57223,1,8
256,192,57328,1,0
256,192,57433,1,8
256,192,57643,1,0
256,192,57853,1,8
256,192,58063,1,8
256,192,58168,1,8
256,192,58272,1,0
256,192,58482,1,0
256,192,58587,1,0
256,192,58692,1,8
256,192,58902,1,0
256,192,59112,1,0
256,192,59216,1,8
256,192,59321,1,0
256,192,59531,1,8
256,192,59741,1,8
256,192,59951,1,0
256,192,60056,1,0
256,192,60161,1,0
256,192,60370,1,8
256,192,60475,1,8
256,192,60580,1,8
256,192,60790,1,0
256,192,60895,1,8
256,192,61000,1,0
256,192,61210,1,8
48,192,61419,2,0,B|416:192,1,350
248,184,63098,1,4
248,184,63307,1,12
248,184,63517,1,12
248,184,63937,1,12
248,184,64356,1,0
248,184,64566,1,8
248,184,64776,1,8
256,192,64986,1,4
256,192,65196,1,0
256,192,65406,1,8
256,192,65616,1,0
256,192,65720,1,8
256,192,65825,1,0
256,192,65930,1,8
256,192,66035,1,0
256,192,66245,1,8
256,192,66455,1,8
256,192,66560,1,8
256,192,66664,1,0
256,192,66874,1,0
256,192,67084,1,8
256,192,67294,1,0
256,192,67399,1,8
256,192,67503,1,0
256,192,67609,1,8
256,192,67713,1,0
256,192,67818,1,0
256,192,67923,1,8
256,192,68133,1,8
256,192,68238,1,8
256,192,68343,1,0
256,192,68553,1,0
224,184,68657,1,0
256,192,68762,1,8
256,192,68972,1,0
256,192,69182,1,0
256,192,69287,1,8
256,192,69392,1,0
256,192,69496,1,0
256,192,69602,1,8
256,192,69811,1,0
256,192,70021,1,0
256,192,70126,1,0
256,192,70231,1,8
256,192,70441,1,0
256,192,70546,1,0
256,192,70650,1,8
256,192,70755,1,0
256,192,70860,1,8
256,192,71070,1,0
256,192,71280,1,8
256,192,71490,1,8
256,192,71595,1,8
256,192,71699,1,0
256,192,71909,1,0
256,192,72014,1,0
256,192,72119,1,8
256,192,72329,1,0
256,192,72539,1,0
256,192,72643,1,8
256,192,72748,1,0
256,192,72853,1,8
256,192,72958,1,8
256,192,73168,1,4
256,192,73587,1,12
256,192,74007,1,12
256,192,74426,1,12
256,192,74846,8,0,75265
256,192,75475,37,4
256,192,75895,1,4
256,192,76105,1,4
256,192,76524,8,0,76944
256,192,77154,5,4
256,192,77573,1,4
256,192,77783,1,4
256,192,78203,1,12
256,192,78622,1,0
256,192,78727,1,0
256,192,78832,1,8
256,192,79042,1,0
256,192,79251,1,0
256,192,79356,1,0
256,192,79461,1,0
256,192,79671,1,8
256,192,79881,1,4
256,192,80300,1,0
256,192,80510,1,8
256,192,80720,1,0
256,192,80825,1,0
256,192,80930,1,0
256,192,81140,1,0
256,192,81349,1,8
256,192,81454,1,8
256,192,81559,1,8
256,192,81664,1,8
256,192,81769,1,0
256,192,83028,1,8
256,192,83237,1,0
264,192,83447,1,0
264,192,83552,1,0
264,192,83657,1,0
264,192,83866,1,0
264,192,83971,1,0
264,192,84076,1,0
264,192,84286,1,8
264,192,84706,1,0
264,192,84811,1,0
264,192,84916,1,0
264,192,85125,1,0
264,192,85230,1,0
264,192,85335,1,0
264,192,85545,1,0
264,192,86384,1,12
264,192,86804,1,0
264,192,86909,1,0
264,192,87014,1,0
264,192,87223,1,0
264,192,87328,1,0
264,192,87433,1,0
264,192,87643,1,8
264,192,88063,1,0
264,192,88168,1,0
264,192,88272,1,0
264,192,88482,1,0
264,192,88587,1,0
264,192,88692,1,0
264,192,88902,1,12
