osu file format v9

[General]
AudioFilename: ED.mp3
AudioLeadIn: 1000
PreviewTime: 51125
Countdown: 0
SampleSet: Soft
StackLeniency: 0.7
Mode: 0
LetterboxInBreaks: 0

[Editor]
DistanceSpacing: 1.4
BeatDivisor: 4
GridSize: 8

[Metadata]
Title:Suisai Candy (TV Size)
Artist:marble
Creator:frost-b-spec
Version:Hard
Source:Mashiro Iro Symphony - The color of lovers -
Tags:ending palette keimntn biwako KDS

[Difficulty]
HPDrainRate:7
CircleSize:4
OverallDifficulty:7
ApproachRate:8
SliderMultiplier:2
SliderTickRate:1

[Events]
//Background and Video events
0,0,"mashiroiro_symphony-21.jpg"
Video,0,"Marble - Suisai Candy.avi"
//Break Periods
//Storyboard Layer 0 (Background)
//Storyboard Layer 1 (Fail)
//Storyboard Layer 2 (Pass)
//Storyboard Layer 3 (Foreground)
//Storyboard Sound Samples
//Background Colour Transformations
3,100,163,162,255

[TimingPoints]
1210,419.58041958042,4,2,0,80,1,0
51559,-100,4,1,0,80,0,1
83028,-100,4,2,0,80,0,0
88797,-100,4,2,0,80,0,0

[Colours]
Combo1 : 214,129,254
Combo2 : 134,253,172
Combo3 : 125,157,240
Combo4 : 219,167,104

[HitObjects]
248,264,1209,2,0,B|147:227|51:259,1,200,0|8
48,120,2049,2,0,B|144:152|248:120,1,200,0|8
376,64,2888,2,0,B|416:160|392:264,1,200,0|8
280,336,3727,1,0
216,312,3937,1,0
168,264,4147,1,8
48,192,4566,5,0
120,72,4986,1,8
120,72,5196,1,0
256,96,5615,1,0
384,48,6035,2,0,B|472:112|472:224,1,200
400,208,6664,2,0,B|400:328|296:360,1,200,8|0
264,232,7293,5,0
184,344,7503,1,8
184,208,7713,1,0
96,312,7923,6,0,B|32:232|56:120,1,200,0|8
96,64,8552,2,0,B|200:112|296:64,1,200
328,128,9182,1,0
368,192,9391,1,0
232,192,9811,1,0
232,192,10021,1,8
96,160,10440,6,0,B|144:56,1,100
184,128,10860,2,0,B|280:72,1,100,8|0
336,48,11279,1,0
464,104,11699,1,8
464,104,11909,1,0
352,192,12328,5,8
88,341,12748,1,0
88,33,13168,1,8
352,192,13587,1,0
216,192,14007,6,0,B|104:192,2,100,0|8|0
264,320,14846,1,0
304,264,15056,1,0
376,256,15265,2,0,B|456:336,2,100
376,256,15895,1,8
376,184,16105,2,0,B|376:72,1,100
320,128,16524,2,0,B|248:40,1,100,0|8
248,120,16944,2,0,B|128:120,1,100
24,192,17573,1,8
120,288,17993,6,0,B|208:328|320:320,2,200,0|8|0
88,152,19251,2,0,B|24:232,1,100,8|0
96,248,19671,2,0,B|216:208,1,100
232,160,20091,2,0,B|304:272,1,100,8|0
352,216,20510,2,0,B|352:344,2,100,0|0|8
304,80,21349,6,0,B|400:24|496:80,2,200,0|8|0
160,80,22608,1,8
160,80,22818,1,0
88,88,23028,2,0,B|56:128|56:184,1,100
72,248,23447,2,0,B|112:216|168:216,1,100,8|0
232,232,23867,1,0
280,280,24077,1,0
344,256,24286,1,8
392,304,24496,1,0
448,352,24706,6,0,B|472:256|472:152,1,200,0|8
472,80,25335,2,0,B|384:32|280:32,1,200
136,40,26175,2,0,B|64:104|32:208,1,200
32,280,26804,2,0,B|128:352,1,100,8|0
136,272,27223,2,0,B|256:272,1,100
264,336,27643,2,0,B|333:264,1,100,8|0
400,288,28063,6,0,B|456:72,1,200,0|8
408,40,28692,2,0,B|352:136|272:184,1,200
208,208,29321,1,8
136,192,29531,1,0
40,88,29951,1,0
40,88,30161,1,8
312,40,30580,5,0
224,144,30790,1,0
360,120,31000,1,8
232,60,31210,1,0
300,180,31419,1,0
256,312,31839,5,8
256,312,32049,2,0,B|152:336|64:264,1,200
48,200,32678,1,8
64,128,32888,2,0,B|128:40|232:32,1,200
304,32,33517,1,8
368,64,33727,1,0
312,192,34147,6,0,B|432:192|472:96,2,200
312,120,35196,2,0,B|256:120|240:176,1,100,8|0
240,320,35825,1,0
256,192,36244,12,4,37084
440,64,37503,6,0,B|392:80|360:128,1,100,0|8
312,72,37923,2,0,B|288:120|288:168,1,100
280,240,38342,2,0,B|336:256|368:208,2,100,0|8|0
208,240,38972,1,0
88,312,39391,1,8
88,312,39601,1,0
96,176,40021,1,0
96,176,40230,2,0,B|200:152|264:72,1,200,8|0
328,40,40860,5,0
400,48,41070,1,8
464,80,41279,1,0
496,144,41489,1,0
368,192,41909,2,0,B|384:248|440:256,2,100,8|0|0
280,304,42748,1,8
280,304,42958,2,0,B|280:192|224:112,1,200
184,176,43587,2,0,B|128:88|32:48,1,200,8|0
32,120,44216,6,0,B|56:160|56:216,1,100,0|8
64,288,44636,2,0,B|160:240|264:256,1,200
328,272,45265,1,8
400,288,45475,1,0
400,288,45580,1,0
400,288,45685,1,0
464,320,45895,6,0,B|480:264|472:216,1,100,0|8
408,192,46314,2,0,B|408:80|496:16,2,200
408,192,47573,1,0
352,320,47993,2,0,B|248:320|160:264,1,200
162,265,48622,1,8
104,136,49042,2,0,B|200:136|296:192,1,200,0|8
408,272,49881,2,0,B|200:272,1,200,0|8
256,136,50720,1,0
392,288,51140,5,8
392,288,51349,1,0
392,288,51559,2,0,B|488:224|432:112,1,200,4|8
312,40,52398,1,0
176,64,52818,1,8
176,64,53028,1,0
176,64,53237,2,0,B|96:136|88:240,1,200,0|8
192,328,54077,5,0
264,344,54286,1,0
328,312,54496,1,8
360,248,54706,1,0
320,192,54916,6,0,B|424:176|480:80,2,200,0|8|0
256,224,55965,1,0
192,192,56175,2,0,B|88:176|32:80,2,200,8|0|8
256,160,57223,1,0
376,240,57643,5,0
320,288,57853,1,8
264,336,58063,2,0,B|184:272|72:296,2,200,0|0|8
192,216,59321,2,0,B|144:136|32:104,2,200
224,152,60370,1,8
208,88,60580,2,0,B|304:48|408:88,1,200
464,224,61419,5,0
360,320,61629,1,0
224,336,61839,1,0
120,240,62049,2,0,B|48:168|80:48,2,200,8|0|8
192,248,63098,1,0
264,248,63307,2,0,B|360:224|408:112,1,200,0|8
405,117,63937,1,0
272,152,64356,6,0,B|280:96|320:64,2,100,0|8|0
344,160,64986,2,0,B|320:272|208:288,1,200,0|8
136,280,65615,1,0
80,232,65825,1,0
64,160,66035,2,0,B|64:112|112:72,2,100,0|8|0
136,152,66664,2,0,B|192:48|288:32,1,200,0|8
360,40,67293,1,0
408,88,67503,1,0
376,152,67713,6,0,B|424:176|440:232,1,100,0|8
472,288,68133,1,0
416,336,68342,2,0,B|376:368|320:360,1,100
344,296,68762,2,0,B|264:296|224:248,1,100,8|0
304,224,69182,2,0,B|264:200|248:136,1,100
240,72,69601,1,8
184,120,69811,2,0,B|64:112|16:24,2,200
48,152,71070,6,0,B|32:208|56:248,1,100,0|8
104,304,71489,2,0,B|192:360|296:336,1,200
448,96,72328,1,0
296,333,72748,1,0
256,56,73168,2,0,B|152:32|56:56,2,200
440,264,74426,1,0
160,272,74846,6,0,B|104:176|152:80,1,200
151,81,75475,1,8
288,40,75895,1,0
288,40,76105,1,0
416,88,76524,2,0,B|463:182|407:278,1,200,0|0
407,278,77154,1,8
264,264,77573,1,0
264,264,77783,1,0
152,344,78203,6,0,B|72:288|80:168,1,200
72,24,79042,2,0,B|120:128|224:144,1,200
224,280,79881,2,0,B|328:272|376:160,1,200
374,164,80510,1,8
96,176,80930,1,0
328,336,81349,1,8
184,344,81559,1,0
256,192,81769,12,0,83028
16,152,83447,6,0,B|16:24,1,100
72,96,83867,2,0,B|160:32,1,100,8|0
168,104,84286,2,0,B|312:104,1,100
232,168,84706,2,0,B|328:224,1,100,8|0
256,248,85126,2,0,B|256:368,1,100
256,348,85545,5,8
24,192,85965,1,0
256,32,86384,1,8
488,192,86804,6,0,B|488:320,1,100
432,256,87223,2,0,B|344:320,1,100,8|0
344,248,87643,2,0,B|200:248,1,100
272,184,88063,2,0,B|176:128,1,100,8|0
256,120,88482,2,0,B|256:0,1,100
256,20,88902,1,2
