osu file format v9

[General]
AudioFilename: =A=.mp3
AudioLeadIn: 1000
PreviewTime: 51080
Countdown: 0
SampleSet: Soft
StackLeniency: 0.7
Mode: 0
LetterboxInBreaks: 0

[Editor]
DistanceSpacing: 1.1
BeatDivisor: 4
GridSize: 4

[Metadata]
Title:Suisai Candy (TV Size)
Artist:marble
Creator:Nymph
Version:Insane
Source:Mashiro Iro Symphony - The color of lovers -
Tags:palette Kanon tutuhaha jih7491 ending

[Difficulty]
HPDrainRate:7
CircleSize:4
OverallDifficulty:7
ApproachRate:8
SliderMultiplier:1.8
SliderTickRate:1

[Events]
//Background and Video events
Video,0,"=A=.avi"
0,0,"=A=.jpg"
//Break Periods
//Storyboard Layer 0 (Background)
//Storyboard Layer 1 (Fail)
//Storyboard Layer 2 (Pass)
//Storyboard Layer 3 (Foreground)
//Storyboard Sound Samples
//Background Colour Transformations
3,100,163,162,255

[TimingPoints]
-496,419.58041958042,4,2,1,50,1,0
4643,-100,4,2,1,40,0,0
17965,-100,4,2,0,40,0,0
24678,-100,4,2,1,40,0,0
38105,-100,4,2,1,47,0,0
50273,-100,4,2,2,30,0,0
50483,-100,4,2,2,25,0,0
51112,-100,4,2,1,40,0,0
51531,-100,4,2,1,55,0,1
64748,-100,4,2,2,30,0,1
64958,-100,4,2,1,55,0,1
83000,-100,4,2,2,25,0,1
83420,-100,4,2,1,50,0,0

[Colours]
Combo1 : 128,0,255
Combo2 : 98,255,98
Combo3 : 49,207,253
Combo4 : 255,98,255

[HitObjects]
256,24,1182,1,2
88,192,1601,1,0
256,360,2021,1,2
424,192,2441,1,0
256,96,2860,5,2
164,162,3070,1,0
199,269,3280,1,2
312,269,3490,1,0
347,162,3699,1,2
256,192,3909,1,2
256,192,4014,1,0
256,192,4119,1,2
256,96,4329,1,0
172,68,4538,6,0,B|72:44|-4:124,1,180,4|8
8,280,5168,2,0,B|108:304|184:224,1,180,2|0
256,192,5797,1,8
332,144,6007,2,0,B|401:209|377:309,1,180,2|0
280,356,6636,5,10
172,356,6846,1,0
72,312,7056,1,2
64,204,7266,1,0
64,204,7371,1,0
64,204,7476,1,10
124,112,7685,1,0
124,112,7895,6,0,B|200:54|295:95,1,180,2|8
384,236,8524,2,0,B|307:293|212:252,1,180,2|0
124,240,9154,1,8
56,296,9364,2,0,B|-1:219|40:124,1,180,2|0
128,60,9993,5,10
232,28,10203,1,0
336,60,10413,1,2
412,136,10622,1,0
412,136,10727,1,0
412,136,10832,1,10
424,244,11042,1,0
336,308,11252,6,0,B|260:366|165:325,1,180,2|8
88,280,11881,2,0,B|30:204|71:109,1,180,2|0
152,68,12510,1,8
236,36,12720,1,2
336,308,13140,1,0
424,36,13559,1,2
336,308,13979,1,0
248,328,14189,1,8
160,316,14399,6,0,B|71:279|59:176,1,180,2|0
48,88,15028,1,10
288,24,15448,1,0
476,192,15867,1,10
432,272,16077,2,0,B|371:353|275:341,1,180,2|0
168,340,16706,5,8
68,296,16916,1,0
68,188,17126,1,2
68,176,17231,1,0
68,164,17336,1,0
68,152,17441,1,0
68,140,17545,1,10
68,128,17650,1,0
68,116,17755,1,0
68,104,17860,1,0
68,92,17965,6,0,B|104:56|152:56,1,90,4|0
236,148,18385,2,0,B|274:121|321:125,1,90,8|0
428,128,18804,1,2
328,320,19224,1,8
224,352,19434,1,0
120,320,19643,1,2
48,236,19853,1,0
48,128,20063,1,8
48,128,20483,5,2
152,28,20692,1,0
152,28,20797,1,0
152,28,20902,1,8
220,156,21112,1,0
332,64,21322,5,2
448,112,21531,1,0
332,164,21741,1,8
448,216,21951,1,0
332,264,22161,1,2
332,264,22580,5,8
228,216,22790,1,0
168,316,23000,1,2
100,216,23210,1,0
32,116,23420,1,8
244,60,23839,5,2
352,72,24049,1,0
352,72,24154,1,0
352,72,24259,1,8
428,148,24469,1,0
436,256,24678,6,0,B|398:350|302:363,1,180,4|8
212,364,25308,2,0,B|116:350|78:256,1,180,2|0
76,168,25937,1,8
116,88,26147,2,0,B|195:25|284:61,1,180,2|0
284,168,26776,6,0,B|323:192|370:180,1,90,8|0
476,192,27196,2,0,B|492:237|470:280,1,90,2|0
468,292,27510,1,0
464,304,27615,1,8
364,348,27825,1,0
256,352,28035,6,0,B|160:384|80:332,1,180,2|8
24,176,28664,2,0,B|119:144|196:194,1,180,2|0
264,256,29294,1,8
352,244,29504,2,0,B|401:167|370:71,1,180,2|0
264,48,30133,6,0,B|228:16|180:20,1,90,8|0
76,44,30552,2,0,B|31:58|10:102,1,90,2|0
8,116,30867,1,0
8,128,30972,1,8
28,236,31182,1,0
108,308,31392,6,0,B|185:357|281:326,1,180,4|8
388,308,32021,2,0,B|437:231|406:135,1,180,2|0
344,56,32650,1,8
256,8,32860,5,2
36,192,33280,1,0
256,376,33699,1,2
476,192,34119,1,0
432,112,34329,1,8
354,67,34538,6,0,B|277:18|181:49,1,180,2|0
92,64,35168,2,0,B|96:120|148:140,1,90,8|0
412,192,35797,1,0
168,344,36217,2,0,B|100:282|105:181,1,180,4|0
132,96,36846,6,0,B|164:60|212:56,1,90,8|0
300,56,37266,1,2
312,56,37371,1,0
324,56,37476,1,0
336,56,37580,1,0
344,64,37685,1,10
356,64,37790,1,0
368,64,37895,1,0
380,64,38000,1,0
392,64,38105,6,0,B|440:72|472:104,1,90,4|0
444,188,38524,2,0,B|472:227|472:272,1,90,8|0
432,352,38944,1,2
252,352,39364,1,8
164,340,39573,2,0,B|76:308|48:200,1,180,2|0
48,120,40203,5,8
48,28,40413,1,0
136,12,40622,1,2
132,100,40832,2,0,B|152:144|200:156,2,90,0|8|0
132,284,41462,6,0,B|152:240|200:228,2,90,2|0|8
68,348,42091,1,0
156,368,42301,2,0,B|248:392|336:368,1,180,2|8
380,292,42930,2,0,B|428:316|428:364,2,90,0|2|0
424,212,43559,5,8
472,136,43769,1,0
412,68,43979,1,2
360,144,44189,1,0
360,144,44294,1,0
360,144,44399,1,8
360,144,44608,6,0,B|292:208|192:208,1,180,4|0
136,140,45238,1,8
72,204,45448,2,0,B|80:228|100:236,1,45
256,276,45867,1,2
200,368,46077,1,8
312,368,46287,1,0
416,192,46706,5,2
508,248,46916,1,8
508,136,47126,1,0
256,108,47545,5,2
312,16,47755,1,8
200,16,47965,1,0
4,136,48385,5,2
4,248,48594,1,8
176,192,49014,1,0
336,192,49434,1,0
256,324,49853,2,0,B|240:280|268:280|256:232,1,90,2|0
256,144,50273,5,8
256,132,50378,1,8
256,120,50483,1,8
256,108,50587,1,8
256,96,50692,1,8
76,56,51112,5,0
28,132,51322,1,0
36,220,51531,6,0,B|60:312|148:360,1,180,4|8
252,364,52161,1,0
252,364,52266,1,0
252,364,52371,1,2
356,336,52580,1,0
436,264,52790,1,8
440,156,53000,1,0
388,60,53210,6,0,B|305:11|209:40,1,180,2|8
112,72,53839,1,0
112,72,53944,1,0
112,72,54049,1,2
112,168,54259,2,0,B|160:164|192:132,2,90,0|8|0
16,216,54888,5,2
212,364,55308,1,8
300,364,55517,1,0
484,192,55937,1,2
256,20,56357,1,0
28,192,56776,1,2
256,364,57196,1,0
256,364,57301,1,0
256,364,57406,1,0
256,208,57615,6,0,B|256:120,2,90,0|8|0
256,208,58245,1,2
212,288,58455,1,0
300,288,58664,1,8
256,364,58874,1,0
416,192,59294,6,0,B|504:192,2,90,2|8|0
256,104,60133,2,0,B|256:12,2,90,2|8|0
96,192,60972,2,0,B|8:192,2,90,2|8|0
256,192,61601,5,2
348,192,61811,1,0
256,192,62021,1,8
28,272,62441,1,2
104,320,62650,1,0
192,348,62860,2,0,B|232:372|280:372,1,90,8|0
368,372,63280,6,0,B|413:372|453:348,2,90,2|0|8
260,368,63909,1,0
160,328,64119,1,2
96,240,64329,1,0
96,240,64434,1,0
96,240,64538,1,8
116,132,64748,1,8
116,132,64853,1,8
116,132,64958,6,0,B|96:88|116:44,1,90,4|0
224,28,65378,2,0,B|244:72|224:116,1,90,8|0
176,212,65797,1,2
116,300,66007,1,0
204,360,66217,1,8
312,360,66427,1,0
312,360,66531,1,0
312,360,66636,6,0,B|356:380|400:360,1,90,2|0
416,252,67056,2,0,B|372:232|328:252,1,90,8|0
232,304,67476,1,2
128,328,67685,1,0
40,264,67895,1,8
4,160,68105,1,0
40,60,68315,5,2
256,20,68734,1,8
256,112,68944,1,0
472,60,69364,1,2
444,272,69783,1,0
240,348,70203,1,2
444,272,70622,5,0
492,196,70832,1,2
400,196,71042,1,0
400,196,71147,1,0
400,196,71252,2,0,B|368:232|316:236,1,90,8|0
204,188,71671,6,0,B|157:191|125:227,2,90,4|0|8
244,268,72301,2,0,B|296:348|396:360,1,180,2|0
476,200,73140,1,2
364,16,73559,1,0
148,16,73979,1,2
36,200,74399,1,0
148,340,74818,1,2
148,340,74923,1,0
148,340,75028,6,0,B|228:380|324:368,1,180,2|8
392,200,75867,2,0,B|440:196|480:224,2,90,2|0|8
300,192,76497,1,0
300,192,76601,1,0
300,192,76706,2,0,B|220:152|124:164,1,180,2|8
124,344,77545,2,0,B|76:348|36:320,2,90,2|0|8
212,356,78175,6,0,B|304:384|392:356,1,180,2|0
456,284,78804,1,8
500,192,79014,2,0,B|408:164|320:192,1,180,2|0
322,191,79643,1,8
145,192,79853,6,0,B|237:164|325:192,1,180,2|0
322,191,80483,1,8
252,356,80902,2,0,B|344:384|432:356,1,180,2|8
428,268,81531,1,0
508,312,81741,6,0,B|528:268|508:224,1,90,2|0
284,108,82161,2,0,B|264:151|284:195,1,90,8|0
396,320,82580,2,0,B|416:276|396:232,1,90,2|0
396,124,83000,1,8
396,112,83105,1,8
396,100,83210,1,8
396,88,83315,1,8
396,76,83420,6,0,B|360:40|312:40,1,90,4|0
208,40,83839,2,0,B|163:39|127:75,1,90,8|0
40,136,84259,1,2
148,320,84678,1,8
252,352,84888,1,0
356,320,85098,1,0
428,236,85308,1,0
428,236,85413,1,0
428,236,85517,1,8
428,236,85937,5,2
387,97,86147,1,0
387,97,86252,1,0
387,97,86357,1,8
265,174,86566,1,0
212,40,86776,5,0
96,40,86986,1,0
168,132,87196,1,8
52,132,87406,1,0
112,232,87615,1,2
112,232,88035,1,8
224,204,88245,1,0
252,316,88455,1,0
364,288,88664,1,0
364,288,88769,1,0
364,288,88874,1,0
