osu file format v9

[General]
AudioFilename: Suisai Candy.mp3
AudioLeadIn: 1000
PreviewTime: 68030
Countdown: 0
SampleSet: Normal
StackLeniency: 0.7
Mode: 1
LetterboxInBreaks: 0

[Editor]
Bookmarks: 1317,81876,145652,196002,255372
DistanceSpacing: 1
BeatDivisor: 4
GridSize: 32

[Metadata]
Title:Suisai Candy
Artist:marble
Creator:No_Gu
Version:Taiko Collab
Source:Mashiro Iro Symphony - The color of lovers -
Tags:Nymph ending Netsukawa Naryuga collab karenying

[Difficulty]
HPDrainRate:5
CircleSize:5
OverallDifficulty:5
ApproachRate:5
SliderMultiplier:1.4
SliderTickRate:1

[Events]
//Background and Video events
0,0,"Taiko BG.jpg"
//Break Periods
//Storyboard Layer 0 (Background)
//Storyboard Layer 1 (Fail)
//Storyboard Layer 2 (Pass)
//Storyboard Layer 3 (Foreground)
Sprite,Foreground,Centre,"SB\net.png",320,240 F,0,897,1317,0,1 M,0,1317,,564,458 F,0,1317,81456,1,0.9928944 F,0,81456,81876,0.9928944,0 F,0,81876,145233,0,0.002348518 F,0,145233,145652,0.002348518,1 F,0,145652,195582,1,0.9929165 F,0,195582,196002,0.9929165,0
Sprite,Foreground,Centre,"SB\Naryuga.png",320,240 F,0,81456,81876,0,1 M,0,81876,,74,458 F,0,81876,145233,1 F,0,145233,145652,1,0.12 F,0,145652,195582,0.12,0 F,0,195582,196002,0,1 F,0,196002,255163,1 F,0,255163,255372,1,0
//Storyboard Sound Samples
//Background Colour Transformations
3,100,163,162,255

[TimingPoints]
1317,419.58041958042,4,1,0,90,1,0
68449,-100,4,1,0,90,0,1
98659,-100,4,1,0,90,0,0
159079,-100,4,1,0,90,0,1
189289,-100,4,1,0,90,0,0
209428,-100,4,1,0,90,0,1
239638,-100,4,1,0,90,0,0

[Colours]
Combo1 : 128,0,255
Combo2 : 98,255,98
Combo3 : 49,207,253
Combo4 : 255,98,255

[HitObjects]
256,192,1317,1,8
256,192,2995,1,0
256,192,3834,1,0
256,192,4673,1,8
256,192,6351,1,0
256,192,7191,1,0
256,192,8030,1,8
256,192,8449,1,0
256,192,8869,1,8
256,192,9708,1,0
256,192,10547,1,0
256,192,11386,1,8
256,192,11806,1,0
256,192,12226,1,8
256,192,13065,1,0
256,192,13904,1,0
256,192,14743,1,8
256,192,15163,1,0
256,192,15582,1,8
256,192,16421,1,0
256,192,17261,1,0
256,192,18100,1,8
256,192,18519,1,0
256,192,18939,1,8
256,192,19778,1,0
256,192,19988,1,8
256,192,20198,1,0
256,192,20407,1,8
256,192,20617,1,0
256,192,20722,1,0
256,192,20827,1,0
256,192,20932,1,8
256,192,21037,1,0
256,192,21456,1,4
256,192,21876,1,8
256,192,22086,1,0
256,192,22505,1,0
256,192,22715,1,8
256,192,22925,1,0
256,192,23344,1,8
256,192,23554,1,0
256,192,23764,1,0
256,192,23974,1,8
256,192,24184,1,0
256,192,24603,1,0
256,192,24813,1,8
256,192,25233,1,8
256,192,25442,1,0
256,192,25862,1,8
256,192,26282,1,0
256,192,26701,1,8
256,192,26911,1,0
256,192,27121,1,0
256,192,27330,1,8
256,192,27540,1,0
256,192,27960,1,8
256,192,28170,1,0
256,192,28589,1,0
256,192,28799,1,8
256,192,29219,1,0
256,192,29638,1,8
256,192,30058,1,0
256,192,30477,1,8
256,192,30897,1,0
256,192,31107,1,8
256,192,31317,1,0
256,192,31736,1,0
256,192,31946,1,8
256,192,32365,1,0
256,192,32785,1,8
256,192,32995,1,0
256,192,33205,1,0
256,192,33414,1,8
256,192,33624,1,0
256,192,33834,1,8
256,192,34044,1,0
256,192,34254,1,8
256,192,34358,1,0
256,192,34463,1,0
256,192,34673,1,8
256,192,34883,1,4
256,192,35198,1,0
256,192,35303,1,8
256,192,35512,1,8
256,192,35722,1,0
256,192,36142,1,8
256,192,36351,1,0
256,192,36561,1,8
256,192,36876,1,8
256,192,36981,1,0
256,192,37191,1,8
256,192,37296,1,0
256,192,37400,1,0
256,192,37610,1,0
256,192,37820,1,8
256,192,38240,1,0
256,192,38554,1,8
256,192,38659,1,0
256,192,38869,1,0
256,192,39079,1,8
256,192,39289,1,0
256,192,39393,1,0
256,192,39498,1,8
256,192,39708,1,0
256,192,39918,1,8
256,192,40233,1,8
256,192,40337,1,0
256,192,40547,1,8
256,192,40652,1,0
256,192,40757,1,0
256,192,40967,1,0
256,192,41177,1,8
256,192,41386,1,8
256,192,41491,1,8
256,192,41596,1,0
256,192,42016,1,8
256,192,42226,1,0
256,192,42645,1,8
256,192,42855,1,0
256,192,43065,1,8
256,192,43484,1,8
256,192,43694,1,0
256,192,43904,1,8
256,192,44114,1,8
256,192,44533,1,8
256,192,44743,1,0
256,192,44953,1,8
256,192,45372,1,8
256,192,45582,1,0
256,192,46002,1,0
256,192,46421,1,8
256,192,46841,1,8
256,192,47051,1,0
256,192,47261,1,0
256,192,47470,1,8
256,192,47680,1,0
256,192,47890,1,8
256,192,48100,1,0
256,192,48205,1,0
256,192,48310,1,8
256,192,48729,1,8
256,192,48939,1,0
256,192,49358,1,8
256,192,49568,1,0
256,192,49778,1,8
256,192,50198,1,8
256,192,50617,1,8
256,192,51037,1,0
256,192,51247,1,8
256,192,51456,1,0
256,192,51876,1,0
256,192,52086,1,8
256,192,52296,1,8
256,192,52715,1,0
256,192,53135,1,4
256,192,53554,1,8
256,192,53764,1,0
256,192,53974,1,8
256,192,54184,1,8
256,192,54289,1,8
256,192,54393,1,8
256,192,54498,1,8
256,192,54603,1,0
256,192,54813,1,0
256,192,54918,1,0
256,192,55023,1,8
256,192,55233,1,8
256,192,55442,1,0
256,192,55652,1,0
256,192,55862,1,8
256,192,56177,1,8
256,192,56282,1,0
256,192,56491,1,8
256,192,56911,1,0
256,192,57121,1,8
256,192,57330,1,8
256,192,57540,1,0
256,192,57750,1,8
256,192,57960,1,8
256,192,58170,1,0
256,192,58589,1,8
256,192,58799,1,0
256,192,59009,1,8
256,192,59219,1,0
256,192,59533,1,8
256,192,59638,1,0
256,192,59848,1,8
256,192,60268,1,0
256,192,60477,1,8
256,192,60687,1,8
256,192,60897,1,0
256,192,61107,1,8
256,192,61317,1,0
256,192,61736,1,4
256,192,61946,1,8
256,192,62156,1,0
256,192,62365,1,0
256,192,62470,1,8
256,192,62680,1,8
256,192,62785,1,0
256,192,62995,1,8
256,192,63205,1,0
256,192,63624,1,0
256,192,63834,1,8
256,192,64044,1,8
256,192,64463,1,0
256,192,64673,1,8
256,192,64883,1,4
256,192,65303,1,0
256,192,65512,1,8
256,192,65932,1,0
256,192,66351,1,8
256,192,66771,2,12,B|256:352,1,140,8|12
256,192,67610,1,4
256,192,68449,1,12
256,192,68659,1,0
256,192,68869,1,8
256,192,69079,1,0
256,192,69184,1,0
256,192,69289,1,8
256,192,69498,1,0
256,192,69708,1,8
256,192,69918,1,8
256,192,70023,1,8
256,192,70128,1,0
256,192,70337,1,0
256,192,70547,1,8
256,192,70757,1,0
256,192,70862,1,0
256,192,70967,1,8
256,192,71177,1,8
256,192,71386,1,0
256,192,71596,1,8
256,192,71701,1,0
256,192,71806,1,8
256,192,72016,1,0
256,192,72226,1,8
256,192,72435,1,0
256,192,72540,1,8
256,192,72645,1,8
256,192,72855,1,0
256,192,73065,1,8
256,192,73275,1,0
256,192,73379,1,0
256,192,73484,1,8
256,192,73694,1,0
256,192,73904,1,0
256,192,74114,1,8
256,192,74219,1,0
256,192,74323,1,0
256,192,74533,1,0
256,192,74743,1,8
256,192,74953,1,0
256,192,75058,1,0
256,192,75163,1,8
256,192,75372,1,0
256,192,75582,1,8
256,192,75792,1,0
256,192,76212,1,0
256,192,76421,1,8
256,192,76631,1,8
256,192,76736,1,0
256,192,76841,1,0
256,192,77051,1,0
256,192,77261,1,8
256,192,77470,1,0
256,192,77890,1,0
256,192,78100,1,8
256,192,78310,1,0
256,192,78414,1,8
256,192,78519,1,8
256,192,78729,1,8
256,192,78939,1,0
256,192,79149,1,8
256,192,79254,1,0
256,192,79358,1,0
256,192,79568,1,8
256,192,79778,1,0
256,192,79988,1,0
256,192,80093,1,0
256,192,80198,1,8
256,192,80407,1,0
256,192,80617,1,8
256,192,80722,1,8
256,192,80827,1,0
256,192,81247,1,4
256,192,81456,1,12
256,192,81666,1,12
256,192,81876,1,4
256,192,82086,1,0
256,192,82296,5,8
256,192,82505,1,8
256,192,82610,1,8
256,192,82715,5,0
256,192,82925,1,0
256,192,83135,1,0
256,192,83240,1,0
256,192,83344,5,8
256,192,83554,5,0
256,192,83764,1,0
256,192,83974,5,8
256,192,84184,1,8
256,192,84289,1,8
256,192,84393,5,0
256,192,84603,1,0
256,192,84708,1,0
256,192,84813,5,8
256,192,85023,1,8
256,192,85233,5,0
256,192,85442,1,0
256,192,85652,5,8
256,192,85862,5,0
256,192,85967,5,8
256,192,86072,1,8
256,192,86282,1,8
256,192,86491,5,0
256,192,86596,1,0
256,192,86701,1,0
256,192,86911,1,0
256,192,87121,5,8
256,192,87330,5,0
256,192,87435,1,0
256,192,87540,5,8
256,192,87750,5,0
256,192,87855,1,0
256,192,87960,5,8
256,192,88065,1,8
256,192,88170,5,0
256,192,88379,1,0
256,192,88589,1,0
256,192,88799,5,8
256,192,89009,5,0
256,192,89114,1,0
256,192,89219,5,8
256,192,89428,5,0
256,192,89638,5,8
256,192,89848,1,8
256,192,90058,5,0
256,192,90268,1,0
256,192,90372,1,0
256,192,90477,5,8
256,192,90582,1,8
256,192,90687,1,8
256,192,90897,1,8
256,192,91002,1,8
256,192,91107,5,0
256,192,91317,1,0
256,192,91526,5,8
256,192,91736,5,4
256,192,92156,1,0
256,192,92365,5,8
256,192,92575,5,0
256,192,92680,1,0
256,192,92785,5,8
256,192,92995,1,8
256,192,93205,5,0
256,192,93414,5,14
256,192,93834,1,8
256,192,94044,5,0
256,192,94254,5,8
256,192,94358,1,8
256,192,94463,5,0
256,192,94673,1,0
256,192,94883,1,0
256,192,95093,5,14
256,192,95512,5,0
256,192,95722,5,8
256,192,95932,5,0
256,192,96037,5,8
256,192,96142,1,8
256,192,96351,1,8
256,192,96561,5,0
256,192,96771,5,8
256,192,97191,5,0
256,192,97400,1,4
256,192,97820,5,8
256,192,98240,1,8
256,192,98344,1,8
256,192,98449,1,8
256,192,98554,1,8
256,192,98659,5,0
256,192,98869,1,0
256,192,98974,1,0
256,192,99079,5,8
256,192,99498,1,8
256,192,99918,5,0
256,192,100128,5,8
256,192,100337,5,0
256,192,100547,1,0
256,192,100652,1,0
256,192,100757,5,8
256,192,100967,5,0
256,192,101177,5,8
256,192,101386,5,0
256,192,101596,1,0
256,192,102016,1,0
256,192,102226,1,0
256,192,102330,1,0
256,192,102435,5,8
256,192,102855,1,8
256,192,103065,5,0
256,192,103275,1,0
256,192,103484,5,8
256,192,103694,5,0
256,192,103904,5,8
256,192,104009,1,8
256,192,104114,5,0
256,192,104323,1,0
256,192,104533,5,8
256,192,104743,1,8
256,192,104953,5,0
256,192,105163,5,8
256,192,105268,1,8
256,192,105372,5,0
256,192,105582,1,0
256,192,105687,1,0
256,192,105792,5,8
256,192,106212,5,0
256,192,106421,5,8
256,192,106631,5,0
256,192,106841,1,0
256,192,107051,1,0
256,192,107261,1,0
256,192,107365,1,0
256,192,107470,5,8
256,192,107680,5,0
256,192,107890,1,0
256,192,108100,5,8
256,192,108310,5,0
256,192,108729,1,0
256,192,108939,1,0
256,192,109044,1,0
256,192,109149,5,8
256,192,109568,1,8
256,192,109778,5,0
256,192,109988,1,0
256,192,110198,5,8
256,192,110407,5,0
256,192,110617,5,8
256,192,110722,1,8
256,192,110827,5,0
256,192,111037,1,0
256,192,111247,1,0
256,192,111351,1,0
256,192,111456,5,8
256,192,111561,1,8
256,192,111666,1,8
256,192,111876,1,8
256,192,111981,1,8
256,192,112086,5,0
256,192,112505,5,8
256,192,112715,5,0
256,192,112925,1,0
256,192,113135,5,8
256,192,113344,5,0
256,192,113554,1,0
256,192,113659,1,0
256,192,113764,1,0
256,192,113974,5,8
256,192,114184,5,0
256,192,114603,1,0
256,192,114813,1,0
256,192,115023,5,8
256,192,115233,5,0
256,192,115442,5,8
256,192,115862,1,8
256,192,116072,5,0
256,192,116282,1,0
256,192,116491,5,8
256,192,116701,5,0
256,192,116806,1,0
256,192,116911,5,8
256,192,117121,5,0
256,192,117330,5,8
256,192,117540,1,8
256,192,117750,5,0
256,192,117960,1,0
256,192,118379,5,8
256,192,118589,5,0
256,192,118799,1,0
256,192,119219,5,8
256,192,119428,5,0
256,192,119848,1,0
256,192,119953,1,0
256,192,120058,5,8
256,192,120268,5,0
256,192,120477,1,0
256,192,120687,5,8
256,192,120792,1,8
256,192,120897,5,0
256,192,121107,5,8
256,192,121526,1,8
256,192,121736,1,8
256,192,121946,5,0
256,192,122365,1,0
256,192,122575,5,8
256,192,122995,5,0
256,192,123414,5,8
256,192,123624,5,0
256,192,123834,1,0
256,192,124044,5,8
256,192,124149,1,8
256,192,124254,5,0
256,192,124463,5,8
256,192,124673,5,0
256,192,124883,5,8
256,192,125093,5,0
256,192,125303,5,8
256,192,125512,5,0
256,192,125722,1,0
256,192,125827,1,0
256,192,125932,5,8
256,192,126142,5,0
256,192,126351,5,8
256,192,126561,5,0
256,192,126771,1,0
256,192,127191,1,0
256,192,127400,1,0
256,192,127505,1,0
256,192,127610,1,0
256,192,127820,5,8
256,192,127925,5,0
256,192,128030,1,0
256,192,128240,5,8
256,192,128449,5,0
256,192,128869,1,0
256,192,129079,5,8
256,192,129184,1,8
256,192,129289,1,8
256,192,129498,5,0
256,192,129708,5,8
256,192,129918,5,0
256,192,130128,1,0
256,192,130337,5,8
256,192,130547,1,8
256,192,130757,5,0
256,192,130862,1,0
256,192,130967,5,8
256,192,131177,1,8
256,192,131282,5,0
256,192,131386,1,0
256,192,131596,5,8
256,192,131806,1,8
256,192,132016,1,8
256,192,132121,1,8
256,192,132226,5,0
256,192,132645,5,8
256,192,132855,5,0
256,192,133065,1,0
256,192,133275,5,8
256,192,133484,1,8
256,192,133694,5,0
256,192,133904,1,0
256,192,134114,5,8
256,192,134323,5,0
256,192,134533,5,8
256,192,134638,5,0
256,192,134743,1,0
256,192,134953,5,8
256,192,135163,5,0
256,192,135582,1,0
256,192,135792,1,0
256,192,135897,1,0
256,192,136002,5,8
256,192,136212,5,0
256,192,136421,1,0
256,192,136631,5,8
256,192,136841,5,0
256,192,137051,5,8
256,192,137156,1,8
256,192,137261,5,0
256,192,137470,5,8
256,192,137680,1,8
256,192,137890,5,0
256,192,137995,1,0
256,192,138100,5,8
256,192,138310,1,8
256,192,138519,5,0
256,192,138729,1,0
256,192,138834,1,0
256,192,138939,1,0
256,192,139358,5,8
256,192,139568,5,0
256,192,139778,1,0
256,192,139988,5,8
256,192,140198,5,0
256,192,140303,1,0
256,192,140407,5,8
256,192,140617,5,0
256,192,140827,5,8
256,192,141037,1,14
256,192,141247,5,0
256,192,141666,1,0
256,192,141876,5,8
256,192,142086,1,8
256,192,142296,5,0
256,192,142505,1,0
256,192,142610,1,0
256,192,142715,5,8
256,192,142925,5,0
256,192,143344,1,0
256,192,143554,5,8
256,192,143764,5,4
256,192,144184,1,0
256,192,144393,5,8
256,192,144603,5,0
256,192,144813,5,0
256,192,144918,5,8
256,192,145023,1,8
256,192,145128,1,8
256,192,145233,1,8
256,192,145442,5,0
256,192,145652,1,4
256,192,145862,5,8
256,192,146072,1,0
256,192,146282,1,0
256,192,146386,1,0
256,192,146491,1,8
256,192,146806,1,0
256,192,146911,1,8
256,192,147121,1,0
256,192,147540,1,0
256,192,147750,1,8
256,192,147960,1,8
256,192,148065,1,8
256,192,148170,1,0
256,192,148379,1,8
256,192,148589,1,8
256,192,148799,1,0
256,192,149219,1,0
256,192,149428,1,8
256,192,149638,1,0
256,192,149743,1,0
256,192,149848,1,8
256,192,150268,1,8
256,192,150477,1,0
256,192,150897,1,0
256,192,151107,1,8
256,192,151317,1,0
256,192,151526,1,0
256,192,151631,1,0
256,192,151736,1,8
256,192,151946,1,0
256,192,152365,1,4
256,192,152575,1,0
256,192,152785,1,8
256,192,152890,1,0
256,192,152995,1,0
256,192,153100,1,8
256,192,153205,1,0
256,192,153414,1,0
256,192,153624,1,8
256,192,153834,1,0
256,192,154254,1,8
256,192,154463,1,0
256,192,154673,1,8
256,192,155093,1,0
256,192,155303,1,8
256,192,155512,1,4
256,192,155932,1,0
256,192,156142,1,8
256,192,156561,1,0
256,192,156981,1,8
256,192,157400,2,4,B|256:32,1,140,0|4
256,192,158240,1,4
256,192,159079,1,12
256,192,159289,1,0
256,192,159499,1,8
256,192,159709,1,0
256,192,159814,1,0
256,192,159919,1,8
256,192,160128,1,0
256,192,160338,1,8
256,192,160548,1,8
256,192,160653,1,8
256,192,160758,1,0
256,192,160967,1,0
256,192,161177,1,8
256,192,161387,1,0
256,192,161492,1,0
256,192,161597,1,8
256,192,161807,1,8
256,192,162016,1,0
256,192,162226,1,8
256,192,162331,1,0
256,192,162436,1,8
256,192,162646,1,0
256,192,162856,1,8
256,192,163065,1,0
256,192,163170,1,8
256,192,163275,1,8
256,192,163485,1,0
256,192,163695,1,8
256,192,163905,1,0
256,192,164009,1,0
256,192,164114,1,8
256,192,164324,1,0
256,192,164534,1,0
256,192,164744,1,8
256,192,164848,1,8
256,192,164953,1,0
256,192,165162,1,0
256,192,165372,1,8
256,192,165582,1,0
256,192,165687,1,0
256,192,165792,1,8
256,192,166001,1,0
256,192,166211,1,8
256,192,166421,1,0
256,192,166841,1,0
256,192,167050,1,8
256,192,167260,1,8
256,192,167365,1,0
256,192,167470,1,0
256,192,167680,1,0
256,192,167890,1,8
256,192,168099,1,0
256,192,168519,1,0
256,192,168729,1,8
256,192,168939,1,0
256,192,169043,1,8
256,192,169148,1,8
256,192,169358,1,8
256,192,169568,1,0
256,192,169778,1,8
256,192,169883,1,0
256,192,169987,1,0
256,192,170197,1,8
256,192,170407,1,0
256,192,170617,1,0
256,192,170722,1,0
256,192,170827,1,8
256,192,171036,1,0
256,192,171246,1,8
256,192,171351,1,8
256,192,171456,1,0
256,192,171876,1,4
256,192,172085,1,12
256,192,172295,1,12
256,192,172505,1,4
256,192,172715,1,0
256,192,172925,1,8
256,192,173135,1,0
256,192,173240,1,0
256,192,173344,1,0
256,192,173554,1,0
256,192,173764,1,8
256,192,173974,1,8
256,192,174079,1,8
256,192,174184,1,0
256,192,174393,1,0
256,192,174603,1,8
256,192,174813,1,0
256,192,174918,1,0
256,192,175023,1,0
256,192,175128,1,8
256,192,175233,1,0
256,192,175442,1,0
256,192,175652,1,0
256,192,175757,1,0
256,192,175862,1,8
256,192,176072,1,0
256,192,176282,1,8
256,192,176491,1,8
256,192,176596,1,8
256,192,176701,1,0
256,192,176911,1,0
256,192,177121,1,0
256,192,177330,1,8
256,192,177435,1,8
256,192,177540,1,8
256,192,177750,1,0
256,192,177960,1,8
256,192,178170,1,0
256,192,178589,1,0
256,192,178799,1,8
256,192,179009,1,0
256,192,179219,1,4
256,192,179428,1,0
256,192,179533,1,0
256,192,179638,1,8
256,192,179848,1,0
256,192,180268,1,0
256,192,180477,1,8
256,192,180687,1,0
256,192,180792,1,0
256,192,180897,1,8
256,192,181107,1,0
256,192,181317,1,8
256,192,181526,1,0
256,192,181736,1,8
256,192,181841,1,0
256,192,181946,1,0
256,192,182156,1,8
256,192,182365,1,0
256,192,182785,1,8
256,192,182995,1,8
256,192,183100,1,0
256,192,183310,1,0
256,192,183414,1,8
256,192,183624,1,8
256,192,183834,1,0
256,192,184044,1,8
256,192,184463,1,0
256,192,184673,1,0
256,192,184778,1,8
256,192,184988,1,8
256,192,185093,1,0
256,192,185303,1,8
256,192,185512,1,0
256,192,185722,1,8
256,192,186142,1,8
256,192,186351,1,8
256,192,186666,1,8
256,192,186771,1,0
256,192,186981,1,0
256,192,187191,1,8
256,192,187400,1,4
256,192,187820,1,12
256,192,188030,1,4
256,192,188449,1,0
256,192,188869,1,8
256,192,188974,1,8
256,192,189079,1,8
256,192,189184,1,8
256,192,189289,1,0
256,192,189603,1,8
256,192,189708,1,0
256,192,189918,1,0
256,192,190128,1,8
256,192,190337,1,8
256,192,190547,1,0
256,192,190967,1,0
256,192,191282,1,8
256,192,191386,1,0
256,192,191596,1,8
256,192,191806,1,0
256,192,192016,1,8
256,192,192226,1,0
256,192,192645,1,0
256,192,192960,1,8
256,192,193065,1,0
256,192,193275,1,0
256,192,193484,1,8
256,192,193694,1,8
256,192,193904,1,0
256,192,194114,1,8
256,192,194323,1,8
256,192,194533,1,0
256,192,194638,1,0
256,192,194743,1,8
256,192,194848,1,8
256,192,194953,1,0
256,192,195058,1,0
256,192,195163,1,8
256,192,195372,1,0
256,192,195477,1,8
256,192,195582,1,8
256,192,195792,1,8
256,192,195897,1,8
256,192,196002,1,0
256,192,196317,5,0
256,192,196421,5,8
256,192,196631,5,0
256,192,196841,5,8
256,192,197261,5,0
256,192,197470,5,8
256,192,197680,5,0
256,192,197890,5,8
256,192,197995,1,8
256,192,198100,1,8
256,192,198310,5,0
256,192,198729,5,8
256,192,198939,1,8
256,192,199044,1,8
256,192,199149,5,0
256,192,199358,1,0
256,192,199673,1,0
256,192,199778,5,8
256,192,199988,5,0
256,192,200198,5,8
256,192,200407,5,0
256,192,200512,1,0
256,192,200617,1,0
256,192,200827,5,14
256,192,201247,5,0
256,192,201456,1,0
256,192,201561,5,8
256,192,201666,5,0
256,192,201876,1,0
256,192,201981,1,0
256,192,202086,5,8
256,192,202296,5,0
256,192,202715,1,4
256,192,203030,1,0
256,192,203135,5,8
288,256,203344,5,0
256,192,203554,5,8
256,192,203974,5,0
256,192,204184,5,8
256,192,204393,5,0
256,192,204603,5,8
256,192,204708,1,8
256,192,204813,1,8
256,192,205023,5,0
256,192,205233,1,0
256,192,205442,5,8
256,192,205547,5,0
256,192,205652,5,8
256,192,205862,1,8
256,192,206072,12,0,207540
256,192,207750,5,0
256,192,207960,5,8
256,192,208170,5,0
256,192,208379,5,8
256,192,208589,1,14
256,192,209009,1,8
256,192,209219,1,8
256,192,209428,5,0
256,192,209638,1,0
256,192,209743,1,0
256,192,209848,5,8
256,192,210058,1,8
256,192,210268,5,0
256,192,210372,1,0
256,192,210477,1,0
256,192,210687,5,8
256,192,210897,1,8
256,192,211107,5,0
256,192,211317,1,0
256,192,211421,1,0
256,192,211526,5,8
256,192,211736,1,8
256,192,211946,5,0
256,192,212051,1,0
256,192,212156,5,8
256,192,212261,5,0
256,192,212365,5,8
256,192,212575,1,8
256,192,212785,5,0
256,192,212995,5,8
256,192,213100,5,0
256,192,213205,5,8
256,192,213414,1,8
256,192,213624,1,8
256,192,213834,5,0
256,192,214044,1,0
256,192,214254,5,8
256,192,214463,5,0
256,192,214673,5,8
256,192,214778,5,0
256,192,214883,1,0
256,192,215093,5,8
256,192,215303,5,0
256,192,215407,1,0
256,192,215512,5,8
256,192,215722,5,0
256,192,215932,1,0
256,192,216142,1,0
256,192,216351,1,0
256,192,216456,1,0
256,192,216561,5,8
256,192,216771,1,8
256,192,216876,1,8
256,192,216981,5,0
256,192,217191,1,0
256,192,217400,5,8
256,192,217610,5,0
256,192,217715,1,0
256,192,217820,5,8
256,192,218030,5,0
256,192,218240,5,8
256,192,218449,1,8
256,192,218554,1,8
256,192,218659,5,0
256,192,218764,1,0
256,192,218869,1,0
256,192,219079,1,0
256,192,219289,5,8
256,192,219498,5,0
256,192,219708,5,8
256,192,219918,5,0
256,192,220128,5,8
256,192,220233,1,8
256,192,220337,5,0
256,192,220547,1,0
256,192,220757,1,0
256,192,220862,1,0
256,192,220967,5,8
256,192,221177,5,0
256,192,221386,5,8
256,192,221491,1,8
256,192,221596,1,8
256,192,221701,1,8
256,192,221806,1,8
256,192,222226,5,0
256,192,222435,5,8
256,192,222645,1,8
256,192,222750,1,8
256,192,222855,5,0
256,192,223065,1,0
256,192,223275,5,8
256,192,223484,1,8
256,192,223589,1,8
256,192,223694,5,0
256,192,223904,1,0
256,192,224114,5,8
256,192,224323,1,8
256,192,224428,1,8
256,192,224533,5,0
256,192,224743,1,0
256,192,224848,1,0
256,192,224953,5,8
256,192,225163,5,0
256,192,225268,1,0
256,192,225372,1,0
256,192,225582,1,0
256,192,225792,5,8
256,192,226002,1,8
256,192,226107,1,8
256,192,226212,5,0
256,192,226421,1,0
256,192,226631,5,8
256,192,226841,1,8
256,192,226946,1,8
256,192,227051,5,0
256,192,227261,1,0
256,192,227470,5,8
256,192,227680,5,0
256,192,227785,5,8
256,192,227890,5,0
256,192,228100,1,0
256,192,228205,1,0
256,192,228310,5,8
256,192,228519,1,8
256,192,228729,5,0
256,192,228834,1,0
256,192,228939,1,0
256,192,229149,5,8
256,192,229358,5,0
256,192,229568,1,4
256,192,229778,1,0
256,192,229988,5,8
256,192,230198,1,8
256,192,230407,5,0
256,192,230512,1,0
256,192,230617,1,0
256,192,230827,5,8
256,192,231037,1,8
256,192,231247,5,0
256,192,231456,1,0
256,192,231666,5,8
256,192,231876,1,8
256,192,231981,1,8
256,192,232086,5,0
256,192,232296,1,0
256,192,232505,5,8
256,192,232715,5,4
256,192,233135,1,0
256,192,233344,5,8
256,192,233659,5,0
256,192,233764,5,8
256,192,233974,1,8
256,192,234184,5,0
256,192,234393,5,14
256,192,234813,5,0
256,192,235023,5,8
256,192,235337,5,0
256,192,235442,5,8
256,192,235652,5,0
256,192,235862,1,0
256,192,236072,5,14
192,64,236491,5,0
256,192,236701,5,8
256,192,237016,5,0
256,192,237121,5,8
256,192,237330,1,8
256,192,237540,5,0
256,192,237750,5,8
256,192,238170,5,0
256,192,238379,1,4
256,192,238799,5,8
256,192,239219,1,8
256,192,239323,1,8
256,192,239428,1,8
256,192,239533,1,8
256,192,239638,5,0
256,192,240058,1,0
256,192,240477,1,0
256,192,240897,1,0
256,192,241317,1,0
256,192,241736,1,0
256,192,241946,5,8
256,192,242051,1,8
256,192,242156,5,0
256,192,242365,1,0
256,192,242575,5,8
256,192,242680,5,0
256,192,242785,1,0
256,192,242890,1,0
256,192,242995,1,0
256,192,243205,1,0
256,192,243414,5,8
256,192,243729,5,0
256,192,243834,5,8
256,192,244254,5,0
256,192,244463,1,0
256,192,244568,1,0
256,192,244673,5,8
256,192,244883,1,8
256,192,245093,5,0
256,192,245303,1,0
256,192,245407,1,0
256,192,245512,1,0
256,192,245722,5,8
256,192,245932,5,0
256,192,246351,1,0
256,192,246561,1,0
256,192,246771,5,8
256,192,247086,5,0
256,192,247191,5,8
256,192,247610,5,0
256,192,247820,1,0
256,192,247925,1,0
256,192,248030,5,8
256,192,248240,5,0
256,192,248449,5,8
256,192,248659,5,0
256,192,248764,1,0
256,192,248869,1,0
256,192,249079,1,0
256,192,249289,5,8
256,192,249498,1,8
256,192,249603,1,8
256,192,249708,5,0
256,192,249918,1,0
256,192,250023,1,0
256,192,250128,5,8
256,192,250337,5,0
256,192,250442,1,0
256,192,250547,5,8
256,192,250967,5,0
256,192,251177,1,0
256,192,251282,1,0
256,192,251386,5,8
256,192,251596,1,8
256,192,251701,1,8
256,192,251806,5,0
256,192,252016,1,0
256,192,252226,1,0
256,192,252330,5,8
256,192,252435,5,0
256,192,252645,5,8
256,192,252855,5,0
256,192,253065,1,0
256,192,253275,1,0
256,192,253379,1,0
256,192,253484,5,8
256,192,253799,5,0
256,192,253904,5,8
256,192,254114,5,0
256,192,254323,1,0
256,192,254533,1,0
256,192,254743,5,8
256,192,254953,5,0
256,192,255058,1,0
256,192,255163,5,8
256,192,255372,1,0
