osu file format v9

[General]
AudioFilename: Suisai Candy.mp3
AudioLeadIn: 1000
PreviewTime: 68030
Countdown: 0
SampleSet: Soft
StackLeniency: 0.5
Mode: 0
LetterboxInBreaks: 0

[Editor]
DistanceSpacing: 0.7
BeatDivisor: 4
GridSize: 4

[Metadata]
Title:Suisai Candy
Artist:marble
Creator:No_Gu
Version:Normal
Source:Mashiro Iro Symphony - The color of lovers -
Tags:Nymph ending Netsukawa Naryuga collab karenying

[Difficulty]
HPDrainRate:4
CircleSize:4
OverallDifficulty:4
ApproachRate:5
SliderMultiplier:1.28
SliderTickRate:1

[Events]
//Background and Video events
0,0,"N.jpg"
//Break Periods
2,8030,19837
2,100537,110886
2,191167,208228
2,241517,248508
//Storyboard Layer 0 (Background)
Sprite,Background,Centre,"SB\white.jpg",320,240 F,0,58,1317,0,1 F,0,1317,21037,1
Sprite,Background,Centre,"SB\Ring.png",320,253 M,0,1317,,320,253 F,0,1317,2995,1,0 S,0,1317,2995,0.3679997,0.5759996 C,0,1317,2995,166,219,242
Sprite,Background,Centre,"SB\Ring.png",320,253 M,0,4673,,320,253 F,0,4673,6351,1,0 S,0,4673,6351,0.3679997,0.5759996 C,0,4673,6351,189,137,255
Sprite,Background,Centre,"SB\1.png",516,436 F,0,7820,8030,0,1 S,0,8030,,0.7039999 F,0,8030,8240,1,0 F,0,8240,8449,0,1 F,0,8449,8659,1,0 F,0,8659,8869,0,1 F,0,8869,9079,1,0
Sprite,Background,Centre,"SB\2.png",516,436 F,0,11177,11386,0,1 S,0,11386,,0.7039999 F,0,11386,11596,1,0 F,0,11596,11806,0,1 F,0,11806,12016,1,0 F,0,12016,12226,0,1 F,0,12226,12435,1,0
Sprite,Background,Centre,"SB\3.png",516,436 F,0,14533,14743,0,1 S,0,14743,,0.7039999 F,0,14743,14953,1,0 F,0,14953,15163,0,1 F,0,15163,15372,1,0 F,0,15372,15582,0,1 F,0,15582,15792,1,0
Sprite,Background,Centre,"SB\4.png",516,436 F,0,17890,18100,0,1 S,0,18100,,0.7039999 F,0,18100,18310,1,0 F,0,18310,18519,0,1 F,0,18519,18729,1,0 F,0,18729,18939,0,1 F,0,18939,19149,1,0
Sprite,Background,Centre,"SB\BG1.jpg",320,240 F,0,21456,21561,0,1 M,0,21456,41177,400,240,244,240 M,0,41177,41596,244,240,241,240
Sprite,Background,Centre,"SB\airi.png",320,240 M,0,21456,,217,240 F,0,21456,21561,0,1 F,0,21561,41596,1
Sprite,Background,Centre,"SB\BG2.jpg",320,240 M,0,41596,61107,400,240,283,240 F,0,41596,68449,1 M,0,61107,67610,283,240,244,240
Sprite,Background,Centre,"SB\sakuno.png",555,239 M,0,41596,,448,239 F,0,41596,,1 F,0,67610,,1
Sprite,Background,Centre,"SB\BG3.jpg",320,240 F,0,112086,112191,0,1 M,0,112086,132226,400,240,240,239
Sprite,Background,Centre,"SB\miu.png",320,240 M,0,112086,,189,240 F,0,112086,112191,0,1 F,0,129154,132226,1
Sprite,Background,Centre,"SB\BG4.jpg",320,240 M,0,132226,158240,239,240,394,240 F,0,132226,158240,1
Sprite,Background,Centre,"SB\angelina.png",320,240 M,0,132226,,418,240 F,0,132226,158240,1
Sprite,Background,Centre,"SB\SB2.jpg",320,240 F,0,68449,,1 M,0,68449,81876,398,299,281,212 S,0,68449,81876,1,0.8976 R,0,81876,,0
Sprite,Background,Centre,"SB\SB1.jpg",320,240 M,0,81666,81876,658,657,327,241 F,0,81876,,1 S,0,81876,,1 S,0,81876,98659,1,0.8873603 R,0,81876,98659,0,0.08191986 F,0,98240,98659,1,0
Sprite,Background,Centre,"SB\SB3.jpg",320,240 F,0,159079,,1 M,0,159079,172505,382,202,292,262 S,0,159079,172505,1,0.92832 R,0,159079,172505,0,-0.06143982
Sprite,Background,Centre,"SB\SB4.jpg",320,240 M,0,172296,172505,-221,-110,281,228 M,0,172505,189289,281,228,331,232 S,0,172505,189289,1,0.83616 F,0,188869,189289,1,0
Sprite,Background,Centre,"SB\SB5.png",320,240 F,0,209428,,1 S,0,209428,222855,1,0.8156799 R,0,209428,222855,0.14336,3.576279E-09
Sprite,Background,Centre,"SB\cat.jpg",320,240 F,0,235442,239638,1
Animation,Background,Centre,"SB\neko\cat.jpg",320,240,11,105,LoopForever M,0,235547,,241,335 F,0,235547,239638,1
//Storyboard Layer 1 (Fail)
//Storyboard Layer 2 (Pass)
//Storyboard Layer 3 (Foreground)
Sprite,Foreground,Centre,"SB\Lyric\01.png",320,240 F,0,21247,21456,0,1 M,0,21247,33624,244,389,339,389 F,0,21456,32995,1,0.94271 F,0,32995,33624,0.94271,0
Sprite,Foreground,Centre,"SB\Lyric\02.png",320,240 F,0,27960,28170,0,1 M,0,27960,33624,371,435,280,435 F,0,28170,32995,1 F,0,32995,33624,1,0
Sprite,Foreground,Centre,"SB\Lyric\03.png",320,240 F,0,41386,41596,0,1 M,0,41386,53974,373,396,255,396 F,0,41596,53135,1 F,0,53135,53974,1,0
Sprite,Foreground,Centre,"SB\Lyric\04.png",320,240 F,0,48100,48310,0,1 M,0,48100,53974,316,439,350,439 F,0,48310,53135,1 F,0,53135,53974,1,0
Sprite,Foreground,Centre,"SB\Lyric\05.png",320,240 F,0,54393,54603,0,1 M,0,54393,60268,256,394,339,394 F,0,54603,59848,1 F,0,59848,60268,1,0 F,0,60268,,0
Sprite,Foreground,Centre,"SB\Lyric\06.png",320,240 F,0,57750,57960,0,1 M,0,57750,60268,328,440,280,440 F,0,57960,59848,1 F,0,59848,60268,1,0
Sprite,Foreground,Centre,"SB\Lyric\07.png",320,240 F,0,61107,61317,0,1 M,0,61107,67610,339,394,256,394 F,0,61317,66771,1 F,0,66771,67610,1,0
Sprite,Foreground,Centre,"SB\Lyric\08.png",320,240 F,0,62785,62995,0,1 M,0,62785,67610,280,440,328,440 F,0,62995,66771,1 F,0,66771,67610,1,0
Sprite,Foreground,Centre,"SB\Lyric\11.png",320,240 F,0,111876,112086,0,1 M,0,111876,124673,230,389,354,389 F,0,112086,123624,1 F,0,123624,124673,1,0
Sprite,Foreground,Centre,"SB\Lyric\12.png",320,240 F,0,118589,118799,0,1 M,0,118589,124673,371,435,310,435 F,0,118799,123624,1 F,0,123624,124673,1,0
Sprite,Foreground,Centre,"SB\Lyric\13.png",320,240 F,0,132016,132226,0,1 M,0,132016,144393,373,396,267,396 F,0,132226,143764,1 F,0,143764,144393,1,0
Sprite,Foreground,Centre,"SB\Lyric\14.png",320,240 F,0,138729,138939,0,1 M,0,138729,144393,316,439,350,439 F,0,138939,143764,1 F,0,143764,144393,1,0
Sprite,Foreground,Centre,"SB\Lyric\15.png",320,240 F,0,145023,145233,0,1 M,0,145023,151107,256,394,339,394 F,0,145233,150477,1 F,0,150477,151107,1,0
Sprite,Foreground,Centre,"SB\Lyric\16.png",320,240 F,0,148379,148589,0,1 M,0,148379,151107,328,440,296,440 F,0,148589,150477,1 F,0,150477,151107,1,0
Sprite,Foreground,Centre,"SB\Lyric\17.png",320,240 F,0,151736,151946,0,1 M,0,151736,158240,339,394,256,394 F,0,151946,157400,1 F,0,157400,158240,1,0
Sprite,Foreground,Centre,"SB\Lyric\18.png",320,240 F,0,153414,153624,0,1 M,0,153414,158240,280,440,328,440 F,0,153624,157400,1 F,0,157400,158240,1,0
Sprite,Foreground,Centre,"SB\white.jpg",320,240 F,0,132226,132330,0.4520001,0
Sprite,Foreground,Centre,"SB\white.jpg",320,240 F,0,21037,21351,1,0 F,0,21351,21456,0,0.58
Sprite,Foreground,Centre,"SB\face\a1.jpg",320,240 F,0,222855,224114,1
Sprite,Foreground,Centre,"SB\face\a2.jpg",320,240 F,0,224114,224219,1
Sprite,Foreground,Centre,"SB\face\a3.jpg",320,240 F,0,224219,224323,1
Sprite,Foreground,Centre,"SB\face\a4.jpg",320,240 F,0,224323,224428,1
Sprite,Foreground,Centre,"SB\face\a5.jpg",320,240 F,0,224428,225372,1
Sprite,Foreground,Centre,"SB\face\s1.jpg",320,240 F,0,225372,226631,1
Sprite,Foreground,Centre,"SB\face\s2.jpg",320,240 F,0,226631,226736,1
Sprite,Foreground,Centre,"SB\face\s3.jpg",320,240 F,0,226736,226841,1
Sprite,Foreground,Centre,"SB\face\s4.jpg",320,240 F,0,226841,226946,1
Sprite,Foreground,Centre,"SB\face\s5.jpg",320,240 F,0,226946,227051,1
Sprite,Foreground,Centre,"SB\face\s1.jpg",320,240 F,0,227051,227890,1
Sprite,Foreground,Centre,"SB\face\a11.jpg",320,240 F,0,227890,229149,1
Sprite,Foreground,Centre,"SB\face\a22.jpg",320,240 F,0,229149,229254,1
Sprite,Foreground,Centre,"SB\face\a33.jpg",320,240 F,0,229254,229358,1
Sprite,Foreground,Centre,"SB\face\a44.jpg",320,240 F,0,229358,229463,1
Sprite,Foreground,Centre,"SB\face\a55.jpg",320,240 F,0,229463,230407,1
Sprite,Foreground,Centre,"SB\face\sn1.jpg",320,240 F,0,230407,231666,1
Sprite,Foreground,Centre,"SB\face\sn2.jpg",320,240 F,0,231666,231771,1
Sprite,Foreground,Centre,"SB\face\sn3.jpg",320,240 F,0,231771,231876,1
Sprite,Foreground,Centre,"SB\face\sn4.jpg",320,240 F,0,231876,231981,1
Sprite,Foreground,Centre,"SB\face\sn5.jpg",320,240 F,0,231981,232086,1 F,0,232086,232925,1
Sprite,Foreground,Centre,"SB\face\m1.jpg",320,240 F,0,232925,234184,1
Sprite,Foreground,Centre,"SB\face\m2.jpg",320,240 F,0,234184,234289,1
Sprite,Foreground,Centre,"SB\face\m3.jpg",320,240 F,0,234289,234393,1
Sprite,Foreground,Centre,"SB\face\m4.jpg",320,240 F,0,234393,234498,1
Sprite,Foreground,Centre,"SB\face\m5.jpg",320,240 F,0,234498,234603,1 F,0,234603,235442,1
Sprite,Foreground,Centre,"SB\Lyric\K1.png",320,240 F,0,68030,68449,0,1 M,0,68030,81247,384,394,275,394 F,0,68449,81037,1 F,0,81037,81247,1,0
Sprite,Foreground,Centre,"SB\Lyric\K2.png",320,240 F,0,74533,74953,0,1 M,0,74533,81247,262,437,324,437 F,0,74953,81037,1 F,0,81037,81247,1,0
Sprite,Foreground,Centre,"SB\Lyric\K3.png",320,240 F,0,81247,81666,0,1 M,0,81247,92156,384,394,275,394 F,0,81666,91736,1 F,0,91736,92156,1,0
Sprite,Foreground,Centre,"SB\Lyric\K4.png",320,240 F,0,87960,88170,0,1 M,0,87960,92156,262,437,324,437 F,0,88170,91736,1 F,0,91736,92156,1,0
Sprite,Foreground,Centre,"SB\Lyric\K5.png",320,240 F,0,91946,92365,0,1 M,0,91946,98659,384,394,275,394 F,0,92365,98240,1 F,0,98240,98659,1,0
Sprite,Foreground,Centre,"SB\Lyric\K6.png",320,240 F,0,93205,93414,0,1 M,0,93205,98659,262,437,324,437 F,0,93414,98240,1 F,0,98240,98659,1,0
Sprite,Foreground,Centre,"SB\Lyric\K7.png",320,240 F,0,158659,159079,0,1 M,0,158659,172086,384,394,275,394 F,0,159079,171666,1 F,0,171666,172086,1,0 M,0,172086,,320,240
Sprite,Foreground,Centre,"SB\Lyric\K8.png",320,240 F,0,164953,165163,0,1 M,0,164953,172086,262,437,324,437 F,0,165163,171666,1 F,0,171666,172086,1,0
Sprite,Foreground,Centre,"SB\Lyric\K9.png",320,240 F,0,172086,172505,0,1 M,0,172086,182785,384,394,275,394 F,0,172505,182365,1 F,0,182365,182785,1,0
Sprite,Foreground,Centre,"SB\Lyric\K10.png",320,240 F,0,178589,178799,0,1 M,0,178589,182785,262,437,324,437 F,0,178799,182365,1 F,0,182365,182785,1,0
Sprite,Foreground,Centre,"SB\Lyric\K5.png",320,240 F,0,182785,182995,0,1 M,0,182785,189289,384,394,275,394 F,0,182995,188869,1 F,0,188869,189289,1,0
Sprite,Foreground,Centre,"SB\Lyric\K12.png",320,240 F,0,183624,183834,0,1 M,0,183624,189289,262,437,324,437 F,0,183834,188869,1 F,0,188869,189289,1,0
Sprite,Foreground,Centre,"SB\Lyric\K1.png",320,240 F,0,209428,,1 M,0,209428,215303,253,355,342,351 F,0,214883,215303,1,0
Sprite,Foreground,Centre,"SB\Lyric\K2.png",320,240 F,0,215303,215722,0,1 M,0,215303,222435,393,400,287,400 F,0,222016,222435,1,0
Sprite,Foreground,Centre,"SB\Lyric\K3.png",320,240 S,0,222435,,0.8 F,0,222435,222855,0.006720126,1 M,0,222435,228729,272,445,379,446 F,0,222855,228310,1,0.9760765 F,0,228310,228729,0.9760765,0
Sprite,Foreground,Centre,"SB\Lyric\K4.png",320,240 S,0,228939,,0.7920001 F,0,228939,229358,0,1 M,0,228939,232925,349,397,275,400 F,0,232505,232925,1,0.05279968
Sprite,Foreground,Centre,"SB\Lyric\K5.png",320,240 S,0,233135,,0.7679999 F,0,233135,233554,0,1 M,0,233135,235862,303,446,362,448 F,0,233554,235442,1 F,0,235442,235862,1,0
Sprite,Foreground,Centre,"SB\Lyric\K6.png",320,240 S,0,234393,,0.752 F,0,234393,234813,0,1 M,0,234393,239638,322,406,187,409 F,0,239219,239638,1,0
Sprite,Foreground,Centre,"SB\white.jpg",320,240 F,0,242575,242995,0,1 F,0,242995,256421,1 F,0,256421,257261,1,0
Sprite,Foreground,Centre,"SB\2\green4.jpg",320,240 M,0,242995,,229,249 F,0,244044,244254,0.9619048,0
Sprite,Foreground,Centre,"SB\2\green2.jpg",320,240 M,0,244044,,378,99 F,0,244044,244254,0,1 F,0,245303,245512,1,0
Sprite,Foreground,Centre,"SB\2\white.jpg",320,240 M,0,242995,,527,107 F,0,244044,244254,1,0
Sprite,Foreground,Centre,"SB\2\yellow.jpg",320,240 M,0,244044,,84,387 F,0,244044,244254,0.08863998,1 F,0,245303,245512,1,0.1039999
Sprite,Foreground,Centre,"SB\2\red.jpg",320,240 M,0,245303,,80,95 F,0,245303,245512,0,1 F,0,246561,246771,1,0
Sprite,Foreground,Centre,"SB\2\..orz.jpg",320,240 M,0,247820,,81,388 F,0,247820,248030,0.12448,1 F,0,248030,,1 F,0,248030,,1 F,0,248030,249079,1 F,0,249079,249289,1,0
Sprite,Foreground,Centre,"SB\2\orange2.jpg",320,240 M,0,244044,,527,245 F,0,244044,244254,0,1 F,0,245303,245512,1,0
Sprite,Foreground,Centre,"SB\2\purple.jpg",320,240 M,0,242995,,377,386 F,0,244044,244254,1,0.07327988
Sprite,Foreground,Centre,"SB\2\blue.jpg",320,240 M,0,245303,,528,385 F,0,245303,245512,0,1 F,0,245512,246561,1,0.9808612 F,0,246561,246771,0.9808612,0
Sprite,Foreground,Centre,"SB\2\green.jpg",320,240 M,0,245303,,379,246 F,0,245303,245512,0,1 F,0,245512,246561,1 F,0,246561,246771,1,0
Sprite,Foreground,Centre,"SB\2\purple.jpg",320,240 M,0,246561,,81,249 F,0,246561,246771,0,1 F,0,247820,248030,1,0
Sprite,Foreground,Centre,"SB\2\orange.jpg",320,240 M,0,246561,,229,385 F,0,246561,246771,0.12448,1 F,0,247820,248030,1,0
Sprite,Foreground,Centre,"SB\2\yellow2.jpg",320,240 M,0,246561,,526,94 F,0,246561,246771,0,1 F,0,247820,248030,1,0
Sprite,Foreground,Centre,"SB\2\orange2.jpg",320,240 M,0,249079,,378,384 F,0,249079,249289,0,1 F,0,249603,249708,1,0
Sprite,Foreground,Centre,"SB\2\green4.jpg",320,240 M,0,247820,,379,237 F,0,247820,248030,0,1 F,0,249079,249289,1,0 F,0,249289,249708,0,0.01904762
Sprite,Foreground,Centre,"SB\2\green.jpg",320,240 M,0,249079,,528,97 F,0,249079,249289,0,1 F,0,249289,249603,1 F,0,249603,249708,1,0
Sprite,Foreground,Centre,"SB\2\blue2.jpg",320,240 M,0,247820,,228,99 F,0,247820,248030,0,1 F,0,249079,249289,1,0
Sprite,Foreground,Centre,"SB\2\pink.jpg",320,240 M,0,249079,,80,241 P,0,249079,,V F,0,249079,249289,0,1 F,0,249289,249603,1 F,0,249603,249708,1,0
Animation,Foreground,Centre,"SB\neko\neko-.png",320,240,10,111.8,LoopForever M,0,242995,,376,377 F,0,242995,,1 C,0,244044,244254,255,255,255,223,173,255 C,0,246561,246771,223,173,255,172,248,188 C,0,247820,248030,172,248,188,248,227,172 C,0,249079,249289,172,248,188,255,255,255 F,0,249708,,0
Animation,Foreground,Centre,"SB\neko\neko-.png",320,240,10,111.8,LoopForever M,0,242995,,376,95 F,0,242995,,1 C,0,244044,244254,172,248,188,172,204,248 C,0,246561,246771,172,204,248,131,255,248 C,0,247820,248030,131,255,248,241,153,157 C,0,249079,249289,241,153,157,255,164,115 F,0,249708,,0
Animation,Foreground,Centre,"SB\neko\neko-.png",320,240,10,111.8,LoopForever M,0,242995,,527,95 F,0,242995,,1 C,0,244044,244254,255,115,141,154,221,133 C,0,246561,246771,154,221,133,255,255,255 C,0,247820,248030,255,255,255,238,242,134 C,0,249079,249289,238,242,134,213,134,242 F,0,249708,,0
Animation,Foreground,Centre,"SB\neko\neko-.png",320,240,10,111.8,LoopForever M,0,242995,,229,95 F,0,242995,,1 C,0,244044,244254,112,239,231,239,112,223 C,0,245303,245512,239,112,223,239,237,112 C,0,246561,246771,239,237,112,127,239,112 C,0,247820,248030,127,239,112,149,202,125 C,0,249079,249289,149,202,125,241,153,157 F,0,249708,,0
Animation,Foreground,Centre,"SB\neko\neko-.png",320,240,10,111.8,LoopForever M,0,242995,,527,377 F,0,242995,,1 C,0,244044,244254,172,248,188,172,204,248 C,0,245303,245512,172,204,248,239,237,112 C,0,246561,246771,239,237,112,238,128,138 C,0,247820,248030,238,128,138,255,164,115 C,0,249079,249289,255,164,115,241,153,157 F,0,249708,,0
Animation,Foreground,Centre,"SB\neko\neko-.png",320,240,10,111.8,LoopForever M,0,242995,,230,377 F,0,242995,,1 C,0,244044,244254,248,227,172,154,221,133 C,0,245303,245512,154,221,133,248,227,172 C,0,246561,246771,248,227,172,255,255,255 C,0,247820,248030,255,255,255,239,237,112 C,0,249079,249289,239,237,112,213,134,242 F,0,249708,,0
Animation,Foreground,Centre,"SB\neko\neko-.png",320,240,10,111.8,LoopForever M,0,242995,,527,236 F,0,242995,,1 C,0,244044,244254,248,227,172,239,237,112 C,0,245303,245512,239,237,112,239,112,223 C,0,246561,246771,239,237,112,248,227,172 C,0,247820,248030,248,227,172,154,221,133 C,0,249079,249289,154,221,133,127,239,112 F,0,249708,,0
Animation,Foreground,Centre,"SB\neko\neko-.png",320,240,10,111.8,LoopForever M,0,242995,,376,236 F,0,242995,,1 C,0,244044,244254,239,112,223,243,157,96 C,0,245303,245512,243,157,96,154,221,133 C,0,246561,246771,154,221,133,239,237,112 C,0,247820,248030,239,237,112,98,157,231 C,0,249079,249289,98,157,231,126,205,239 F,0,249708,,0
Animation,Foreground,Centre,"SB\neko\neko-.png",320,240,10,111.8,LoopForever M,0,242995,,79,236 F,0,242995,,1 C,0,244044,244254,98,157,231,243,157,96 C,0,245303,245512,243,157,96,154,221,133 C,0,246561,246771,154,221,133,239,237,112 C,0,247820,248030,239,237,112,98,157,231 C,0,249079,249289,98,157,231,126,205,239 F,0,249708,,0
Animation,Foreground,Centre,"SB\neko\neko-.png",320,240,10,111.8,LoopForever M,0,242995,,230,236 F,0,242995,,1 C,0,244044,244254,191,142,190,223,173,255 C,0,245303,245512,223,173,255,234,97,117 C,0,246561,246771,234,97,117,154,221,133 C,0,247820,248030,154,221,133,248,227,172 C,0,249079,249289,172,248,188,255,231,0 F,0,249708,,0
Animation,Foreground,Centre,"SB\neko\neko-.png",320,240,10,111.8,LoopForever M,0,242995,,79,95 F,0,243557,,0.99488 C,0,244044,244254,126,205,239,98,157,231 C,0,245303,245512,98,157,231,43,142,190 C,0,246561,246771,43,142,190,126,205,239 C,0,247820,248030,126,205,239,243,157,96 C,0,249079,249289,243,157,96,239,237,112 F,0,249708,,0
Animation,Foreground,Centre,"SB\neko\neko-.png",320,240,10,111.8,LoopForever M,0,242995,,79,377 F,0,242995,,1 C,0,244044,244254,242,154,125,235,98,59 C,0,245303,245512,235,98,59,239,112,223 C,0,246561,246771,239,237,112,248,227,172 C,0,247820,248030,248,227,172,255,255,255 C,0,249079,249289,255,255,255,127,239,112 F,0,249708,,0
Sprite,Foreground,Centre,"SB\2\orange.jpg",320,240 S,0,255163,,0.5391998 M,0,255163,256421,244,92,205,40 F,0,256002,256421,1,0
Sprite,Foreground,Centre,"SB\2\green4.jpg",320,240 S,0,255163,,0.2115195 M,0,255163,256421,407,363,444,411 F,0,256002,256421,1,0.09376007
Sprite,Foreground,Centre,"SB\2\blue.jpg",320,240 S,0,255163,,0.3856 M,0,255163,256421,205,371,160,419 F,0,256002,256421,1,0
Sprite,Foreground,Centre,"SB\2\red.jpg",320,240 S,0,255163,,0.41632 M,0,255163,256421,459,181,532,150 F,0,256002,256421,1,0
Sprite,Foreground,Centre,"SB\2\green4.jpg",320,240 S,0,254743,,1.70656 F,0,254743,255163,1
Sprite,Foreground,Centre,"SB\2\yellow2.jpg",320,240 F,0,253904,,1 S,0,253904,,1.70656 F,0,254743,255163,1,0
Sprite,Foreground,Centre,"SB\2\pink.jpg",320,240 F,0,253065,,1 S,0,253065,,1.70656 F,0,253904,254743,1,0
Sprite,Foreground,Centre,"SB\2\orange4.jpg",320,240 F,0,252226,,1 S,0,252226,,1.70656 F,0,253065,253904,1,0
Sprite,Foreground,Centre,"SB\2\green3.jpg",320,240 F,0,251386,,1 S,0,251386,,1.70656 F,0,252226,253065,1,0
Sprite,Foreground,Centre,"SB\2\blue2.jpg",320,240 F,0,250547,,1 S,0,250547,,1.70656 F,0,251386,252226,1,0
Sprite,Foreground,Centre,"SB\2\blue.jpg",320,240 F,0,249708,,1 S,0,249708,,1.70656 F,0,250547,251386,1,0
Sprite,Foreground,Centre,"SB\2\..orz.jpg",320,240 S,0,249708,,1.70656 F,0,249708,250547,1,0
Sprite,Foreground,Centre,"SB\2\b1.png",320,240 F,0,255163,255268,1
Animation,Foreground,Centre,"SB\neko\neko-.png",320,240,10,111.8,LoopForever S,0,249708,,1.53248 C,0,249708,,246,173,255 M,0,249708,255163,320,240
Sprite,Foreground,Centre,"SB\2\b2.png",320,240 F,0,255268,255372,1
Sprite,Foreground,Centre,"SB\2\star.png",320,240 M,0,255163,256002,456,98,490,75 R,0,255163,257261,0,-6.67648 F,0,256421,257261,1,0
Sprite,Foreground,Centre,"SB\2\star.png",320,240 S,0,255163,,0.82592 M,0,255163,256002,131,204,78,195 R,0,255163,257261,-2.58048,4.42368 F,0,256421,257261,1,0
Sprite,Foreground,Centre,"SB\2\star.png",320,240 S,0,255163,,0.6518402 M,0,255163,256002,480,359,519,371 R,0,255163,257261,-0.73728,6.7584 F,0,256421,257261,1,0.04255997
Sprite,Foreground,Centre,"SB\white.jpg",320,240 F,0,67191,67610,0,1 F,0,67610,68449,1 F,0,68449,68659,1,0
Sprite,Foreground,Centre,"SB\white.jpg",320,240 F,0,41386,41596,0,1 F,0,41596,41701,1,0 F,0,132016,132226,0,1 F,0,132226,,1 F,0,132226,132435,1,0 F,0,157820,158240,0,1 F,0,158240,159079,1 F,0,159079,159289,1,0 F,0,208170,208589,0,1 F,0,208589,209428,1 F,0,209428,209848,1,0 F,0,222435,222855,0,1 F,0,222855,223275,1,0
Sprite,Foreground,Centre,"SB\heart.png",320,240 S,0,7820,,1 F,0,7820,8030,0,1 C,0,7820,11386,30,0,255,7,118,255 C,0,11386,14743,7,118,255,101,213,206 C,0,14743,18100,101,213,206,78,236,141 C,0,18100,21037,78,236,141,171,236,78 F,0,21037,,0.9952381
Sprite,Foreground,Centre,"SB\heart2.png",320,240 M,0,7820,,60,302 F,0,7820,8030,0,1 R,0,7820,19778,-0.5939197,-12.61568 F,0,19358,19778,1,0
Sprite,Foreground,Centre,"SB\sweet.png",320,240 M,0,11177,,593,138 F,0,11177,11386,0,1 R,0,11177,19778,0,5.959681 F,0,19358,19778,1,0
Sprite,Foreground,Centre,"SB\sweet2.png",320,240 M,0,17890,,530,350 F,0,17890,18100,0,1 R,0,17890,19778,0,-2.949121 F,0,19358,19778,1,0
Sprite,Foreground,Centre,"SB\white.jpg",320,240 F,0,112086,112191,0.488,0
Sprite,Foreground,Centre,"SB\title.png",320,240 F,0,7820,10547,1 M,0,8030,,316,176 F,0,10547,11386,1,0
Sprite,Foreground,Centre,"SB\artist.png",320,240 M,0,10547,,309,179 F,0,10547,11386,0,1 F,0,13904,14743,0.9964243,0
Sprite,Foreground,Centre,"SB\Source.png",320,240 M,0,13904,,321,179 F,0,13904,14743,0,1 F,0,14743,17261,1,0.9937419 F,0,17261,18100,0.9937419,0
Sprite,Foreground,Centre,"SB\SB.png",320,240 M,0,17261,,317,195 F,0,17261,18100,0,1 F,0,18100,21037,1,0.9955733
Sprite,Foreground,Centre,"SB\2\star.png",320,240 S,0,19778,,1 M,0,19778,20512,115,-19,134,490
Sprite,Foreground,Centre,"SB\2\star.png",320,240 M,0,20198,21037,425,-25,449,326
Sprite,Foreground,Centre,"SB\2\star.png",320,240 M,0,20617,21037,72,-29,79,271
Sprite,Foreground,Centre,"SB\2\star.png",320,240 M,0,20722,21037,390,-34,389,147
Sprite,Foreground,Centre,"SB\2\star.png",320,240 M,0,20617,21037,504,-28,552,405
Sprite,Foreground,Centre,"SB\2\star.png",320,240 M,0,20722,21037,188,-30,191,128
Sprite,Foreground,Centre,"SB\2\star.png",320,240 F,0,20827,,1 M,0,20827,21037,117,-29,117,107
Sprite,Foreground,Centre,"SB\2\star.png",320,240 M,0,20932,21037,475,-27,482,75
Sprite,Foreground,Centre,"SB\2\star.png",320,240 M,0,20722,21037,543,-23,555,221
Sprite,Foreground,Centre,"SB\2\star.png",320,240 M,0,20827,21037,291,-27,305,267
Sprite,Foreground,Centre,"N.jpg",320,240 S,0,239219,,0.625 F,0,239219,239638,0,1
//Storyboard Sound Samples
//Background Colour Transformations
3,100,163,162,255

[TimingPoints]
1317,419.58041958042,4,2,1,70,1,0
2995,-100,4,2,1,5,0,0
4673,-100,4,2,1,70,0,0
6351,-100,4,2,1,5,0,0
21037,-100,4,1,1,30,0,0
21456,-100,4,2,1,60,0,0
33205,-100,4,2,1,20,0,0
33624,-100,4,2,1,40,0,0
34044,-100,4,2,1,60,0,0
34463,-100,4,2,1,80,0,0
34883,-100,4,2,2,70,0,0
41386,-100,4,1,1,30,0,0
41596,-100,4,2,1,70,0,0
66771,-100,4,2,1,45,0,0
68030,-100,4,2,1,5,0,0
68449,-100,4,2,1,70,0,1
81771,-100,4,2,1,70,0,0
81876,-100,4,2,1,70,0,1
98659,-100,4,2,2,70,0,0
99918,-100,4,2,2,5,0,0
112086,-100,4,2,1,70,0,0
125512,-100,4,2,2,70,0,0
132226,-100,4,2,1,70,0,0
158240,-100,4,2,2,5,0,0
159079,-100,4,2,1,70,0,1
172400,-100,4,2,1,70,0,0
172505,-100,4,2,1,70,0,1
189289,-100,4,2,1,70,0,0
190967,-100,4,2,1,5,0,0
209428,-100,4,2,1,70,0,1
222750,-100,4,2,1,70,0,0
222855,-100,4,2,1,70,0,1
237750,-100,4,2,2,70,0,1
237855,-100,4,2,1,70,0,1
239638,-100,4,2,1,70,0,0
241317,-100,4,2,1,5,0,0
249708,-100,4,2,2,70,0,0
255163,-100,4,2,2,5,0,0

[Colours]
Combo1 : 128,0,255
Combo2 : 98,255,98
Combo3 : 49,207,253
Combo4 : 255,98,255

[HitObjects]
256,192,1317,5,0
256,192,2995,5,0
256,192,3834,1,0
256,192,4673,5,0
256,192,6351,5,0
256,192,7191,1,0
108,96,21037,5,4
192,124,21456,6,0,B|256:136|320:124,2,128,4|2|0
124,180,22715,2,0,B|224:216|208:336,1,192,2|0
236,368,23554,2,0,B|312:364|336:292,1,128,2|0
304,216,24393,1,2
244,152,24813,6,0,B|204:152|180:164|180:164|156:152|116:152,1,128,0|2
76,152,25442,2,0,B|72:216|12:252|12:252|20:328,1,192,0|2
60,344,26282,2,0,B|144:360|252:344,1,192,0|2
324,292,27330,2,0,B|308:232|324:164,1,128,0|2
292,80,28170,5,0
236,148,28589,2,0,B|216:172|180:176,1,64,2|0
108,232,29219,2,0,B|128:256|164:260,1,64,0|2
204,280,29638,2,0,B|304:252|400:300,1,192,0|2
472,252,30687,2,0,B|508:316,2,64,0|0|2
440,220,31317,6,0,B|420:92,1,128,0|0
380,76,31946,1,2
304,32,32365,1,0
308,116,32785,1,2
268,132,32995,2,0,B|204:160|144:128|144:128|128:156|84:172,1,192,0|2
64,84,34044,2,0,B|48:52|12:48,2,64,0|0|2
16,160,34883,6,0,B|12:296,2,128,12|10|10
88,212,36142,2,0,B|92:348,2,128,8|10|10
320,348,38240,6,0,B|456:352,2,128,8|10|10
372,276,39499,2,0,B|508:272,2,128,8|10|10
200,132,41386,5,0
244,120,41596,2,0,B|296:128|288:216|232:216,1,128,4|8
204,240,42226,2,0,B|136:260|116:328|116:328|56:312,1,192,0|8
32,276,43065,2,0,B|80:180|32:92,1,192,2|8
108,44,44114,2,0,B|132:24|168:20,2,64,0|0|8
172,104,44953,6,0,B|232:112|300:104,1,128,4|8
340,88,45582,2,0,B|424:64|456:180|360:200,1,192,0|8
328,212,46421,2,0,B|240:196|136:212,1,192,2|8
76,276,47470,2,0,B|60:304|24:308,2,64,0|0|8
48,192,48310,6,0,B|60:120|16:72,1,128,4|8
40,36,48939,2,0,B|100:24|148:44|148:44|192:28|236:36,1,192,0|8
256,72,49778,2,0,B|232:132|268:208,1,128
288,232,50407,1,12
376,240,50827,1,0
368,328,51247,1,8
280,324,51666,6,0,B|308:348|300:380,2,64,0|0|8
236,328,52296,2,0,B|168:336|104:328,1,128,2|2
68,308,52925,1,8
36,276,53135,2,0,B|24:216|56:172|56:172|12:144|8:80,1,192,4|8
128,36,54393,2,0,B|160:32|192:36,2,64,0|8|0
100,72,55023,6,0,B|160:100|184:164,1,128,4|8
184,208,55652,1,0
172,252,55862,1,0
236,316,56282,1,8
268,288,56491,2,0,B|332:304|396:288,1,128,0|0
408,244,57121,1,8
460,172,57540,2,0,B|512:220,2,64,0|0|8
376,140,58379,6,0,B|320:96|336:16,1,128,2|8
292,8,59009,2,0,B|244:96|116:72,1,192,0|8
84,64,59848,1,0
60,152,60268,2,0,B|56:192|28:208,1,64,0|8
4,244,60687,2,0,B|76:256|88:340,1,128
124,352,61317,1,8
204,312,61736,6,0,B|272:328|332:300,1,128,4|8
368,280,62365,1,0
432,216,62785,2,0,B|464:228|480:264,2,64,0|8|0
364,156,63624,2,0,B|376:124|412:108,2,64,0|8|0
300,220,64463,2,0,B|268:208|252:172,2,64,0|8|4
216,324,65512,5,8
132,296,65932,2,0,B|92:268|40:280|40:280|8:240,1,128,0|8
16,164,66771,1,2
16,164,68030,2,0,B|52:148|64:116,1,64
92,88,68449,6,0,B|156:80|220:88,1,128,4|8
252,120,69079,2,0,B|316:132|380:120,1,128
420,104,69708,1,8
448,188,70128,2,0,B|412:260|336:244,1,128,0|8
304,224,70758,2,0,B|240:212|176:224,1,128
132,232,71387,1,8
92,248,71596,1,0
56,272,71806,6,0,B|64:196|12:152,1,128,4|8
32,116,72435,2,0,B|132:136|216:84,1,192,0|8
252,56,73275,1,0
320,112,73694,2,0,B|344:136|384:128,1,64,0|8
424,132,74114,2,0,B|376:184|384:256,1,128
388,292,74743,1,8
312,340,75163,6,0,B|248:328|184:340,1,128,4|8
144,316,75792,1,0
84,252,76212,2,0,B|48:256|20:236,1,64,0|8
4,196,76631,2,0,B|20:144|72:124|72:124|60:80|88:32,1,192,0|8
128,28,77470,2,0,B|220:52|320:28,1,192,0|8
360,40,78310,6,0,B|385:82|373:126|373:126|425:146|441:198,1,192,0|8
404,280,79358,2,0,B|448:324,2,64,0|0|8
316,268,80198,2,0,B|248:256|184:264,1,128,0|8
144,268,80827,1,0
80,208,81247,1,0
48,176,81456,1,8
96,100,81876,6,0,B|160:88|224:100,1,128,4|8
264,120,82505,2,0,B|352:156|452:120,2,192,0|8|0
232,152,83974,2,0,B|168:163|104:151,1,128,8|0
68,128,84603,2,0,B|24:136|12:172,1,64,0|8
60,240,85233,6,0,B|132:252|168:312,1,128,0|8
200,336,85862,2,0,B|264:348|328:336,1,128
368,316,86491,1,8
404,288,86701,1,0
460,220,87121,2,0,B|436:196|440:160,1,64,0|8
440,116,87540,1,0
368,64,87960,1,0
324,56,88170,1,8
240,92,88589,6,0,B|208:152|128:164,1,128,4|8
112,200,89219,2,0,B|100:252|48:272|48:272|28:240,1,128
12,208,89848,1,8
24,164,90058,2,0,B|36:60|156:28,1,192,0|8
192,32,90897,1,0
260,92,91317,2,0,B|280:120|272:160,1,64,0|8
236,180,91736,6,0,B|208:240|228:312,1,128,4|0
236,348,92365,1,8
324,332,92785,2,0,B|360:332|384:300,1,64
412,272,93205,2,0,B|460:196|460:196|512:176|512:104,1,192,8|0
492,72,94044,1,8
408,40,94463,2,0,B|376:32|344:40,1,64
304,64,94883,1,8
272,96,95093,6,0,B|212:136|128:116,1,128,4|0
108,100,95722,1,8
68,120,95932,2,0,B|100:224|28:316,1,192,0|8
8,336,96771,1,0
140,312,97400,2,0,B|212:336|268:284|268:284|320:244|396:260,1,256,4|8
344,340,98659,5,4
256,192,98764,12,0,100337
84,84,112086,6,0,B|152:108|208:60,1,128,4|8
236,32,112715,2,0,B|208:124|232:224,1,192,0|8
356,272,113974,2,0,B|384:252|416:248,1,64,0|8
500,276,114603,2,0,B|512:344,2,64,0|0|8
480,188,115442,6,0,B|408:168|392:96,1,128,2|8
376,60,116072,2,0,B|328:108|252:96,1,128
216,80,116701,1,8
160,148,117121,2,0,B|108:156|64:140|64:140|32:148,1,128,0|8
33,236,117960,2,0,B|64:244|64:244|108:228|160:236,1,128,0|8
200,252,118589,1,0
232,284,118799,6,0,B|292:304|360:284,1,128,2|8
400,264,119428,1,0
460,196,119848,2,0,B|448:164|460:132,2,64,0|8|0
488,280,120687,2,0,B|500:312|488:344,2,64,0|8|0
400,264,121526,1,0
368,236,121736,1,8
344,196,121946,1,0
268,148,122365,6,0,B|236:140|204:148,1,64,0|8
136,204,122995,2,0,B|116:132|40:124,1,128,0|8
8,152,123624,2,0,B|56:236|8:336,1,192,0|8
92,364,124673,2,0,B|152:356|220:364,1,128,0|8
276,296,125512,6,0,B|308:264|364:268|364:268|400:244,2,128,12|10|10
348,352,126771,2,0,B|390:337|439:365|439:365|482:359,2,128,8|10|10
236,108,128869,6,0,B|204:76|148:80|148:80|112:56,2,128,8|10|10
164,164,130128,2,0,B|121:149|72:177|72:177|29:171,2,128,8|10|10
396,296,132226,6,0,B|388:228|444:184,1,128,4|8
436,140,132855,2,0,B|352:156|352:156|296:132|240:152,1,192,0|8
220,184,133694,2,0,B|192:224|124:232|124:232|144:192|112:148,1,192,0|8
52,92,134743,2,0,B|72:24,2,64,0|0|8
8,172,135582,6,0,B|32:232|16:300,1,128,2|8
48,328,136212,2,0,B|84:344|84:344|160:324|236:344,1,192,0|8
276,324,137051,2,0,B|360:344|376:216|284:212,1,192,0|8
236,140,138100,2,0,B|248:108|280:96,2,64,0|0|8
204,224,138939,6,0,B|140:256|72:236,1,128,4|8
40,216,139568,1,0
28,128,139988,2,0,B|48:96|40:64,1,64,0|8
28,24,140407,1,0
116,40,140827,2,0,B|148:52|180:48,1,64,0|8
224,56,141247,2,0,B|224:112|196:148|196:148|224:180|224:248,1,192,0|8
304,280,142296,6,0,B|312:320|284:344,2,64,0|0|8
336,248,142925,1,0
412,204,143344,2,0,B|424:244|468:240,1,64,0|8
496,216,143764,2,0,B|476:160|500:112|500:112|460:80|468:28,1,192,4|8
376,32,144813,2,2,B|316:68|248:48,1,128,0|8
180,100,145652,6,0,B|128:144|144:216,1,128,4|8
160,256,146282,1,0
192,284,146491,2,0,B|224:284|252:272|252:272|280:284|316:284,1,128,0|8
356,264,147121,2,0,B|420:248|436:180|436:180|476:188|504:172,1,192,0|8
460,96,148170,2,0,B|396:60|340:100,1,128,0|8
264,140,149009,6,0,B|200:152|136:140,1,128,2|8
96,124,149638,1,0
56,104,149848,2,0,B|72:168|40:228,1,128,0|8
16,268,150477,1,2
144,304,151107,2,0,B|132:368,2,64,8|0|0
212,248,151946,2,0,B|252:244|280:272,1,64,8|0
304,296,152365,6,0,B|368:316|432:296,1,128,4|8
456,260,152995,2,0,B|424:160|480:72,1,192,0|8
504,40,153834,1,0
416,20,154254,2,0,B|368:20|336:0,2,64,0|8|0
388,104,155093,2,0,B|376:140|340:148,1,64,0|8
300,140,155512,6,0,B|240:128|216:72|216:72|192:108|120:96,1,192,4|8
64,136,156561,2,0,B|36:264,1,128,0|8
92,332,157400,1,2
324,200,158659,2,0,B|288:192|272:160,1,64
232,148,159079,6,0,B|212:220|132:212,1,128,4|8
100,184,159708,2,0,B|108:108|36:72,1,128
4,96,160337,1,8
8,184,160757,2,0,B|40:240|16:312,1,128,0|8
56,332,161386,2,0,B|112:300|184:324,1,128
224,340,162016,1,8
268,344,162226,6,0,B|360:336|360:336|380:280|444:268,1,192,2|8
464,244,163065,2,0,B|472:104,1,128
436,88,163694,1,8
360,40,164114,2,0,B|292:60|216:44,1,128,0|8
144,56,164953,1,0
156,144,165372,1,8
244,136,165792,6,0,B|276:196|360:184,1,128,0|8
396,176,166421,1,0
440,252,166841,2,0,B|452:284|484:300,2,64,0|8|0
352,252,167680,2,0,B|332:280|300:288,1,64,0|8
260,268,168100,2,0,B|160:248|64:268,1,192,0|8
32,240,168939,6,0,B|68:136|16:44,1,192,2|8
200,88,170407,1,8
244,84,170617,2,0,B|284:80|308:64|308:64|332:80|364:88,1,128
408,88,171247,1,8
448,108,171456,1,0
468,196,171876,1,0
452,240,172086,1,8
364,260,172505,6,0,B|300:248|236:260,1,128,4|8
172,196,173344,2,0,B|108:208|44:196,1,128,0|8
48,108,174184,2,0,B|112:96|176:108,1,128,0|8
240,44,175023,2,0,B|304:56|368:44,1,128,0|8
412,56,175652,6,0,B|472:96|452:176|452:176|384:184,1,192,2|8
352,188,176491,1,0
272,228,176911,2,0,B|248:256|216:264,1,64,0|8
176,264,177330,1,0
144,180,177750,2,0,B|108:192|92:224,2,64,0|8|0
212,124,178589,1,0
212,124,178799,1,8
280,180,179219,6,0,B|344:192|408:180,1,128,4|8
452,192,179848,2,0,B|424:260|464:320|464:320|428:308|388:320,1,192,0|8
360,316,180687,1,0
280,356,181107,2,0,B|248:364|216:356,1,64,0|8
176,336,181526,1,0
112,272,181946,2,0,B|88:244|96:208,1,64,0|8
128,184,182365,6,0,B|184:184|220:152|220:152|256:184|308:184,1,192,4|8
384,144,183414,2,0,B|420:148|448:128,2,64,0|0|8
376,188,184044,2,0,B|364:320,1,128,0|0
332,348,184673,1,8
252,308,185093,2,0,B|220:304|188:308,2,64,0|0|8
288,280,185722,6,0,B|296:144,1,128
300,108,186351,1,8
336,80,186561,2,0,B|400:72|464:80,1,128
500,108,187191,1,8
472,144,187400,2,0,B|432:184|388:204|388:204|440:232|472:272,1,192,0|4
292,320,188869,1,8
256,240,189289,5,4
256,192,189393,12,0,190967
176,68,209428,6,0,B|128:112|48:104,1,128,4|8
28,136,210058,2,0,B|40:204|28:264,1,128
12,304,210687,1,8
88,348,211107,2,0,B|68:380|28:384,2,64,0|0|8
128,328,211736,2,0,B|192:320|260:328,1,128
296,348,212365,1,8
336,268,212785,6,0,B|396:236|460:252,1,128,2|8
484,216,213414,2,0,B|508:132|508:132|464:144|400:120,1,192,0|8
368,100,214254,1,0
288,136,214673,2,0,B|252:136|224:156,1,64,0|8
196,188,215093,2,0,B|148:240|76:232,1,128
36,224,215722,1,8
52,136,216142,6,0,B|112:100|120:32,1,128,0|8
196,80,216981,2,0,B|203:146|263:182,1,128,0|8
308,168,217610,2,0,B|364:192|440:168|440:168|432:236,1,192,0|8
404,260,218449,2,0,B|336:276|324:352,1,128
280,364,219079,1,8
240,340,219289,6,0,B|148:320|48:340,1,192,0|8
44,204,220547,2,0,B|72:136,1,64,0|8
104,116,220967,1,0
148,120,221177,2,0,B|212:136|276:120,1,128,0|8
316,100,221806,1,0
372,172,222226,2,0,B|404:164|436:172,2,64,0|8|0
332,192,222855,6,0,B|312:264|228:256,1,128,4|8
196,232,223484,2,0,B|120:224|80:284,1,128
56,316,224114,1,8
4,244,224533,2,0,B|32:176|20:108,1,128,0|8
52,88,225163,2,0,B|120:100|184:72,1,128
220,60,225792,1,8
292,116,226212,6,0,B|360:120|400:168|336:164|368:104|368:104,1,128,0|8
408,76,226841,1,0
464,148,227261,2,0,B|480:212,1,64,0|8
448,240,227680,2,0,B|348:288|244:256,1,192,2|8
220,244,228519,1,0
148,188,228939,2,0,B|160:120,2,64,0|8|0
128,228,229568,6,0,B|64:244|0:228,1,128,4|8
0,184,230198,2,0,B|40:156|56:104|56:104|92:64|148:56,1,192,0|8
180,48,231037,1,0
248,104,231456,2,0,B|280:120|316:112,1,64,0|8
428,180,232296,2,0,B|396:164|360:172,1,64,0|8
332,200,232715,6,0,B|256:256|144:236,1,192,4|8
88,168,233764,2,0,B|112:136|104:100,2,64,0|0|8
52,196,234393,2,0,B|28:260|56:320|56:320|124:336,1,192,0|8
204,308,235442,2,0,B|224:344|208:372,2,64,0|0|8
176,272,236072,6,0,B|156:208|176:144,1,128,4|0
200,108,236701,1,8
244,96,236911,2,0,B|336:112|436:96,1,192,0|8
476,80,237750,1,8
416,200,238379,2,0,B|432:296|260:328|248:208,1,256,12|8
176,160,239638,5,4
256,192,239743,12,0,241317
144,72,249708,6,0,B|208:80|272:72,2,128,12|10|10
164,160,250967,2,0,B|100:152|36:160,2,128,8|10|10
368,336,253065,6,0,B|304:328|240:336,2,128,12|10|10
348,248,254324,2,0,B|412:256|476:248,2,128,8|10|10
